999
DXF file: 20003551_-.dxf
999
Pro/ENGINEER 2019352 by Parametric Technology Corporation
  0
SECTION
  2
HEADER
  9
$ACADVER
  1
AC1032
  9
$DWGCODEPAGE
  3
ANSI_1252
  9
$EXTMAX
 10
420.0
 20
297.0
 30
0.0
  9
$EXTMIN
 10
0.0
 20
0.0
 30
0.0
  9
$LIMMIN
 10
0.0
 20
0.0
  9
$LIMMAX
 10
420.0
 20
297.0
  9
$VIEWCTR
 10
210.0
 20
148.5
  9
$VIEWSIZE
 40
297.0
  9
$CLAYER
  8
0
  9
$LTSCALE
 40
23.1
  9
$CELTYPE
  6
BYLAYER
  9
$DIMSCALE
 40
1.0
  9
$DIMASZ
 40
3.5
  9
$DIMEXO
 40
0.0
  9
$DIMDLI
 40
15.96
  9
$DIMEXE
 40
1.5
  9
$DIMCEN
 40
3.78
  9
$DIMLFAC
 40
1.0
  9
$DIMBLK
  1
_FILLED
  9
$DIMALT
 70
0
  9
$DIMALTF
 40
0.0393700787
  9
$DIMTXT
 40
3.5
  9
$DIMTOL
 70
1
  9
$DIMLIM
 70
0
  9
$DIMTFAC
 40
1.0
  9
$DIMTP
 40
0.05
  9
$DIMTM
 40
0.05
  9
$DIMGAP
 40
0.625
  9
$DIMDSEP
 70
46
  9
$AUNITS
 70
0
  9
$PDMODE
 70
3
  9
$PDSIZE
 40
0.3125
  9
$HANDSEED
  5
5B3
  9
$TILEMODE
 70
1
  9
$MEASUREMENT
 70
1
  9
$INSUNITS
 70
4
  0
ENDSEC
  0
SECTION
  2
CLASSES
  0
CLASS
  1
ACDBDICTIONARYWDFLT
  2
AcDbDictionaryWithDefault
  3
AutoCAD 2000
 90
0
 91
1
280
0
281
0
  0
CLASS
  1
ACDBPLACEHOLDER
  2
AcDbPlaceHolder
  3
AutoCAD 2000
 90
0
 91
1
280
0
281
0
  0
CLASS
  1
LAYOUT
  2
AcDbLayout
  3
AutoCAD 2000
 90
0
 91
0
280
0
281
0
  0
CLASS
  1
TABLESTYLE
  2
AcDbTableStyle
  3
ObjectDBX Classes
 90
2047
 91
1
280
0
281
0
  0
CLASS
  1
ACAD_TABLE
  2
AcDbTable
  3
ObjectDBX Classes
 90
1025
 91
1
280
0
281
1
  0
ENDSEC
  0
SECTION
  2
TABLES
  0
TABLE
  2
VPORT
  5
8
100
AcDbSymbolTable
 70
2
  0
VPORT
  5
1F4
100
AcDbSymbolTableRecord
100
AcDbViewportTableRecord
  2
*ACTIVE
 70
0
 10
0.0
 20
0.0
 11
1.0
 21
1.0
 12
210.0
 22
148.5
 13
0.0
 23
0.0
 14
1.0
 24
1.0
 15
0.0
 25
0.0
 16
0.0
 26
0.0
 36
1.0
 17
0.0
 27
0.0
 37
0.0
 40
297.0
 41
1.4141414141
 42
50.0
 43
0.0
 44
0.0
 50
0.0
 51
0.0
 71
0
 72
100
 73
1
 74
1
 75
0
 76
0
 77
0
 78
0
  0
ENDTAB
  0
TABLE
  2
LTYPE
  5
5
100
AcDbSymbolTable
 70
6
  0
LTYPE
  5
14
100
AcDbSymbolTableRecord
100
AcDbLinetypeTableRecord
  2
BYBLOCK
 70
0
  3

 72
65
 73
0
 40
0.0
  0
LTYPE
  5
15
100
AcDbSymbolTableRecord
100
AcDbLinetypeTableRecord
  2
BYLAYER
 70
0
  3

 72
65
 73
0
 40
0.0
  0
LTYPE
  5
16
100
AcDbSymbolTableRecord
100
AcDbLinetypeTableRecord
  2
CONTINUOUS
 70
64
  3
Solid line
 72
65
 73
0
 40
0.0
  0
LTYPE
  5
1F5
100
AcDbSymbolTableRecord
100
AcDbLinetypeTableRecord
  2
CENTER
 70
64
  3
____ _ ____ _ ____ _ ____ _ ____ _ ____ _ ____
 72
65
 73
4
 40
0.6
 49
0.375
 74
0
 49
-0.075
 74
0
 49
0.075
 74
0
 49
-0.075
 74
0
  0
LTYPE
  5
1F6
100
AcDbSymbolTableRecord
100
AcDbLinetypeTableRecord
  2
HIDDEN
 70
64
  3
- - - - - - - - - - - - - - - - - - - -
 72
65
 73
2
 40
0.2
 49
0.1
 74
0
 49
-0.1
 74
0
  0
LTYPE
  5
1F7
100
AcDbSymbolTableRecord
100
AcDbLinetypeTableRecord
  2
PHANTOM
 70
64
  3
_____ _ _ _____ _ _ _____ _ _ _____
 72
65
 73
6
 40
0.8
 49
0.45
 74
0
 49
-0.05
 74
0
 49
0.1
 74
0
 49
-0.05
 74
0
 49
0.1
 74
0
 49
-0.05
 74
0
  0
LTYPE
  5
1F8
100
AcDbSymbolTableRecord
100
AcDbLinetypeTableRecord
  2
DOT
 70
64
  3
. . . . . . . . . . . . . . . . . . . .
 72
65
 73
2
 40
0.2
 49
0.1
 74
0
 49
-0.1
 74
0
  0
LTYPE
  5
1F9
100
AcDbSymbolTableRecord
100
AcDbLinetypeTableRecord
  2
DASHED
 70
64
  3
- - - - - - - - - - - - - - - - - - - -
 72
65
 73
2
 40
0.2
 49
0.1
 74
0
 49
-0.1
 74
0
  0
ENDTAB
  0
TABLE
  2
LAYER
  5
2
100
AcDbSymbolTable
 70
36
  0
LAYER
  5
10
100
AcDbSymbolTableRecord
100
AcDbLayerTableRecord
  2
0
 70
0
 62
7
  6
CONTINUOUS
370
-3
390
F
  0
LAYER
  5
1FA
100
AcDbSymbolTableRecord
100
AcDbLayerTableRecord
  2
DEFAULT_1
 70
0
 62
7
  6
CENTER
370
-3
390
F
  0
LAYER
  5
1FB
100
AcDbSymbolTableRecord
100
AcDbLayerTableRecord
  2
DEFAULT_2
 70
0
 62
8
  6
HIDDEN
370
-3
390
F
  0
LAYER
  5
1FC
100
AcDbSymbolTableRecord
100
AcDbLayerTableRecord
  2
DEFAULT_3
 70
0
 62
7
  6
PHANTOM
370
-3
390
F
  0
LAYER
  5
1FD
100
AcDbSymbolTableRecord
100
AcDbLayerTableRecord
  2
3D_NOTIZEN
 70
0
 62
7
  6
CONTINUOUS
370
-3
390
F
  0
LAYER
  5
1FE
100
AcDbSymbolTableRecord
100
AcDbLayerTableRecord
  2
AUSFORMSCHRAEGEN
 70
0
 62
7
  6
CONTINUOUS
370
-3
390
F
  0
LAYER
  5
1FF
100
AcDbSymbolTableRecord
100
AcDbLayerTableRecord
  2
BEZUGSACHSEN
 70
0
 62
7
  6
CONTINUOUS
370
-3
390
F
  0
LAYER
  5
200
100
AcDbSymbolTableRecord
100
AcDbLayerTableRecord
  2
BEZUGSEBENEN
 70
0
 62
7
  6
CONTINUOUS
370
-3
390
F
  0
LAYER
  5
201
100
AcDbSymbolTableRecord
100
AcDbLayerTableRecord
  2
BG_STARTBEZUEGE
 70
0
 62
7
  6
CONTINUOUS
370
-3
390
F
  0
LAYER
  5
202
100
AcDbSymbolTableRecord
100
AcDbLayerTableRecord
  2
FASEN
 70
0
 62
7
  6
CONTINUOUS
370
-3
390
F
  0
LAYER
  5
203
100
AcDbSymbolTableRecord
100
AcDbLayerTableRecord
  2
FLAECHEN
 70
0
 62
7
  6
CONTINUOUS
370
-3
390
F
  0
LAYER
  5
204
100
AcDbSymbolTableRecord
100
AcDbLayerTableRecord
  2
GEWINDE
 70
0
 62
7
  6
CONTINUOUS
370
-3
390
F
  0
LAYER
  5
205
100
AcDbSymbolTableRecord
100
AcDbLayerTableRecord
  2
HILFEN
 70
0
 62
7
  6
CONTINUOUS
370
-3
390
F
  0
LAYER
  5
206
100
AcDbSymbolTableRecord
100
AcDbLayerTableRecord
  2
KURVEN
 70
0
 62
7
  6
CONTINUOUS
370
-3
390
F
  0
LAYER
  5
207
100
AcDbSymbolTableRecord
100
AcDbLayerTableRecord
  2
PLAZIERUNG
 70
0
 62
7
  6
CONTINUOUS
370
-3
390
F
  0
LAYER
  5
208
100
AcDbSymbolTableRecord
100
AcDbLayerTableRecord
  2
RUNDUNGEN
 70
0
 62
7
  6
CONTINUOUS
370
-3
390
F
  0
LAYER
  5
209
100
AcDbSymbolTableRecord
100
AcDbLayerTableRecord
  2
TEIL_STARTBEZUEGE
 70
0
 62
7
  6
CONTINUOUS
370
-3
390
F
  0
LAYER
  5
20A
100
AcDbSymbolTableRecord
100
AcDbLayerTableRecord
  2
ZEICHNUNGSBEMASSUNGEN
 70
0
 62
7
  6
CONTINUOUS
370
-3
390
F
  0
ENDTAB
  0
TABLE
  2
STYLE
  5
3
100
AcDbSymbolTable
 70
1
  0
STYLE
  5
11
100
AcDbSymbolTableRecord
100
AcDbTextStyleTableRecord
  2
STANDARD
 70
0
 40
0.0
 41
0.7
 50
0.0
 71
0
 42
0.2
  3
txt
  4

  0
STYLE
  5
20B
100
AcDbSymbolTableRecord
100
AcDbTextStyleTableRecord
  2
TEXTSTYLE_1
 70
0
 40
0.0
 41
0.8
 50
0.0
 71
0
 42
0.2
  3
gdt
  4

  0
STYLE
  5
20C
100
AcDbSymbolTableRecord
100
AcDbTextStyleTableRecord
  2
TEXTSTYLE_2
 70
0
 40
0.0
 41
1.0
 50
0.0
 71
0
 42
0.2
  3
ariali.ttf
  4

  0
STYLE
  5
20D
100
AcDbSymbolTableRecord
100
AcDbTextStyleTableRecord
  2
TEXTSTYLE_3
 70
0
 40
0.0
 41
0.7
 50
0.0
 71
0
 42
0.2
  3
gdt
  4

  0
ENDTAB
  0
TABLE
  2
VIEW
  5
6
100
AcDbSymbolTable
 70
0
  0
ENDTAB
  0
TABLE
  2
UCS
  5
7
100
AcDbSymbolTable
 70
0
  0
ENDTAB
  0
TABLE
  2
APPID
  5
9
100
AcDbSymbolTable
 70
1
  0
APPID
  5
20E
100
AcDbSymbolTableRecord
100
AcDbRegAppTableRecord
  2
ACAD
 70
0
  0
ENDTAB
  0
TABLE
  2
BLOCK_RECORD
  5
1
100
AcDbSymbolTable
 70
0
  0
BLOCK_RECORD
  5
20F
100
AcDbSymbolTableRecord
100
AcDbBlockTableRecord
  2
*Model_Space
  0
BLOCK_RECORD
  5
210
100
AcDbSymbolTableRecord
100
AcDbBlockTableRecord
  2
*Paper_Space
  0
BLOCK_RECORD
  5
211
100
AcDbSymbolTableRecord
100
AcDbBlockTableRecord
  2
_FILLED
  0
BLOCK_RECORD
  5
212
100
AcDbSymbolTableRecord
100
AcDbBlockTableRecord
  2
*D0
  0
BLOCK_RECORD
  5
213
100
AcDbSymbolTableRecord
100
AcDbBlockTableRecord
  2
*D1
  0
BLOCK_RECORD
  5
214
100
AcDbSymbolTableRecord
100
AcDbBlockTableRecord
  2
*D2
  0
BLOCK_RECORD
  5
215
100
AcDbSymbolTableRecord
100
AcDbBlockTableRecord
  2
*D3
  0
BLOCK_RECORD
  5
216
100
AcDbSymbolTableRecord
100
AcDbBlockTableRecord
  2
NEUTRIK_BL1
  0
BLOCK_RECORD
  5
217
100
AcDbSymbolTableRecord
100
AcDbBlockTableRecord
  2
PROJEKTION_BL0
  0
BLOCK_RECORD
  5
218
100
AcDbSymbolTableRecord
100
AcDbBlockTableRecord
  2
*T1
  0
ENDTAB
  0
TABLE
  2
DIMSTYLE
  5
A
100
AcDbSymbolTable
 70
1
100
AcDbDimStyleTable
 71
0
  0
DIMSTYLE
105
219
100
AcDbSymbolTableRecord
100
AcDbDimStyleTableRecord
  2
STANDARD
 70
0
  3

  4

 40
1.0
 41
3.5
 42
0.0
 43
0.38
 44
1.5
 45
0.0
 46
0.0
 47
0.05
 48
0.05
140
3.5
141
0.09
142
0.0
143
25.4
144
1.0
145
0.0
146
1.0
147
0.625
 71
1.0
 72
0.0
 73
0
 74
0
 75
0
 76
0
 77
1
 78
8
 79
2
170
0
171
1
172
0
173
0
174
0
175
0
176
0
177
0
178
5
270
2
179
2
271
2
272
2
273
2
274
2
275
0
280
0
281
0
282
0
283
1
284
8
285
0
286
0
287
3
288
0
340
11
278
46
341
211
342
211
343
211
344
211
  0
DIMSTYLE
105
21A
100
AcDbSymbolTableRecord
100
AcDbDimStyleTableRecord
  2
DIMSTYLE_1
 70
0
  3

  4

 40
1.0
 41
3.5
 42
0.0
 43
0.38
 44
1.5
 45
0.0
 46
0.0
 47
50.0
 48
50.0
140
3.5
141
0.09
142
0.0
143
25.4
144
1.0
145
0.0
146
1.0
147
0.875
 71
1.0
 72
0.0
 73
0
 74
0
 75
0
 76
0
 77
1
 78
8
 79
2
170
0
171
1
172
0
173
0
174
0
175
0
176
0
177
0
178
5
270
2
179
2
271
3
272
3
273
2
274
2
275
0
280
0
281
0
282
0
283
1
284
8
285
0
286
0
287
3
288
0
340
11
278
46
341
211
342
211
343
211
344
211
  0
DIMSTYLE
105
21B
100
AcDbSymbolTableRecord
100
AcDbDimStyleTableRecord
  2
DIMSTYLE_2
 70
0
  3

  4

 40
1.0
 41
3.5
 42
0.0
 43
0.38
 44
1.5
 45
0.0
 46
0.0
 47
0.2
 48
0.2
140
3.5
141
0.09
142
0.0
143
25.4
144
1.0
145
0.0
146
1.0
147
0.875
 71
1.0
 72
0.0
 73
0
 74
0
 75
0
 76
0
 77
1
 78
8
 79
2
170
0
171
1
172
0
173
0
174
0
175
0
176
0
177
0
178
5
270
2
179
2
271
3
272
3
273
2
274
2
275
0
280
0
281
0
282
0
283
1
284
8
285
0
286
0
287
3
288
0
340
11
278
46
341
211
342
211
343
211
344
211
  0
DIMSTYLE
105
21C
100
AcDbSymbolTableRecord
100
AcDbDimStyleTableRecord
  2
DIMSTYLE_3
 70
0
  3

  4

 40
1.0
 41
3.5
 42
0.0
 43
0.38
 44
1.5
 45
0.0
 46
0.0
 47
1.0
 48
1.0
140
3.5
141
0.09
142
0.0
143
25.4
144
1.0
145
0.0
146
1.0
147
0.875
 71
1.0
 72
0.0
 73
0
 74
0
 75
0
 76
0
 77
1
 78
8
 79
2
170
0
171
1
172
0
173
0
174
0
175
0
176
0
177
0
178
5
270
2
179
2
271
3
272
3
273
2
274
2
275
0
280
0
281
0
282
0
283
1
284
8
285
0
286
0
287
3
288
0
340
11
278
46
341
211
342
211
343
211
344
211
  0
ENDTAB
  0
ENDSEC
  0
SECTION
  2
BLOCKS
  0
BLOCK
  5
20
100
AcDbEntity
  8
0
100
AcDbBlockBegin
  2
*Model_Space
 70
0
 10
0.0
 20
0.0
 30
0.0
  3
*Model_Space
  1

  0
ENDBLK
  5
21
100
AcDbEntity
  8
0
100
AcDbBlockEnd
  0
BLOCK
  5
1C
100
AcDbEntity
  8
0
100
AcDbBlockBegin
  2
*Paper_Space
 70
0
 10
0.0
 20
0.0
 30
0.0
  3
*Paper_Space
  1

  0
ENDBLK
  5
1D
100
AcDbEntity
  8
0
100
AcDbBlockEnd
  0
BLOCK
  5
21D
100
AcDbEntity
  8
0
100
AcDbBlockBegin
 62
2
  6
CONTINUOUS
  2
NEUTRIK_BL1
 70
64
 10
294.2613843509
 20
13.9057775655
  3
NEUTRIK_BL1
  1

  0
LINE
  5
21E
100
AcDbEntity
  8
0
100
AcDbLine
 62
2
  6
CONTINUOUS
 10
280.1379429101
 20
12.7320974649
 11
277.6374924352
 21
14.241114734
  0
LINE
  5
21F
100
AcDbEntity
  8
0
100
AcDbLine
 62
2
  6
CONTINUOUS
 10
277.7853141677
 20
15.0794572168
 11
280.2857656426
 21
13.5704399477
  0
LINE
  5
220
100
AcDbEntity
  8
0
100
AcDbLine
 62
2
  6
CONTINUOUS
 10
310.2344484443
 20
12.7320974649
 11
308.6365333361
 21
13.654274796
  0
LINE
  5
221
100
AcDbEntity
  8
0
100
AcDbLine
 62
2
  6
CONTINUOUS
 10
299.9029861412
 20
13.5704399477
 11
301.1805755621
 21
12.7321505392
  0
LINE
  5
222
100
AcDbEntity
  8
0
100
AcDbLine
 62
2
  6
CONTINUOUS
 10
303.1085343401
 20
12.7320974649
 11
301.8311746518
 21
13.5704399477
  0
LINE
  5
223
100
AcDbEntity
  8
0
100
AcDbLine
 62
2
  6
CONTINUOUS
 10
310.4389980741
 20
13.9896111891
 11
312.3303046514
 21
12.7320974649
  0
LINE
  5
224
100
AcDbEntity
  8
0
100
AcDbLine
 62
2
  6
CONTINUOUS
 10
275.7785607993
 20
12.7320974649
 11
276.1924630503
 21
15.0794572168
  0
LINE
  5
225
100
AcDbEntity
  8
0
100
AcDbLine
 62
2
  6
CONTINUOUS
 10
277.6374924352
 20
14.241114734
 11
277.3714119167
 21
12.7320974649
  0
LINE
  5
226
100
AcDbEntity
  8
0
100
AcDbLine
 62
2
  6
CONTINUOUS
 10
280.2857656426
 20
13.5704399477
 11
280.5518451611
 21
15.0794572168
  0
LINE
  5
227
100
AcDbEntity
  8
0
100
AcDbLine
 62
2
  6
CONTINUOUS
 10
282.1446972785
 20
15.0794572168
 11
281.7307940275
 21
12.7320974649
  0
LINE
  5
228
100
AcDbEntity
  8
0
100
AcDbLine
 62
2
  6
CONTINUOUS
 10
282.9883077518
 20
12.7320974649
 11
283.4022110027
 21
15.0794572168
  0
LINE
  5
229
100
AcDbEntity
  8
0
100
AcDbLine
 62
2
  6
CONTINUOUS
 10
284.8225344324
 20
14.5764511271
 11
284.7486235661
 21
14.1572798857
  0
LINE
  5
22A
100
AcDbEntity
  8
0
100
AcDbLine
 62
2
  6
CONTINUOUS
 10
284.6599297266
 20
13.654274796
 11
284.5860188604
 21
13.2351035546
  0
LINE
  5
22B
100
AcDbEntity
  8
0
100
AcDbLine
 62
2
  6
CONTINUOUS
 10
286.9283146215
 20
14.1572798857
 11
286.8396207821
 21
13.654274796
  0
LINE
  5
22C
100
AcDbEntity
  8
0
100
AcDbLine
 62
2
  6
CONTINUOUS
 10
287.593924417
 20
15.0794572168
 11
287.5052315775
 21
14.5764511271
  0
LINE
  5
22D
100
AcDbEntity
  8
0
100
AcDbLine
 62
2
  6
CONTINUOUS
 10
287.2687150055
 20
13.2351035546
 11
287.180022166
 21
12.7320974649
  0
LINE
  5
22E
100
AcDbEntity
  8
0
100
AcDbLine
 62
2
  6
CONTINUOUS
 10
288.1624483881
 20
13.5492379861
 11
288.4322678998
 21
15.0794572168
  0
LINE
  5
22F
100
AcDbEntity
  8
0
100
AcDbLine
 62
2
  6
CONTINUOUS
 10
289.941284169
 20
15.0794572168
 11
289.6954596138
 21
13.6853127398
  0
LINE
  5
230
100
AcDbEntity
  8
0
100
AcDbLine
 62
2
  6
CONTINUOUS
 10
291.5258513014
 20
13.6061318831
 11
291.7856388312
 21
15.0794572168
  0
LINE
  5
231
100
AcDbEntity
  8
0
100
AcDbLine
 62
2
  6
CONTINUOUS
 10
293.2946561003
 20
15.0794572168
 11
292.9980696371
 21
13.3974352608
  0
LINE
  5
232
100
AcDbEntity
  8
0
100
AcDbLine
 62
2
  6
CONTINUOUS
 10
293.7780202256
 20
14.4926172788
 11
293.8814960383
 21
15.0794572168
  0
LINE
  5
233
100
AcDbEntity
  8
0
100
AcDbLine
 62
2
  6
CONTINUOUS
 10
294.6412726634
 20
12.7320974649
 11
294.9517001016
 21
14.4926172788
  0
LINE
  5
234
100
AcDbEntity
  8
0
100
AcDbLine
 62
2
  6
CONTINUOUS
 10
296.6283850673
 20
14.4926172788
 11
296.3179586291
 21
12.7320974649
  0
LINE
  5
235
100
AcDbEntity
  8
0
100
AcDbLine
 62
2
  6
CONTINUOUS
 10
297.905540756
 20
15.0794572168
 11
297.8020649433
 21
14.4926172788
  0
LINE
  5
236
100
AcDbEntity
  8
0
100
AcDbLine
 62
2
  6
CONTINUOUS
 10
298.492380694
 20
15.0794572168
 11
298.078478443
 21
12.7320974649
  0
LINE
  5
237
100
AcDbEntity
  8
0
100
AcDbLine
 62
2
  6
CONTINUOUS
 10
299.7551634087
 20
12.7320974649
 11
299.9029861412
 21
13.5704399477
  0
LINE
  5
238
100
AcDbEntity
  8
0
100
AcDbLine
 62
2
  6
CONTINUOUS
 10
299.9916789807
 20
14.0734460374
 11
300.0951547935
 21
14.6602859754
  0
LINE
  5
239
100
AcDbEntity
  8
0
100
AcDbLine
 62
2
  6
CONTINUOUS
 10
303.7792091264
 20
12.7320974649
 11
304.1931113774
 21
15.0794572168
  0
LINE
  5
23A
100
AcDbEntity
  8
0
100
AcDbLine
 62
2
  6
CONTINUOUS
 10
305.8697973431
 20
15.0794572168
 11
305.4558940921
 21
12.7320974649
  0
LINE
  5
23B
100
AcDbEntity
  8
0
100
AcDbLine
 62
2
  6
CONTINUOUS
 10
306.7972426647
 20
12.7320974649
 11
307.2111459156
 21
15.0794572168
  0
LINE
  5
23C
100
AcDbEntity
  8
0
100
AcDbLine
 62
2
  6
CONTINUOUS
 10
308.8878308813
 20
15.0794572168
 11
308.6956622291
 21
13.9896111891
  0
LINE
  5
23D
100
AcDbEntity
  8
0
100
AcDbLine
 62
2
  6
CONTINUOUS
 10
308.6365333361
 20
13.654274796
 11
308.4739286303
 21
12.7320974649
  0
LINE
  5
23E
100
AcDbEntity
  8
0
100
AcDbLine
 62
2
  6
CONTINUOUS
 10
312.3303046514
 20
12.7320974649
 11
310.2344484443
 21
12.7320974649
  0
LINE
  5
23F
100
AcDbEntity
  8
0
100
AcDbLine
 62
2
  6
CONTINUOUS
 10
275.7785607993
 20
12.7320974649
 11
277.3714119167
 21
12.7320974649
  0
LINE
  5
240
100
AcDbEntity
  8
0
100
AcDbLine
 62
2
  6
CONTINUOUS
 10
308.4739286303
 20
12.7320974649
 11
306.7972426647
 21
12.7320974649
  0
LINE
  5
241
100
AcDbEntity
  8
0
100
AcDbLine
 62
2
  6
CONTINUOUS
 10
305.4558940921
 20
12.7320974649
 11
303.7792091264
 21
12.7320974649
  0
LINE
  5
242
100
AcDbEntity
  8
0
100
AcDbLine
 62
2
  6
CONTINUOUS
 10
296.3179586291
 20
12.7320974649
 11
294.6412726634
 21
12.7320974649
  0
LINE
  5
243
100
AcDbEntity
  8
0
100
AcDbLine
 62
2
  6
CONTINUOUS
 10
298.078478443
 20
12.7320974649
 11
299.7551634087
 21
12.7320974649
  0
LINE
  5
244
100
AcDbEntity
  8
0
100
AcDbLine
 62
2
  6
CONTINUOUS
 10
287.180022166
 20
12.7320974649
 11
282.9883077518
 21
12.7320974649
  0
LINE
  5
245
100
AcDbEntity
  8
0
100
AcDbLine
 62
2
  6
CONTINUOUS
 10
301.1803458296
 20
12.7320974649
 11
303.1085343401
 21
12.7320974649
  0
LINE
  5
246
100
AcDbEntity
  8
0
100
AcDbLine
 62
2
  6
CONTINUOUS
 10
281.7307940275
 20
12.7320974649
 11
280.1379429101
 21
12.7320974649
  0
LINE
  5
247
100
AcDbEntity
  8
0
100
AcDbLine
 62
2
  6
CONTINUOUS
 10
284.5860188604
 20
13.2351035546
 11
287.2687150055
 21
13.2351035546
  0
LINE
  5
248
100
AcDbEntity
  8
0
100
AcDbLine
 62
2
  6
CONTINUOUS
 10
286.8396207821
 20
13.654274796
 11
284.6599297266
 21
13.654274796
  0
LINE
  5
249
100
AcDbEntity
  8
0
100
AcDbLine
 62
2
  6
CONTINUOUS
 10
301.0528390603
 20
14.0734460374
 11
299.9916789807
 21
14.0734460374
  0
LINE
  5
24A
100
AcDbEntity
  8
0
100
AcDbLine
 62
2
  6
CONTINUOUS
 10
284.7486235661
 20
14.1572798857
 11
286.9283146215
 21
14.1572798857
  0
LINE
  5
24B
100
AcDbEntity
  8
0
100
AcDbLine
 62
2
  6
CONTINUOUS
 10
297.8020649433
 20
14.4926172788
 11
296.6283850673
 21
14.4926172788
  0
LINE
  5
24C
100
AcDbEntity
  8
0
100
AcDbLine
 62
2
  6
CONTINUOUS
 10
294.9517001016
 20
14.4926172788
 11
293.7780202256
 21
14.4926172788
  0
LINE
  5
24D
100
AcDbEntity
  8
0
100
AcDbLine
 62
2
  6
CONTINUOUS
 10
287.5052315775
 20
14.5764511271
 11
284.8225344324
 21
14.5764511271
  0
LINE
  5
24E
100
AcDbEntity
  8
0
100
AcDbLine
 62
2
  6
CONTINUOUS
 10
300.0951547935
 20
14.6602859754
 11
301.3492665239
 21
14.6602859754
  0
LINE
  5
24F
100
AcDbEntity
  8
0
100
AcDbLine
 62
2
  6
CONTINUOUS
 10
276.1924630503
 20
15.0794572168
 11
277.7853141677
 21
15.0794572168
  0
LINE
  5
250
100
AcDbEntity
  8
0
100
AcDbLine
 62
2
  6
CONTINUOUS
 10
280.5518451611
 20
15.0794572168
 11
282.1446972785
 21
15.0794572168
  0
LINE
  5
251
100
AcDbEntity
  8
0
100
AcDbLine
 62
2
  6
CONTINUOUS
 10
283.4022110027
 20
15.0794572168
 11
287.593924417
 21
15.0794572168
  0
LINE
  5
252
100
AcDbEntity
  8
0
100
AcDbLine
 62
2
  6
CONTINUOUS
 10
301.5942490805
 20
15.0794572168
 11
298.492380694
 21
15.0794572168
  0
LINE
  5
253
100
AcDbEntity
  8
0
100
AcDbLine
 62
2
  6
CONTINUOUS
 10
288.4322678998
 20
15.0794572168
 11
289.941284169
 21
15.0794572168
  0
LINE
  5
254
100
AcDbEntity
  8
0
100
AcDbLine
 62
2
  6
CONTINUOUS
 10
291.7856388312
 20
15.0794572168
 11
293.2946561003
 21
15.0794572168
  0
LINE
  5
255
100
AcDbEntity
  8
0
100
AcDbLine
 62
2
  6
CONTINUOUS
 10
293.8814960383
 20
15.0794572168
 11
297.905540756
 21
15.0794572168
  0
LINE
  5
256
100
AcDbEntity
  8
0
100
AcDbLine
 62
2
  6
CONTINUOUS
 10
304.1931113774
 20
15.0794572168
 11
305.8697973431
 21
15.0794572168
  0
LINE
  5
257
100
AcDbEntity
  8
0
100
AcDbLine
 62
2
  6
CONTINUOUS
 10
307.2111459156
 20
15.0794572168
 11
308.8878308813
 21
15.0794572168
  0
LINE
  5
258
100
AcDbEntity
  8
0
100
AcDbLine
 62
2
  6
CONTINUOUS
 10
310.6311677264
 20
15.0794572168
 11
312.7442079024
 21
15.0794572168
  0
LINE
  5
259
100
AcDbEntity
  8
0
100
AcDbLine
 62
2
  6
CONTINUOUS
 10
308.6956622291
 20
13.9896111891
 11
310.6311677264
 21
15.0794572168
  0
LINE
  5
25A
100
AcDbEntity
  8
0
100
AcDbLine
 62
2
  6
CONTINUOUS
 10
312.7442079024
 20
15.0794572168
 11
310.4389980741
 21
13.9896111891
  0
ARC
  5
25B
100
AcDbEntity
  8
0
100
AcDbCircle
 62
2
  6
CONTINUOUS
 10
290.0257020162
 20
13.6270818452
 40
0.335336967
100
AcDbArc
 50
169.9999581174
 51
257.3876854477
  0
ARC
  5
25C
100
AcDbEntity
  8
0
100
AcDbCircle
 62
2
  6
CONTINUOUS
 10
290.5382520886
 20
15.9177996997
 40
2.6826964808
100
AcDbArc
 50
257.3877479741
 51
286.262665946
  0
ARC
  5
25D
100
AcDbEntity
  8
0
100
AcDbCircle
 62
2
  6
CONTINUOUS
 10
291.195608899
 20
13.6643627777
 40
0.3353371135
100
AcDbArc
 50
286.2627744417
 51
349.9999581174
  0
ARC
  5
25E
100
AcDbEntity
  8
0
100
AcDbCircle
 62
2
  6
CONTINUOUS
 10
292.5027055335
 20
13.4847811027
 40
0.5030061094
100
AcDbArc
 50
284.4613069912
 51
350.0000240953
  0
ARC
  5
25F
100
AcDbEntity
  8
0
100
AcDbCircle
 62
2
  6
CONTINUOUS
 10
290.5347640949
 20
21.1155252933
 40
8.3834278607
100
AcDbArc
 50
256.2209051549
 51
284.4612653568
  0
ARC
  5
260
100
AcDbEntity
  8
0
100
AcDbCircle
 62
2
  6
CONTINUOUS
 10
288.6578124917
 20
13.4618921441
 40
0.503005856
100
AcDbArc
 50
170.0000240953
 51
256.2208762229
  0
ARC
  5
261
100
AcDbEntity
  8
0
100
AcDbCircle
 62
2
  6
CONTINUOUS
 10
302.1295771117
 20
14.8912105575
 40
1.3167024847
100
AcDbArc
 50
270.8139664646
 51
287.332045501
  0
ARC
  5
262
100
AcDbEntity
  8
0
100
AcDbCircle
 62
2
  6
CONTINUOUS
 10
302.2164039546
 20
14.612990061
 40
1.025248295
100
AcDbArc
 50
287.332041554
 51
306.9952583027
  0
ARC
  5
263
100
AcDbEntity
  8
0
100
AcDbCircle
 62
2
  6
CONTINUOUS
 10
302.349382714
 20
14.4364903804
 40
0.8042604703
100
AcDbArc
 50
306.9952804959
 51
331.1991469186
  0
ARC
  5
264
100
AcDbEntity
  8
0
100
AcDbCircle
 62
2
  6
CONTINUOUS
 10
302.5533103449
 20
14.3243765833
 40
0.5715468569
100
AcDbArc
 50
331.1991187457
 51
28.8007934081
  0
ARC
  5
265
100
AcDbEntity
  8
0
100
AcDbCircle
 62
2
  6
CONTINUOUS
 10
302.349382714
 20
14.2122617862
 40
0.8042612359
100
AcDbArc
 50
28.8008530814
 51
53.0047195041
  0
ARC
  5
266
100
AcDbEntity
  8
0
100
AcDbCircle
 62
2
  6
CONTINUOUS
 10
302.2164039546
 20
14.0357621056
 40
1.0252479986
100
AcDbArc
 50
53.0047416973
 51
72.667958446
  0
ARC
  5
267
100
AcDbEntity
  8
0
100
AcDbCircle
 62
2
  6
CONTINUOUS
 10
302.1295771117
 20
13.7575416091
 40
1.3167024858
100
AcDbArc
 50
72.667954499
 51
88.2637233921
  0
ARC
  5
268
100
AcDbEntity
  8
0
100
AcDbCircle
 62
2
  6
CONTINUOUS
 10
301.7586937829
 20
2.8979322618
 40
12.1826353158
100
AcDbArc
 50
88.0677150838
 51
90.7734183662
  0
ARC
  5
269
100
AcDbEntity
  8
0
100
AcDbCircle
 62
2
  6
CONTINUOUS
 10
300.4285681901
 20
131.4267246626
 40
117.8646306221
100
AcDbArc
 50
270.6818443076
 51
270.8360085966
  0
ARC
  5
26A
100
AcDbEntity
  8
0
100
AcDbCircle
 62
2
  6
CONTINUOUS
 10
301.3068376007
 20
14.1391399185
 40
0.5228699142
100
AcDbArc
 50
74.2117758502
 51
85.3455498836
  0
ARC
  5
26B
100
AcDbEntity
  8
0
100
AcDbCircle
 62
2
  6
CONTINUOUS
 10
301.3561835114
 20
14.3136646027
 40
0.3415029724
100
AcDbArc
 50
49.80595642
 51
74.2116374161
  0
ARC
  5
26C
100
AcDbEntity
  8
0
100
AcDbCircle
 62
2
  6
CONTINUOUS
 10
301.4665033117
 20
14.4442383664
 40
0.1705654939
100
AcDbArc
 50
340.193968067
 51
49.8058745946
  0
ARC
  5
26D
100
AcDbEntity
  8
0
100
AcDbCircle
 62
2
  6
CONTINUOUS
 10
301.3056766028
 20
14.5021582616
 40
0.3415041793
100
AcDbArc
 50
315.7883508031
 51
340.1940327095
  0
ARC
  5
26E
100
AcDbEntity
  8
0
100
AcDbCircle
 62
2
  6
CONTINUOUS
 10
301.175679838
 20
14.6286270327
 40
0.5228695114
100
AcDbArc
 50
298.8638229053
 51
315.7882717965
  0
ARC
  5
26F
100
AcDbEntity
  8
0
100
AcDbCircle
 62
2
  6
CONTINUOUS
 10
301.0528390603
 20
14.8514846294
 40
0.777340892
100
AcDbArc
 50
285.0000006491
 51
298.8638426666
  0
ARC
  5
270
100
AcDbEntity
  8
0
100
AcDbCircle
 62
2
  6
CONTINUOUS
 10
301.0501400652
 20
14.8514866294
 40
0.7780452733
100
AcDbArc
 50
270.1987562222
 51
285.191946156
  0
ENDBLK
  5
271
100
AcDbEntity
  8
0
  6
BYBLOCK
 62
0
100
AcDbBlockEnd
  0
BLOCK
  5
272
100
AcDbEntity
  8
0
100
AcDbBlockBegin
 62
2
  6
CONTINUOUS
  2
PROJEKTION_BL0
 70
64
 10
300.4715872636
 20
44.8
  3
PROJEKTION_BL0
  1

  0
LINE
  5
273
100
AcDbEntity
  8
DEFAULT_1
100
AcDbLine
 62
2
  6
CENTER
 10
303.2850231977
 20
42.55
 11
303.2850231977
 21
47.05
  0
LINE
  5
274
100
AcDbEntity
  8
DEFAULT_1
100
AcDbLine
 62
2
  6
CENTER
 10
301.0350231977
 20
44.8
 11
305.5350231977
 21
44.8
  0
LINE
  5
275
100
AcDbEntity
  8
DEFAULT_1
100
AcDbLine
 62
2
  6
CENTER
 10
295.4081513296
 20
44.8211519782
 11
300.410677434
 21
44.8211519782
  0
LINE
  5
276
100
AcDbEntity
  8
0
100
AcDbLine
 62
2
  6
CONTINUOUS
 10
303.2850231977
 20
44.8
 11
303.2850231977
 21
44.8231039305
  0
LINE
  5
277
100
AcDbEntity
  8
0
100
AcDbLine
 62
2
  6
CONTINUOUS
 10
300.1206452249
 20
42.83125
 11
300.1206452249
 21
46.76875
  0
CIRCLE
  5
278
100
AcDbEntity
  8
0
100
AcDbCircle
 62
2
  6
CONTINUOUS
 10
303.2850231977
 20
44.8
 40
1.125
  0
LINE
  5
279
100
AcDbEntity
  8
0
100
AcDbLine
 62
2
  6
CONTINUOUS
 10
295.831267252
 20
43.675
 11
295.831267252
 21
45.925
  0
CIRCLE
  5
27A
100
AcDbEntity
  8
0
100
AcDbCircle
 62
2
  6
CONTINUOUS
 10
303.2850231977
 20
44.8
 40
1.96875
  0
LINE
  5
27B
100
AcDbEntity
  8
0
100
AcDbLine
 62
2
  6
CONTINUOUS
 10
295.831267252
 20
45.925
 11
300.1206452249
 21
46.76875
  0
LINE
  5
27C
100
AcDbEntity
  8
0
100
AcDbLine
 62
2
  6
CONTINUOUS
 10
295.831267252
 20
43.675
 11
300.1206452249
 21
42.83125
  0
ENDBLK
  5
27D
100
AcDbEntity
  8
0
  6
BYBLOCK
 62
0
100
AcDbBlockEnd
  0
BLOCK
  5
27E
100
AcDbEntity
  8
0
100
AcDbBlockBegin
  2
_FILLED
 70
64
 10
0.0
 20
0.0
  3
_FILLED
  1

  0
SOLID
  5
27F
100
AcDbEntity
  8
0
  6
BYBLOCK
 62
0
100
AcDbTrace
 10
0.0
 20
0.0
 11
-1.0
 21
0.125
 12
-1.0
 22
-0.125
 13
-1.0
 23
-0.125
  0
ENDBLK
  5
280
100
AcDbEntity
  8
0
  6
BYBLOCK
 62
0
100
AcDbBlockEnd
  0
BLOCK
  5
281
100
AcDbEntity
  8
ZEICHNUNGSBEMASSUNGEN
100
AcDbBlockBegin
 62
2
  6
CONTINUOUS
  2
*D0
 70
65
 10
0.0
 20
0.0
  3
*D0
  1

  0
TEXT
  5
282
100
AcDbEntity
  8
ZEICHNUNGSBEMASSUNGEN
100
AcDbText
 62
5
  6
CONTINUOUS
 10
217.2984337782
 20
229.886279489
  7
STANDARD
 40
3.5
  1
4000
 41
0.7857142857
 72
1
 11
222.7984337782
 21
229.886279489
100
AcDbText
  0
TEXT
  5
283
100
AcDbEntity
  8
ZEICHNUNGSBEMASSUNGEN
100
AcDbText
 62
5
  6
CONTINUOUS
 10
228.2984337782
 20
230.411279489
  7
TEXTSTYLE_3
 40
2.45
  1
`
 41
1.0
 72
1
 11
229.7276004449
 21
230.411279489
100
AcDbText
  0
TEXT
  5
284
100
AcDbEntity
  8
ZEICHNUNGSBEMASSUNGEN
100
AcDbText
 62
5
  6
CONTINUOUS
 10
231.1567671115
 20
230.411279489
  7
STANDARD
 40
2.45
  1
50
 41
0.75
 72
1
 11
232.9942671115
 21
230.411279489
100
AcDbText
  0
LINE
  5
285
100
AcDbEntity
  8
ZEICHNUNGSBEMASSUNGEN
100
AcDbLine
 62
2
  6
CONTINUOUS
 10
81.0855913013
 20
211.239122998
 11
81.0855913013
 21
230.511279489
  0
LINE
  5
286
100
AcDbEntity
  8
ZEICHNUNGSBEMASSUNGEN
100
AcDbLine
 62
2
  6
CONTINUOUS
 10
371.0446095884
 20
211.239122998
 11
371.0446095884
 21
230.511279489
  0
LINE
  5
287
100
AcDbEntity
  8
ZEICHNUNGSBEMASSUNGEN
100
AcDbLine
 62
2
  6
CONTINUOUS
 10
81.0855913013
 20
229.011279489
 11
226.0651004449
 21
229.011279489
  0
LINE
  5
288
100
AcDbEntity
  8
ZEICHNUNGSBEMASSUNGEN
100
AcDbLine
 62
2
  6
CONTINUOUS
 10
371.0446095884
 20
229.011279489
 11
226.0651004449
 21
229.011279489
  0
INSERT
  5
289
100
AcDbEntity
  8
ZEICHNUNGSBEMASSUNGEN
100
AcDbBlockReference
 62
2
  6
CONTINUOUS
  2
_FILLED
 10
81.0855913013
 20
229.011279489
 41
3.5
 42
3.5
 43
3.5
 50
180.0
  0
INSERT
  5
28A
100
AcDbEntity
  8
ZEICHNUNGSBEMASSUNGEN
100
AcDbBlockReference
 62
2
  6
CONTINUOUS
  2
_FILLED
 10
371.0446095884
 20
229.011279489
 41
3.5
 42
3.5
 43
3.5
  0
ENDBLK
  5
28B
100
AcDbEntity
  8
0
  6
BYBLOCK
 62
0
100
AcDbBlockEnd
  0
BLOCK
  5
28C
100
AcDbEntity
  8
ZEICHNUNGSBEMASSUNGEN
100
AcDbBlockBegin
 62
2
  6
CONTINUOUS
  2
*D1
 70
65
 10
0.0
 20
0.0
  3
*D1
  1

  0
TEXT
  5
28D
100
AcDbEntity
  8
ZEICHNUNGSBEMASSUNGEN
100
AcDbText
 62
5
  6
CONTINUOUS
 10
64.5740753632
 20
147.7465935821
  7
STANDARD
 40
3.5
  1
14.5
 50
90.0
 41
0.6607142857
 72
1
 11
64.5740753632
 21
152.3715935821
100
AcDbText
  0
TEXT
  5
28E
100
AcDbEntity
  8
ZEICHNUNGSBEMASSUNGEN
100
AcDbText
 62
5
  6
CONTINUOUS
 10
64.0490753632
 20
156.9965935821
  7
TEXTSTYLE_3
 40
2.45
  1
`
 50
90.0
 41
1.0
 72
1
 11
64.0490753632
 21
158.4257602488
100
AcDbText
  0
TEXT
  5
28F
100
AcDbEntity
  8
ZEICHNUNGSBEMASSUNGEN
100
AcDbText
 62
5
  6
CONTINUOUS
 10
64.0490753632
 20
159.8549269155
  7
STANDARD
 40
2.45
  1
0.2
 50
90.0
 41
0.7142857143
 72
1
 11
64.0490753632
 21
162.4799269155
100
AcDbText
  0
LINE
  5
290
100
AcDbEntity
  8
ZEICHNUNGSBEMASSUNGEN
100
AcDbLine
 62
2
  6
CONTINUOUS
 10
89.2855913013
 20
163.6757602488
 11
65.2740753632
 21
163.6757602488
  0
LINE
  5
291
100
AcDbEntity
  8
ZEICHNUNGSBEMASSUNGEN
100
AcDbLine
 62
2
  6
CONTINUOUS
 10
89.2855913013
 20
149.1757602488
 11
66.3240753632
 21
149.1757602488
  0
LINE
  5
292
100
AcDbEntity
  8
ZEICHNUNGSBEMASSUNGEN
100
AcDbLine
 62
2
  6
CONTINUOUS
 10
65.4490753632
 20
163.6757602488
 11
65.4490753632
 21
169.6757602488
  0
LINE
  5
293
100
AcDbEntity
  8
ZEICHNUNGSBEMASSUNGEN
100
AcDbLine
 62
2
  6
CONTINUOUS
 10
65.4490753632
 20
169.6757602488
 11
65.4490753632
 21
156.4257602488
  0
LINE
  5
294
100
AcDbEntity
  8
ZEICHNUNGSBEMASSUNGEN
100
AcDbLine
 62
2
  6
CONTINUOUS
 10
65.4490753632
 20
149.1757602488
 11
65.4490753632
 21
143.1757602488
  0
LINE
  5
295
100
AcDbEntity
  8
ZEICHNUNGSBEMASSUNGEN
100
AcDbLine
 62
2
  6
CONTINUOUS
 10
65.4490753632
 20
143.1757602488
 11
65.4490753632
 21
156.4257602488
  0
INSERT
  5
296
100
AcDbEntity
  8
ZEICHNUNGSBEMASSUNGEN
100
AcDbBlockReference
 62
2
  6
CONTINUOUS
  2
_FILLED
 10
65.4490753632
 20
163.6757602488
 41
3.5
 42
3.5
 43
3.5
 50
270.0
  0
INSERT
  5
297
100
AcDbEntity
  8
ZEICHNUNGSBEMASSUNGEN
100
AcDbBlockReference
 62
2
  6
CONTINUOUS
  2
_FILLED
 10
65.4490753632
 20
149.1757602488
 41
3.5
 42
3.5
 43
3.5
 50
90.0
  0
ENDBLK
  5
298
100
AcDbEntity
  8
0
  6
BYBLOCK
 62
0
100
AcDbBlockEnd
  0
BLOCK
  5
299
100
AcDbEntity
  8
ZEICHNUNGSBEMASSUNGEN
100
AcDbBlockBegin
 62
2
  6
CONTINUOUS
  2
*D2
 70
65
 10
0.0
 20
0.0
  3
*D2
  1

  0
TEXT
  5
29A
100
AcDbEntity
  8
ZEICHNUNGSBEMASSUNGEN
100
AcDbText
 62
5
  6
CONTINUOUS
 10
65.3713891661
 20
204.5999563313
  7
STANDARD
 40
3.5
  1
7
 50
90.0
 41
0.7857142857
 72
1
 11
65.3713891661
 21
205.9749563313
100
AcDbText
  0
TEXT
  5
29B
100
AcDbEntity
  8
ZEICHNUNGSBEMASSUNGEN
100
AcDbText
 62
5
  6
CONTINUOUS
 10
64.8463891661
 20
207.3499563313
  7
TEXTSTYLE_3
 40
2.45
  1
`
 50
90.0
 41
1.0
 72
1
 11
64.8463891661
 21
208.779122998
100
AcDbText
  0
TEXT
  5
29C
100
AcDbEntity
  8
ZEICHNUNGSBEMASSUNGEN
100
AcDbText
 62
5
  6
CONTINUOUS
 10
64.8463891661
 20
210.2082896646
  7
STANDARD
 40
2.45
  1
0.2
 50
90.0
 41
0.7142857143
 72
1
 11
64.8463891661
 21
212.8332896646
100
AcDbText
  0
LINE
  5
29D
100
AcDbEntity
  8
ZEICHNUNGSBEMASSUNGEN
100
AcDbLine
 62
2
  6
CONTINUOUS
 10
92.9520249515
 20
206.529122998
 11
67.1213891661
 21
206.529122998
  0
LINE
  5
29E
100
AcDbEntity
  8
ZEICHNUNGSBEMASSUNGEN
100
AcDbLine
 62
2
  6
CONTINUOUS
 10
94.3108655733
 20
213.529122998
 11
66.0713891661
 21
213.529122998
  0
LINE
  5
29F
100
AcDbEntity
  8
ZEICHNUNGSBEMASSUNGEN
100
AcDbLine
 62
2
  6
CONTINUOUS
 10
66.2463891661
 20
206.529122998
 11
66.2463891661
 21
200.529122998
  0
LINE
  5
2A0
100
AcDbEntity
  8
ZEICHNUNGSBEMASSUNGEN
100
AcDbLine
 62
2
  6
CONTINUOUS
 10
66.2463891661
 20
200.529122998
 11
66.2463891661
 21
210.029122998
  0
LINE
  5
2A1
100
AcDbEntity
  8
ZEICHNUNGSBEMASSUNGEN
100
AcDbLine
 62
2
  6
CONTINUOUS
 10
66.2463891661
 20
213.529122998
 11
66.2463891661
 21
219.529122998
  0
LINE
  5
2A2
100
AcDbEntity
  8
ZEICHNUNGSBEMASSUNGEN
100
AcDbLine
 62
2
  6
CONTINUOUS
 10
66.2463891661
 20
219.529122998
 11
66.2463891661
 21
210.029122998
  0
INSERT
  5
2A3
100
AcDbEntity
  8
ZEICHNUNGSBEMASSUNGEN
100
AcDbBlockReference
 62
2
  6
CONTINUOUS
  2
_FILLED
 10
66.2463891661
 20
206.529122998
 41
3.5
 42
3.5
 43
3.5
 50
90.0
  0
INSERT
  5
2A4
100
AcDbEntity
  8
ZEICHNUNGSBEMASSUNGEN
100
AcDbBlockReference
 62
2
  6
CONTINUOUS
  2
_FILLED
 10
66.2463891661
 20
213.529122998
 41
3.5
 42
3.5
 43
3.5
 50
270.0
  0
ENDBLK
  5
2A5
100
AcDbEntity
  8
0
  6
BYBLOCK
 62
0
100
AcDbBlockEnd
  0
BLOCK
  5
2A6
100
AcDbEntity
  8
ZEICHNUNGSBEMASSUNGEN
100
AcDbBlockBegin
 62
2
  6
CONTINUOUS
  2
*D3
 70
65
 10
0.0
 20
0.0
  3
*D3
  1

  0
TEXT
  5
2A7
100
AcDbEntity
  8
ZEICHNUNGSBEMASSUNGEN
100
AcDbText
 62
5
  6
CONTINUOUS
 10
97.6814246346
 20
140.0237685127
  7
STANDARD
 40
3.5
  1
47.7
 41
0.7321428571
 72
1
 11
102.8064246346
 21
140.0237685127
100
AcDbText
  0
TEXT
  5
2A8
100
AcDbEntity
  8
ZEICHNUNGSBEMASSUNGEN
100
AcDbText
 62
5
  6
CONTINUOUS
 10
107.9314246346
 20
140.5487685127
  7
TEXTSTYLE_3
 40
2.45
  1
`
 41
1.0
 72
1
 11
109.3605913013
 21
140.5487685127
100
AcDbText
  0
TEXT
  5
2A9
100
AcDbEntity
  8
ZEICHNUNGSBEMASSUNGEN
100
AcDbText
 62
5
  6
CONTINUOUS
 10
110.789757968
 20
140.5487685127
  7
STANDARD
 40
2.45
  1
1
 41
0.5714285714
 72
1
 11
111.489757968
 21
140.5487685127
100
AcDbText
  0
LINE
  5
2AA
100
AcDbEntity
  8
ZEICHNUNGSBEMASSUNGEN
100
AcDbLine
 62
2
  6
CONTINUOUS
 10
81.0855913013
 20
153.4957602488
 11
81.0855913013
 21
137.6487685127
  0
LINE
  5
2AB
100
AcDbEntity
  8
ZEICHNUNGSBEMASSUNGEN
100
AcDbLine
 62
2
  6
CONTINUOUS
 10
128.7855913013
 20
153.4257602488
 11
128.7855913013
 21
137.6487685127
  0
LINE
  5
2AC
100
AcDbEntity
  8
ZEICHNUNGSBEMASSUNGEN
100
AcDbLine
 62
2
  6
CONTINUOUS
 10
81.0855913013
 20
139.1487685127
 11
104.9355913013
 21
139.1487685127
  0
LINE
  5
2AD
100
AcDbEntity
  8
ZEICHNUNGSBEMASSUNGEN
100
AcDbLine
 62
2
  6
CONTINUOUS
 10
128.7855913013
 20
139.1487685127
 11
104.9355913013
 21
139.1487685127
  0
INSERT
  5
2AE
100
AcDbEntity
  8
ZEICHNUNGSBEMASSUNGEN
100
AcDbBlockReference
 62
2
  6
CONTINUOUS
  2
_FILLED
 10
81.0855913013
 20
139.1487685127
 41
3.5
 42
3.5
 43
3.5
 50
180.0
  0
INSERT
  5
2AF
100
AcDbEntity
  8
ZEICHNUNGSBEMASSUNGEN
100
AcDbBlockReference
 62
2
  6
CONTINUOUS
  2
_FILLED
 10
128.7855913013
 20
139.1487685127
 41
3.5
 42
3.5
 43
3.5
  0
ENDBLK
  5
2B0
100
AcDbEntity
  8
0
  6
BYBLOCK
 62
0
100
AcDbBlockEnd
  0
BLOCK
  5
2B1
100
AcDbEntity
  8
0
100
AcDbBlockBegin
  2
*T1
 70
1
 10
0.0
 20
0.0
  3
*T1
  1

  0
LINE
  5
2B2
100
AcDbEntity
  8
0
100
AcDbLine
 62
7
  6
CONTINUOUS
 10
0.0
 20
0.0
 11
138.6
 21
0.0
  0
LINE
  5
2B3
100
AcDbEntity
  8
0
100
AcDbLine
 62
7
  6
CONTINUOUS
 10
0.0
 20
0.0
 11
0.0
 21
-40.0
  0
LINE
  5
2B4
100
AcDbEntity
  8
0
100
AcDbLine
 62
7
  6
CONTINUOUS
 10
0.0
 20
-8.0
 11
138.6
 21
-8.0
  0
LINE
  5
2B5
100
AcDbEntity
  8
0
100
AcDbLine
 62
7
  6
CONTINUOUS
 10
0.0
 20
-14.0
 11
138.6
 21
-14.0
  0
LINE
  5
2B6
100
AcDbEntity
  8
0
100
AcDbLine
 62
7
  6
CONTINUOUS
 10
69.3
 20
-20.0
 11
138.6
 21
-20.0
  0
LINE
  5
2B7
100
AcDbEntity
  8
0
100
AcDbLine
 62
7
  6
CONTINUOUS
 10
69.3
 20
-26.0
 11
138.6
 21
-26.0
  0
LINE
  5
2B8
100
AcDbEntity
  8
0
100
AcDbLine
 62
7
  6
CONTINUOUS
 10
0.0
 20
-32.0
 11
138.6
 21
-32.0
  0
LINE
  5
2B9
100
AcDbEntity
  8
0
100
AcDbLine
 62
7
  6
CONTINUOUS
 10
0.0
 20
-40.0
 11
138.6
 21
-40.0
  0
LINE
  5
2BA
100
AcDbEntity
  8
0
100
AcDbLine
 62
7
  6
CONTINUOUS
 10
23.1
 20
0.0
 11
23.1
 21
-14.0
  0
LINE
  5
2BB
100
AcDbEntity
  8
0
100
AcDbLine
 62
7
  6
CONTINUOUS
 10
46.2
 20
0.0
 11
46.2
 21
-8.0
  0
LINE
  5
2BC
100
AcDbEntity
  8
0
100
AcDbLine
 62
7
  6
CONTINUOUS
 10
46.2
 20
-32.0
 11
46.2
 21
-40.0
  0
LINE
  5
2BD
100
AcDbEntity
  8
0
100
AcDbLine
 62
7
  6
CONTINUOUS
 10
69.3
 20
0.0
 11
69.3
 21
-40.0
  0
LINE
  5
2BE
100
AcDbEntity
  8
0
100
AcDbLine
 62
7
  6
CONTINUOUS
 10
92.4
 20
0.0
 11
92.4
 21
-32.0
  0
LINE
  5
2BF
100
AcDbEntity
  8
0
100
AcDbLine
 62
7
  6
CONTINUOUS
 10
115.5
 20
-8.0
 11
115.5
 21
-26.0
  0
LINE
  5
2C0
100
AcDbEntity
  8
0
100
AcDbLine
 62
7
  6
CONTINUOUS
 10
115.5
 20
-32.0
 11
115.5
 21
-40.0
  0
LINE
  5
2C1
100
AcDbEntity
  8
0
100
AcDbLine
 62
7
  6
CONTINUOUS
 10
138.6
 20
0.0
 11
138.6
 21
-40.0
  0
MTEXT
  5
2C2
100
AcDbEntity
  8
3D_NOTIZEN
100
AcDbMText
 62
5
  6
CONTINUOUS
  7
STANDARD
 71
1
 72
1
 10
1.05
 20
-0.7764571353
 30
0.0
 11
1.0
 21
0.0
 31
0.0
 73
2
 44
0.9
  1
\Q15.0;Sheet Number
 40
1.5
 41
26.9285714286
  0
MTEXT
  5
2C3
100
AcDbEntity
  8
3D_NOTIZEN
100
AcDbMText
 62
5
  6
CONTINUOUS
  7
STANDARD
 71
1
 72
1
 10
24.15
 20
-0.7764571353
 30
0.0
 11
1.0
 21
0.0
 31
0.0
 73
2
 44
0.9
  1
\Q15.0;Projection
 40
1.5
 41
20.1428571429
  0
MTEXT
  5
2C4
100
AcDbEntity
  8
3D_NOTIZEN
100
AcDbMText
 62
5
  6
CONTINUOUS
  7
STANDARD
 71
1
 72
1
 10
47.25
 20
-0.7764571353
 30
0.0
 11
1.0
 21
0.0
 31
0.0
 73
2
 44
0.9
  1
\Q15.0;Scale
 40
1.5
 41
10.6428571429
  0
MTEXT
  5
2C5
100
AcDbEntity
  8
3D_NOTIZEN
100
AcDbMText
 62
5
  6
CONTINUOUS
  7
STANDARD
 71
1
 72
1
 10
70.35
 20
-0.7764571353
 30
0.0
 11
1.0
 21
0.0
 31
0.0
 73
2
 44
0.9
  1
\Q15.0;Format
 40
1.5
 41
13.4285714286
  0
MTEXT
  5
2C6
100
AcDbEntity
  8
3D_NOTIZEN
100
AcDbMText
 62
5
  6
CONTINUOUS
  7
STANDARD
 71
1
 72
1
 10
93.45
 20
-0.7764571353
 30
0.0
 11
1.0
 21
0.0
 31
0.0
 73
2
 44
0.9
  1
\Q15.0;Tolerancing
 40
1.5
 41
22.9285714286
  0
MTEXT
  5
2C7
100
AcDbEntity
  8
3D_NOTIZEN
100
AcDbMText
 62
5
  6
CONTINUOUS
  7
STANDARD
 71
1
 72
1
 10
1.05
 20
-4.5352761804
 30
0.0
 11
1.0
 21
0.0
 31
0.0
 73
2
 44
0.9
  1
\Q15.0;1/1
 40
2.0
 41
8.380952381
  0
MTEXT
  5
2C8
100
AcDbEntity
  8
3D_NOTIZEN
100
AcDbMText
 62
5
  6
CONTINUOUS
  7
STANDARD
 71
1
 72
1
 10
47.25
 20
-4.5352761804
 30
0.0
 11
1.0
 21
0.0
 31
0.0
 73
2
 44
0.9
  1
\Q15.0;1:1
 40
2.0
 41
6.7619047619
  0
MTEXT
  5
2C9
100
AcDbEntity
  8
3D_NOTIZEN
100
AcDbMText
 62
5
  6
CONTINUOUS
  7
STANDARD
 71
1
 72
1
 10
70.35
 20
-4.5352761804
 30
0.0
 11
1.0
 21
0.0
 31
0.0
 73
2
 44
0.9
  1
\Q15.0;A3
 40
2.0
 41
7.0476190476
  0
MTEXT
  5
2CA
100
AcDbEntity
  8
3D_NOTIZEN
100
AcDbMText
 62
5
  6
CONTINUOUS
  7
STANDARD
 71
1
 72
1
 10
93.45
 20
-4.5352761804
 30
0.0
 11
1.0
 21
0.0
 31
0.0
 73
2
 44
0.9
  1
\Q15.0;ISO 2768-mK
 40
2.0
 41
35.0476190476
  0
MTEXT
  5
2CB
100
AcDbEntity
  8
3D_NOTIZEN
100
AcDbMText
 62
5
  6
CONTINUOUS
  7
STANDARD
 71
1
 72
1
 10
1.05
 20
-10.2764571353
 30
0.0
 11
1.0
 21
0.0
 31
0.0
 73
2
 44
0.9
  1
\Q15.0;ECN Number
 40
1.5
 41
23.4285714286
  0
MTEXT
  5
2CC
100
AcDbEntity
  8
3D_NOTIZEN
100
AcDbMText
 62
5
  6
CONTINUOUS
  7
STANDARD
 71
1
 72
1
 10
24.15
 20
-10.0352761804
 30
0.0
 11
1.0
 21
0.0
 31
0.0
 73
2
 44
0.9
  1
\Q15.0;-
 40
2.0
 41
3.619047619
  0
MTEXT
  5
2CD
100
AcDbEntity
  8
3D_NOTIZEN
100
AcDbMText
 62
5
  6
CONTINUOUS
  7
STANDARD
 71
1
 72
1
 10
70.35
 20
-10.2764571353
 30
0.0
 11
1.0
 21
0.0
 31
0.0
 73
2
 44
0.9
  1
\Q15.0;Created
 40
1.5
 41
15.2857142857
  0
MTEXT
  5
2CE
100
AcDbEntity
  8
3D_NOTIZEN
100
AcDbMText
 62
5
  6
CONTINUOUS
  7
STANDARD
 71
1
 72
1
 10
93.45
 20
-10.0352761804
 30
0.0
 11
1.0
 21
0.0
 31
0.0
 73
2
 44
0.9
  1
\Q15.0;25.06.2021
 40
2.0
 41
29.3333333333
  0
MTEXT
  5
2CF
100
AcDbEntity
  8
3D_NOTIZEN
100
AcDbMText
 62
5
  6
CONTINUOUS
  7
STANDARD
 71
1
 72
1
 10
116.55
 20
-10.0352761804
 30
0.0
 11
1.0
 21
0.0
 31
0.0
 73
2
 44
0.9
  1
\Q15.0;sfr
 40
2.0
 41
8.4761904762
  0
MTEXT
  5
2D0
100
AcDbEntity
  8
3D_NOTIZEN
100
AcDbMText
 62
5
  6
CONTINUOUS
  7
STANDARD
 71
1
 72
1
 10
1.05
 20
-14.7764571353
 30
0.0
 11
1.0
 21
0.0
 31
0.0
 73
2
 44
0.9
  1
\Q15.0;Description
 40
1.5
 41
22.7142857143
  0
MTEXT
  5
2D1
100
AcDbEntity
  8
3D_NOTIZEN
100
AcDbMText
 62
5
  6
CONTINUOUS
  7
STANDARD
 71
1
 72
1
 10
70.35
 20
-16.2764571353
 30
0.0
 11
1.0
 21
0.0
 31
0.0
 73
2
 44
0.9
  1
\Q15.0;Modified
 40
1.5
 41
16.5714285714
  0
MTEXT
  5
2D2
100
AcDbEntity
  8
3D_NOTIZEN
100
AcDbMText
 62
5
  6
CONTINUOUS
  7
STANDARD
 71
1
 72
1
 10
93.45
 20
-16.0352761804
 30
0.0
 11
1.0
 21
0.0
 31
0.0
 73
2
 44
0.9
  1
\Q15.0;n.a.
 40
2.0
 41
11.0476190476
  0
MTEXT
  5
2D3
100
AcDbEntity
  8
3D_NOTIZEN
100
AcDbMText
 62
5
  6
CONTINUOUS
  7
STANDARD
 71
1
 72
1
 10
116.55
 20
-16.0352761804
 30
0.0
 11
1.0
 21
0.0
 31
0.0
 73
2
 44
0.9
  1
\Q15.0;n.a.
 40
2.0
 41
11.0476190476
  0
MTEXT
  5
2D4
100
AcDbEntity
  8
3D_NOTIZEN
100
AcDbMText
 62
5
  6
CONTINUOUS
  7
STANDARD
 71
1
 72
1
 10
1.05
 20
-23.0529142706
 30
0.0
 11
1.0
 21
0.0
 31
0.0
 73
2
 44
0.9
  1
\Q15.0;USB-C KABEL 4M, USB2 BW
 40
3.0
 41
111.1428571429
  0
MTEXT
  5
2D5
100
AcDbEntity
  8
3D_NOTIZEN
100
AcDbMText
 62
5
  6
CONTINUOUS
  7
STANDARD
 71
1
 72
1
 10
70.35
 20
-22.2764571353
 30
0.0
 11
1.0
 21
0.0
 31
0.0
 73
2
 44
0.9
  1
\Q15.0;Approved
 40
1.5
 41
17.9285714286
  0
MTEXT
  5
2D6
100
AcDbEntity
  8
3D_NOTIZEN
100
AcDbMText
 62
5
  6
CONTINUOUS
  7
STANDARD
 71
1
 72
1
 10
93.45
 20
-22.0352761804
 30
0.0
 11
1.0
 21
0.0
 31
0.0
 73
2
 44
0.9
  1
\Q15.0;16.07.2021
 40
2.0
 41
28.7619047619
  0
MTEXT
  5
2D7
100
AcDbEntity
  8
3D_NOTIZEN
100
AcDbMText
 62
5
  6
CONTINUOUS
  7
STANDARD
 71
1
 72
1
 10
116.55
 20
-22.0352761804
 30
0.0
 11
1.0
 21
0.0
 31
0.0
 73
2
 44
0.9
  1
\Q15.0;man
 40
2.0
 41
10.1904761905
  0
MTEXT
  5
2D8
100
AcDbEntity
  8
3D_NOTIZEN
100
AcDbMText
 62
5
  6
CONTINUOUS
  7
STANDARD
 71
1
 72
1
 10
70.35
 20
-28.2764571353
 30
0.0
 11
1.0
 21
0.0
 31
0.0
 73
2
 44
0.9
  1
\Q15.0;Status
 40
1.5
 41
12.7857142857
  0
MTEXT
  5
2D9
100
AcDbEntity
  8
3D_NOTIZEN
100
AcDbMText
 62
5
  6
CONTINUOUS
  7
STANDARD
 71
1
 72
1
 10
93.45
 20
-28.0352761804
 30
0.0
 11
1.0
 21
0.0
 31
0.0
 73
2
 44
0.9
  1
\Q15.0;Released
 40
2.0
 41
23.0476190476
  0
MTEXT
  5
2DA
100
AcDbEntity
  8
3D_NOTIZEN
100
AcDbMText
 62
5
  6
CONTINUOUS
  7
STANDARD
 71
1
 72
1
 10
47.25
 20
-32.7764571353
 30
0.0
 11
1.0
 21
0.0
 31
0.0
 73
2
 44
0.9
  1
\Q15.0;3D Model ID
 40
1.5
 41
25.2857142857
  0
MTEXT
  5
2DB
100
AcDbEntity
  8
3D_NOTIZEN
100
AcDbMText
 62
5
  6
CONTINUOUS
  7
STANDARD
 71
1
 72
1
 10
70.35
 20
-32.7764571353
 30
0.0
 11
1.0
 21
0.0
 31
0.0
 73
2
 44
0.9
  1
\Q15.0;Document ID
 40
1.5
 41
25.2857142857
  0
MTEXT
  5
2DC
100
AcDbEntity
  8
3D_NOTIZEN
100
AcDbMText
 62
5
  6
CONTINUOUS
  7
STANDARD
 71
1
 72
1
 10
116.55
 20
-32.7764571353
 30
0.0
 11
1.0
 21
0.0
 31
0.0
 73
2
 44
0.9
  1
\Q15.0;Revision
 40
1.5
 41
16.7857142857
  0
MTEXT
  5
2DD
100
AcDbEntity
  8
3D_NOTIZEN
100
AcDbMText
 62
5
  6
CONTINUOUS
  7
STANDARD
 71
1
 72
1
 10
47.25
 20
-36.5352761804
 30
0.0
 11
1.0
 21
0.0
 31
0.0
 73
2
 44
0.9
  1
\Q15.0;30008991
 40
2.0
 41
24.7619047619
  0
MTEXT
  5
2DE
100
AcDbEntity
  8
3D_NOTIZEN
100
AcDbMText
 62
5
  6
CONTINUOUS
  7
STANDARD
 71
1
 72
1
 10
70.35
 20
-36.0529142706
 30
0.0
 11
1.0
 21
0.0
 31
0.0
 73
2
 44
0.9
  1
\Q15.0;20003551
 40
3.0
 41
36.2857142857
  0
MTEXT
  5
2DF
100
AcDbEntity
  8
3D_NOTIZEN
100
AcDbMText
 62
5
  6
CONTINUOUS
  7
STANDARD
 71
1
 72
1
 10
116.55
 20
-36.0529142706
 30
0.0
 11
1.0
 21
0.0
 31
0.0
 73
2
 44
0.9
  1
\Q15.0;-
 40
3.0
 41
5.4285714286
  0
ENDBLK
  5
2E0
100
AcDbEntity
  8
0
  6
BYBLOCK
 62
0
100
AcDbBlockEnd
  0
ENDSEC
  0
SECTION
  2
ENTITIES
  0
MTEXT
  5
2E1
100
AcDbEntity
  8
0
100
AcDbMText
 62
5
  6
CONTINUOUS
  7
STANDARD
 71
1
 72
1
 10
412.3
 20
10.6200152467
 30
0.0
 11
0.0
 21
1.0
 31
0.0
 73
2
 44
0.9
  1
\Q15.0;Copyright © Neutrik AG / Im alten Riet 143 / 9494 Schaan / Liechtenstein
 40
1.7
 41
130.3171428571
  0
MTEXT
  5
2E2
100
AcDbEntity
  8
0
100
AcDbMText
 62
5
  6
CONTINUOUS
  7
STANDARD
 71
1
 72
1
 10
412.3
 20
109.1200152467
 30
0.0
 11
0.0
 21
1.0
 31
0.0
 73
2
 44
0.9
  1
\Q15.0;Refer to protection notice ISO 16016.
 40
1.7
 41
65.0857142857
  0
INSERT
  5
2E3
100
AcDbEntity
  8
0
100
AcDbBlockReference
 62
2
  6
CONTINUOUS
  2
PROJEKTION_BL0
 10
300.4715872636
 20
44.8
  0
INSERT
  5
2E4
100
AcDbEntity
  8
0
100
AcDbBlockReference
 62
2
  6
CONTINUOUS
  2
NEUTRIK_BL1
 10
294.2613843509
 20
13.9057775655
  0
DIMENSION
  5
2E5
100
AcDbEntity
  8
ZEICHNUNGSBEMASSUNGEN
100
AcDbDimension
 62
2
  6
CONTINUOUS
  2
*D0
 10
371.0446095884
 20
229.011279489
 11
226.0651004449
 21
229.011279489
 70
160
 71
2
 72
2
 41
0.9
 42
4000.0
  3
DIMSTYLE_1
100
AcDbAlignedDimension
 13
81.0855913013
 23
211.239122998
 14
371.0446095884
 24
211.239122998
100
AcDbRotatedDimension
  0
DIMENSION
  5
2E6
100
AcDbEntity
  8
ZEICHNUNGSBEMASSUNGEN
100
AcDbDimension
 62
2
  6
CONTINUOUS
  2
*D1
 10
65.4490753632
 20
149.1757602488
 11
65.4490753632
 21
156.4257602488
 70
160
 71
2
 72
2
 41
0.9
 42
14.5
  3
DIMSTYLE_2
100
AcDbAlignedDimension
 13
89.2855913013
 23
163.6757602488
 14
89.2855913013
 24
149.1757602488
 50
270.0
100
AcDbRotatedDimension
  0
DIMENSION
  5
2E7
100
AcDbEntity
  8
ZEICHNUNGSBEMASSUNGEN
100
AcDbDimension
 62
2
  6
CONTINUOUS
  2
*D2
 10
66.2463891661
 20
213.529122998
 11
66.2463891661
 21
210.029122998
 70
160
 71
2
 72
2
 41
0.9
 42
7.0
  3
DIMSTYLE_2
100
AcDbAlignedDimension
 13
92.9520249515
 23
206.529122998
 14
94.3108655733
 24
213.529122998
 50
90.0
100
AcDbRotatedDimension
  0
DIMENSION
  5
2E8
100
AcDbEntity
  8
ZEICHNUNGSBEMASSUNGEN
100
AcDbDimension
 62
2
  6
CONTINUOUS
  2
*D3
 10
128.7855913013
 20
139.1487685127
 11
104.9355913013
 21
139.1487685127
 70
160
 71
2
 72
2
 41
0.9
 42
47.7
  3
DIMSTYLE_3
100
AcDbAlignedDimension
 13
81.0855913013
 23
153.4957602488
 14
128.7855913013
 24
153.4257602488
100
AcDbRotatedDimension
  0
ACAD_TABLE
  5
2E9
100
AcDbEntity
  8
0
 62
2
  6
CONTINUOUS
100
AcDbBlockReference
  2
*T1
 10
271.4
 20
50.0
 30
0.0
100
AcDbTable
342
       5B1
343
218
 11
1.0
 21
0.0
 31
0.0
 90
22
 91
11
 92
6
 93
16
 94
0
 95
0
 96
0
 41
0.0
141
3.0
141
5.0
141
6.0
141
3.0
141
3.0
141
3.0
141
3.0
141
3.0
141
3.0
141
3.0
141
5.0
142
23.1
142
23.1
142
23.1
142
23.1
142
23.1
142
23.1
171
1
172
0
173
0
174
0
175
1
176
1
 91
41
178
0
145
0.0
301
CELL_VALUE
 90
4
  1
\Q15.0;Sheet Number
304
ACVALUE_END
170
4
140
1.5
 64
5
171
1
172
0
173
0
174
0
175
1
176
1
 91
41
178
0
145
0.0
301
CELL_VALUE
 90
4
  1
\Q15.0;Projection
304
ACVALUE_END
170
4
140
1.5
 64
5
171
1
172
0
173
0
174
0
175
1
176
1
 91
41
178
0
145
0.0
301
CELL_VALUE
 90
4
  1
\Q15.0;Scale
304
ACVALUE_END
170
4
140
1.5
 64
5
171
1
172
0
173
0
174
0
175
1
176
1
 91
41
178
0
145
0.0
301
CELL_VALUE
 90
4
  1
\Q15.0;Format
304
ACVALUE_END
170
4
140
1.5
 64
5
171
1
172
0
173
0
174
0
175
2
176
1
 91
41
178
0
145
0.0
301
CELL_VALUE
 90
4
  1
\Q15.0;Tolerancing
304
ACVALUE_END
170
4
140
1.5
 64
5
171
1
172
0
173
1
174
0
175
1
176
1
 91
1
178
0
145
0.0
170
1
171
1
172
0
173
0
174
0
175
1
176
1
 91
41
178
0
145
0.0
301
CELL_VALUE
 90
4
  1
\Q15.0;1/1
304
ACVALUE_END
170
4
140
2.0
 64
5
171
1
172
0
173
0
174
0
175
1
176
1
 91
33
178
0
145
0.0
301
CELL_VALUE
 90
4
  1
 
304
ACVALUE_END
170
1
140
3.0
171
1
172
0
173
0
174
0
175
1
176
1
 91
41
178
0
145
0.0
301
CELL_VALUE
 90
4
  1
\Q15.0;1:1
304
ACVALUE_END
170
4
140
2.0
 64
5
171
1
172
0
173
0
174
0
175
1
176
1
 91
41
178
0
145
0.0
301
CELL_VALUE
 90
4
  1
\Q15.0;A3
304
ACVALUE_END
170
4
140
2.0
 64
5
171
1
172
0
173
0
174
0
175
2
176
1
 91
41
178
0
145
0.0
301
CELL_VALUE
 90
4
  1
\Q15.0;ISO 2768-mK
304
ACVALUE_END
170
4
140
2.0
 64
5
171
1
172
0
173
1
174
0
175
1
176
1
 91
1
178
0
145
0.0
170
1
171
1
172
0
173
0
174
0
175
1
176
1
 91
41
178
0
145
0.0
301
CELL_VALUE
 90
4
  1
\Q15.0;ECN Number
304
ACVALUE_END
170
4
140
1.5
 64
5
171
1
172
0
173
0
174
0
175
2
176
1
 91
41
178
0
145
0.0
301
CELL_VALUE
 90
4
  1
\Q15.0;-
304
ACVALUE_END
170
4
140
2.0
 64
5
171
1
172
0
173
1
174
0
175
1
176
1
 91
1
178
0
145
0.0
170
1
171
1
172
0
173
0
174
0
175
1
176
1
 91
41
178
0
145
0.0
301
CELL_VALUE
 90
4
  1
\Q15.0;Created
304
ACVALUE_END
170
4
140
1.5
 64
5
171
1
172
0
173
0
174
0
175
1
176
1
 91
41
178
0
145
0.0
301
CELL_VALUE
 90
4
  1
\Q15.0;25.06.2021
304
ACVALUE_END
170
4
140
2.0
 64
5
171
1
172
0
173
0
174
0
175
1
176
1
 91
41
178
0
145
0.0
301
CELL_VALUE
 90
4
  1
\Q15.0;sfr
304
ACVALUE_END
170
4
140
2.0
 64
5
171
1
172
0
173
0
174
0
175
3
176
1
 91
41
178
0
145
0.0
301
CELL_VALUE
 90
4
  1
\Q15.0;Description
304
ACVALUE_END
170
4
140
1.5
 64
5
171
1
172
0
173
1
174
0
175
1
176
1
 91
1
178
0
145
0.0
170
1
171
1
172
0
173
1
174
0
175
1
176
1
 91
1
178
0
145
0.0
170
1
171
1
172
0
173
0
174
0
175
1
176
2
 91
41
178
0
145
0.0
301
CELL_VALUE
 90
4
  1
\Q15.0;Modified
304
ACVALUE_END
170
4
140
1.5
 64
5
171
1
172
0
173
0
174
0
175
1
176
2
 91
41
178
0
145
0.0
301
CELL_VALUE
 90
4
  1
\Q15.0;n.a.
304
ACVALUE_END
170
4
140
2.0
 64
5
171
1
172
0
173
0
174
0
175
1
176
2
 91
41
178
0
145
0.0
301
CELL_VALUE
 90
4
  1
\Q15.0;n.a.
304
ACVALUE_END
170
4
140
2.0
 64
5
171
1
172
0
173
0
174
0
175
3
176
5
 91
41
178
0
145
0.0
301
CELL_VALUE
 90
4
  1
\Q15.0;USB-C KABEL 4M, USB2 BW
304
ACVALUE_END
170
4
140
3.0
 64
5
171
1
172
0
173
1
174
0
175
1
176
1
 91
1
178
0
145
0.0
170
1
171
1
172
0
173
1
174
0
175
1
176
1
 91
1
178
0
145
0.0
170
1
171
1
172
0
173
1
174
0
175
1
176
1
 91
1
178
0
145
0.0
170
1
171
1
172
0
173
1
174
0
175
1
176
1
 91
1
178
0
145
0.0
170
1
171
1
172
0
173
1
174
0
175
1
176
1
 91
1
178
0
145
0.0
170
1
171
1
172
0
173
1
174
0
175
1
176
1
 91
1
178
0
145
0.0
170
1
171
1
172
0
173
1
174
0
175
1
176
1
 91
1
178
0
145
0.0
170
1
171
1
172
0
173
1
174
0
175
1
176
1
 91
1
178
0
145
0.0
170
1
171
1
172
0
173
0
174
0
175
1
176
2
 91
41
178
0
145
0.0
301
CELL_VALUE
 90
4
  1
\Q15.0;Approved
304
ACVALUE_END
170
4
140
1.5
 64
5
171
1
172
0
173
0
174
0
175
1
176
2
 91
41
178
0
145
0.0
301
CELL_VALUE
 90
4
  1
\Q15.0;16.07.2021
304
ACVALUE_END
170
4
140
2.0
 64
5
171
1
172
0
173
0
174
0
175
1
176
2
 91
41
178
0
145
0.0
301
CELL_VALUE
 90
4
  1
\Q15.0;man
304
ACVALUE_END
170
4
140
2.0
 64
5
171
1
172
0
173
1
174
0
175
1
176
1
 91
1
178
0
145
0.0
170
1
171
1
172
0
173
1
174
0
175
1
176
1
 91
1
178
0
145
0.0
170
1
171
1
172
0
173
1
174
0
175
1
176
1
 91
1
178
0
145
0.0
170
1
171
1
172
0
173
1
174
0
175
1
176
1
 91
1
178
0
145
0.0
170
1
171
1
172
0
173
1
174
0
175
1
176
1
 91
1
178
0
145
0.0
170
1
171
1
172
0
173
1
174
0
175
1
176
1
 91
1
178
0
145
0.0
170
1
171
1
172
0
173
1
174
0
175
1
176
1
 91
1
178
0
145
0.0
170
1
171
1
172
0
173
1
174
0
175
1
176
1
 91
1
178
0
145
0.0
170
1
171
1
172
0
173
1
174
0
175
1
176
1
 91
1
178
0
145
0.0
170
1
171
1
172
0
173
0
174
0
175
1
176
2
 91
41
178
0
145
0.0
301
CELL_VALUE
 90
4
  1
\Q15.0;Status
304
ACVALUE_END
170
4
140
1.5
 64
5
171
1
172
0
173
0
174
0
175
2
176
2
 91
41
178
0
145
0.0
301
CELL_VALUE
 90
4
  1
\Q15.0;Released
304
ACVALUE_END
170
4
140
2.0
 64
5
171
1
172
0
173
1
174
0
175
1
176
1
 91
1
178
0
145
0.0
170
1
171
1
172
0
173
1
174
0
175
1
176
1
 91
1
178
0
145
0.0
170
1
171
1
172
0
173
1
174
0
175
1
176
1
 91
1
178
0
145
0.0
170
1
171
1
172
0
173
1
174
0
175
1
176
1
 91
1
178
0
145
0.0
170
1
171
1
172
0
173
1
174
0
175
1
176
1
 91
1
178
0
145
0.0
170
1
171
1
172
0
173
1
174
0
175
1
176
1
 91
1
178
0
145
0.0
170
1
171
1
172
0
173
1
174
0
175
1
176
1
 91
1
178
0
145
0.0
170
1
171
1
172
0
173
0
174
0
175
2
176
2
 91
33
178
0
145
0.0
301
CELL_VALUE
 90
4
  1
 
304
ACVALUE_END
170
1
140
3.0
171
1
172
0
173
1
174
0
175
1
176
1
 91
1
178
0
145
0.0
170
1
171
1
172
0
173
0
174
0
175
1
176
1
 91
41
178
0
145
0.0
301
CELL_VALUE
 90
4
  1
\Q15.0;3D Model ID
304
ACVALUE_END
170
4
140
1.5
 64
5
171
1
172
0
173
0
174
0
175
2
176
1
 91
41
178
0
145
0.0
301
CELL_VALUE
 90
4
  1
\Q15.0;Document ID
304
ACVALUE_END
170
4
140
1.5
 64
5
171
1
172
0
173
1
174
0
175
1
176
1
 91
1
178
0
145
0.0
170
1
171
1
172
0
173
0
174
0
175
1
176
1
 91
41
178
0
145
0.0
301
CELL_VALUE
 90
4
  1
\Q15.0;Revision
304
ACVALUE_END
170
4
140
1.5
 64
5
171
1
172
0
173
1
174
0
175
1
176
1
 91
1
178
0
145
0.0
170
1
171
1
172
0
173
1
174
0
175
1
176
1
 91
1
178
0
145
0.0
170
1
171
1
172
0
173
0
174
0
175
1
176
1
 91
41
178
0
145
0.0
301
CELL_VALUE
 90
4
  1
\Q15.0;30008991
304
ACVALUE_END
170
4
140
2.0
 64
5
171
1
172
0
173
0
174
0
175
2
176
1
 91
41
178
0
145
0.0
301
CELL_VALUE
 90
4
  1
\Q15.0;20003551
304
ACVALUE_END
170
4
140
3.0
 64
5
171
1
172
0
173
1
174
0
175
1
176
1
 91
1
178
0
145
0.0
170
1
171
1
172
0
173
0
174
0
175
1
176
1
 91
41
178
0
145
0.0
301
CELL_VALUE
 90
4
  1
\Q15.0;-
304
ACVALUE_END
170
4
140
3.0
 64
5
  0
LINE
  5
2EA
100
AcDbEntity
  8
0
100
AcDbLine
 62
7
  6
CONTINUOUS
 10
0.0
 20
297.0
 11
0.0
 21
0.0
  0
LINE
  5
2EB
100
AcDbEntity
  8
0
100
AcDbLine
 62
7
  6
CONTINUOUS
 10
12.5
 20
287.0
 11
12.5
 21
10.0
  0
LINE
  5
2EC
100
AcDbEntity
  8
0
100
AcDbLine
 62
7
  6
CONTINUOUS
 10
23.0
 20
0.0
 11
23.0
 21
8.0
  0
LINE
  5
2ED
100
AcDbEntity
  8
0
100
AcDbLine
 62
7
  6
CONTINUOUS
 10
0.0
 20
0.0
 11
420.0
 21
0.0
  0
LINE
  5
2EE
100
AcDbEntity
  8
0
100
AcDbLine
 62
7
  6
CONTINUOUS
 10
12.5
 20
10.0
 11
410.0
 21
10.0
  0
LINE
  5
2EF
100
AcDbEntity
  8
0
100
AcDbLine
 62
7
  6
CONTINUOUS
 10
230.0
 20
0.0
 11
230.0
 21
8.0
  0
LINE
  5
2F0
100
AcDbEntity
  8
0
100
AcDbLine
 62
7
  6
CONTINUOUS
 10
410.0
 20
287.0
 11
12.5
 21
287.0
  0
LINE
  5
2F1
100
AcDbEntity
  8
0
100
AcDbLine
 62
7
  6
CONTINUOUS
 10
0.0
 20
297.0
 11
420.0
 21
297.0
  0
LINE
  5
2F2
100
AcDbEntity
  8
0
100
AcDbLine
 62
7
  6
CONTINUOUS
 10
410.0
 20
10.0
 11
410.0
 21
287.0
  0
LINE
  5
2F3
100
AcDbEntity
  8
0
100
AcDbLine
 62
7
  6
CONTINUOUS
 10
420.0
 20
0.0
 11
420.0
 21
297.0
  0
LINE
  5
2F4
100
AcDbEntity
  8
0
100
AcDbLine
 62
7
  6
CONTINUOUS
 10
81.0855913013
 20
211.239122998
 11
81.0855913013
 21
208.819122998
  0
LINE
  5
2F5
100
AcDbEntity
  8
RUNDUNGEN
100
AcDbLine
 62
7
  6
CONTINUOUS
 10
88.2855913013
 20
207.529122998
 11
88.2855913013
 21
212.529122998
  0
LINE
  5
2F6
100
AcDbEntity
  8
RUNDUNGEN
100
AcDbLine
 62
9
  6
CONTINUOUS
 10
89.2855913013
 20
206.529122998
 11
89.2855913013
 21
213.529122998
  0
LINE
  5
2F7
100
AcDbEntity
  8
0
100
AcDbLine
 62
7
  6
CONTINUOUS
 10
102.5993689094
 20
209.029122998
 11
102.5993689094
 21
211.029122998
  0
LINE
  5
2F8
100
AcDbEntity
  8
0
100
AcDbLine
 62
7
  6
CONTINUOUS
 10
102.8855913013
 20
206.8937073476
 11
102.8855913013
 21
213.1645386484
  0
LINE
  5
2F9
100
AcDbEntity
  8
0
100
AcDbLine
 62
7
  6
CONTINUOUS
 10
103.8855913013
 20
213.1645386484
 11
103.8855913013
 21
206.8937073476
  0
LWPOLYLINE
  5
2FA
100
AcDbEntity
  8
0
100
AcDbPolyline
 62
7
  6
CONTINUOUS
 90
6
 70
0
 10
102.7082889698
 20
211.8343348855
 10
102.6686309154
 20
211.6743387664
 10
102.6381011164
 20
211.5136282602
 10
102.6165289173
 20
211.3523537965
 10
102.6035811646
 20
211.1908941258
 10
102.5993689094
 20
211.029122998
  0
LWPOLYLINE
  5
2FB
100
AcDbEntity
  8
0
100
AcDbPolyline
 62
7
  6
CONTINUOUS
 90
4
 70
0
 10
102.8855913013
 20
212.3048580802
 10
102.8166066649
 20
212.1498228632
 10
102.7574517218
 20
211.9930579052
 10
102.7082889698
 20
211.8343348855
  0
LWPOLYLINE
  5
2FC
100
AcDbEntity
  8
0
100
AcDbPolyline
 62
7
  6
CONTINUOUS
 90
4
 70
0
 10
102.8855913013
 20
207.7533879158
 10
102.8166066649
 20
207.9084231327
 10
102.7574517218
 20
208.0651880907
 10
102.7082889698
 20
208.2239111105
  0
LWPOLYLINE
  5
2FD
100
AcDbEntity
  8
0
100
AcDbPolyline
 62
7
  6
CONTINUOUS
 90
6
 70
0
 10
102.7082889698
 20
208.2239111105
 10
102.6686309154
 20
208.3839072296
 10
102.6381011164
 20
208.5446177358
 10
102.6165289173
 20
208.7058921994
 10
102.6035811646
 20
208.8673518701
 10
102.5993689094
 20
209.029122998
  0
LINE
  5
2FE
100
AcDbEntity
  8
0
100
AcDbLine
 62
7
  6
CONTINUOUS
 10
105.5993689094
 20
211.029122998
 11
105.5993689094
 21
209.029122998
  0
LWPOLYLINE
  5
2FF
100
AcDbEntity
  8
0
100
AcDbPolyline
 62
7
  6
CONTINUOUS
 90
7
 70
0
 10
105.3852060069
 20
208.1763013001
 10
105.4533814017
 20
208.3215934346
 10
105.5076796267
 20
208.466196894
 10
105.548648887
 20
208.6089385644
 10
105.5770933853
 20
208.7502965868
 10
105.5941234267
 20
208.8903689526
 10
105.5993689094
 20
209.029122998
  0
LWPOLYLINE
  5
300
100
AcDbEntity
  8
0
100
AcDbPolyline
 62
7
  6
CONTINUOUS
 90
7
 70
0
 10
105.3854874508
 20
211.8814014548
 10
105.453578275
 20
211.7361883745
 10
105.5078018143
 20
211.5916787673
 10
105.5487158341
 20
211.4490344207
 10
105.5771214864
 20
211.3077740309
 10
105.594129229
 20
211.1677918015
 10
105.5993689094
 20
211.029122998
  0
LWPOLYLINE
  5
301
100
AcDbEntity
  8
RUNDUNGEN
100
AcDbPolyline
 62
9
  6
CONTINUOUS
 90
7
 70
0
 10
112.5793166946
 20
213.529122998
 10
112.5735832508
 20
213.5241403552
 10
112.5593861272
 20
213.5104358722
 10
112.5364087913
 20
213.4898073721
 10
112.5056008406
 20
213.4639132174
 10
112.4676599672
 20
213.4342224311
 10
112.4230253549
 20
213.4022756193
  0
LWPOLYLINE
  5
302
100
AcDbEntity
  8
RUNDUNGEN
100
AcDbPolyline
 62
9
  6
CONTINUOUS
 90
11
 70
0
 10
112.4087237997
 20
206.6655657316
 10
112.4528156647
 20
206.6350271443
 10
112.4878942792
 20
206.6084940517
 10
112.5150999125
 20
206.5866184018
 10
112.5357914848
 20
206.5688940859
 10
112.5515043798
 20
206.5550367145
 10
112.562849476
 20
206.5446220398
 10
112.5707984828
 20
206.5372479918
 10
112.5758042911
 20
206.5324768079
 10
112.5787407943
 20
206.5298996377
 10
112.5793166946
 20
206.529122998
  0
LINE
  5
303
100
AcDbEntity
  8
RUNDUNGEN
100
AcDbLine
 62
9
  6
CONTINUOUS
 10
118.7855913013
 20
206.529122998
 11
118.7855913013
 21
213.529122998
  0
LINE
  5
304
100
AcDbEntity
  8
RUNDUNGEN
100
AcDbLine
 62
7
  6
CONTINUOUS
 10
119.7855913013
 20
207.529122998
 11
119.7855913013
 21
212.529122998
  0
LINE
  5
305
100
AcDbEntity
  8
RUNDUNGEN
100
AcDbLine
 62
9
  6
CONTINUOUS
 10
120.2855913013
 20
212.216622998
 11
120.2855913013
 21
207.841622998
  0
LWPOLYLINE
  5
306
100
AcDbEntity
  8
RUNDUNGEN
100
AcDbPolyline
 62
9
  6
CONTINUOUS
 90
4
 70
0
 10
120.2855913013
 20
207.841622998
 10
120.2808619237
 20
207.7453847132
 10
120.2705323057
 20
207.6561107674
 10
120.254299588
 20
207.5741812006
  0
LWPOLYLINE
  5
307
100
AcDbEntity
  8
RUNDUNGEN
100
AcDbPolyline
 62
9
  6
CONTINUOUS
 90
11
 70
0
 10
119.7855913013
 20
207.529122998
 10
119.7917472468
 20
207.5780087933
 10
119.8100634366
 20
207.6256907985
 10
119.8400887607
 20
207.6709948973
 10
119.881083814
 20
207.7128055877
 10
119.9320390959
 20
207.7500933876
 10
119.9916998852
 20
207.781940188
 10
120.0585971229
 20
207.8075618625
 10
120.1310835964
 20
207.8263275536
 10
120.2073745012
 20
207.8377752179
 10
120.2855913013
 20
207.8416229979
  0
LWPOLYLINE
  5
308
100
AcDbEntity
  8
RUNDUNGEN
100
AcDbPolyline
 62
9
  6
CONTINUOUS
 90
7
 70
0
 10
110.991865908
 20
206.529122998
 10
110.9975443704
 20
206.5340618015
 10
111.0116274202
 20
206.5476550693
 10
111.0344237675
 20
206.5681332959
 10
111.0650072822
 20
206.5938641475
 10
111.1026928196
 20
206.6234015525
 10
111.1470661343
 20
206.6552259138
  0
LWPOLYLINE
  5
309
100
AcDbEntity
  8
RUNDUNGEN
100
AcDbPolyline
 62
9
  6
CONTINUOUS
 90
7
 70
0
 10
115.5793166946
 20
213.529122998
 10
115.5735832508
 20
213.5241403551
 10
115.5593861272
 20
213.5104358722
 10
115.5364087913
 20
213.4898073721
 10
115.5056008406
 20
213.4639132174
 10
115.4676599672
 20
213.4342224311
 10
115.4230253549
 20
213.4022756193
  0
LWPOLYLINE
  5
30A
100
AcDbEntity
  8
RUNDUNGEN
100
AcDbPolyline
 62
9
  6
CONTINUOUS
 90
7
 70
0
 10
118.5793166946
 20
213.529122998
 10
118.5735832508
 20
213.5241403551
 10
118.5593861272
 20
213.5104358722
 10
118.5364087913
 20
213.4898073721
 10
118.5056008406
 20
213.4639132174
 10
118.4676599672
 20
213.4342224311
 10
118.4230253549
 20
213.4022756193
  0
LWPOLYLINE
  5
30B
100
AcDbEntity
  8
RUNDUNGEN
100
AcDbPolyline
 62
9
  6
CONTINUOUS
 90
19
 70
0
 10
112.4230253549
 20
213.4022756193
 10
112.3721261431
 20
213.3694916639
 10
112.3156901584
 20
213.3372028374
 10
112.2543114681
 20
213.3066781071
 10
112.18882049
 20
213.2788794963
 10
112.1200754197
 20
213.2547228617
 10
112.0485869909
 20
213.2347470556
 10
111.975115202
 20
213.2193657324
 10
111.8997704552
 20
213.2089538661
 10
111.8228560111
 20
213.2036121453
 10
111.7445532937
 20
213.2037990043
 10
111.6648587029
 20
213.2096208946
 10
111.5846305717
 20
213.2214565793
 10
111.5041951693
 20
213.2394217233
 10
111.4251450867
 20
213.2632679715
 10
111.3481562415
 20
213.2930789603
 10
111.2763049222
 20
213.3263327138
 10
111.2126257689
 20
213.3617040441
 10
111.1579196445
 20
213.3956931964
  0
LWPOLYLINE
  5
30C
100
AcDbEntity
  8
RUNDUNGEN
100
AcDbPolyline
 62
9
  6
CONTINUOUS
 90
19
 70
0
 10
115.4230253549
 20
213.4022756193
 10
115.3721261431
 20
213.3694916639
 10
115.3156901584
 20
213.3372028374
 10
115.2543114681
 20
213.3066781071
 10
115.18882049
 20
213.2788794963
 10
115.1200754197
 20
213.2547228617
 10
115.0485869909
 20
213.2347470556
 10
114.9751152019
 20
213.2193657324
 10
114.8997704552
 20
213.2089538661
 10
114.8228560111
 20
213.2036121453
 10
114.7445532937
 20
213.2037990043
 10
114.6648587029
 20
213.2096208946
 10
114.5846305717
 20
213.2214565793
 10
114.5041951693
 20
213.2394217233
 10
114.4251450867
 20
213.2632679715
 10
114.3481562415
 20
213.2930789603
 10
114.2763049222
 20
213.3263327138
 10
114.2126257689
 20
213.3617040441
 10
114.1579196445
 20
213.3956931964
  0
LWPOLYLINE
  5
30D
100
AcDbEntity
  8
RUNDUNGEN
100
AcDbPolyline
 62
9
  6
CONTINUOUS
 90
11
 70
0
 10
115.4087237997
 20
206.6655657316
 10
115.4528156647
 20
206.6350271443
 10
115.4878942792
 20
206.6084940517
 10
115.5150999125
 20
206.5866184018
 10
115.5357914848
 20
206.5688940859
 10
115.5515043798
 20
206.5550367145
 10
115.562849476
 20
206.5446220398
 10
115.5707984828
 20
206.5372479918
 10
115.5758042911
 20
206.5324768079
 10
115.5787407943
 20
206.5298996377
 10
115.5793166946
 20
206.529122998
  0
LWPOLYLINE
  5
30E
100
AcDbEntity
  8
RUNDUNGEN
100
AcDbPolyline
 62
9
  6
CONTINUOUS
 90
11
 70
0
 10
118.4087237997
 20
206.6655657316
 10
118.4528156647
 20
206.6350271443
 10
118.4878942792
 20
206.6084940517
 10
118.5150999125
 20
206.5866184018
 10
118.5357914848
 20
206.5688940859
 10
118.5515043798
 20
206.5550367145
 10
118.562849476
 20
206.5446220398
 10
118.5707984828
 20
206.5372479918
 10
118.5758042911
 20
206.5324768079
 10
118.5787407943
 20
206.5298996377
 10
118.5793166946
 20
206.529122998
  0
LWPOLYLINE
  5
30F
100
AcDbEntity
  8
RUNDUNGEN
100
AcDbPolyline
 62
9
  6
CONTINUOUS
 90
11
 70
0
 10
119.7855913013
 20
212.529122998
 10
119.7917471534
 20
212.4802371393
 10
119.8100631199
 20
212.4325550396
 10
119.8400881821
 20
212.3872507915
 10
119.8810830074
 20
212.3454399318
 10
119.9320381537
 20
212.308151977
 10
119.9916989284
 20
212.2763050723
 10
120.0585962809
 20
212.2506833861
 10
120.1310829785
 20
212.2319178012
 10
120.207374166
 20
212.2204703819
 10
120.2855913013
 20
212.216622998
  0
LWPOLYLINE
  5
310
100
AcDbEntity
  8
RUNDUNGEN
100
AcDbPolyline
 62
9
  6
CONTINUOUS
 90
26
 70
0
 10
120.254299588
 20
207.5741812006
 10
120.2330723488
 20
207.4973591956
 10
120.2076785435
 20
207.4239433594
 10
120.1780571815
 20
207.3536282432
 10
120.1442530321
 20
207.2854618181
 10
120.1067767707
 20
207.2201458151
 10
120.0659440256
 20
207.1578608436
 10
120.022384708
 20
207.0989846153
 10
119.9767484912
 20
207.0439015918
 10
119.9292917185
 20
206.9923998809
 10
119.880827333
 20
206.9447686979
 10
119.830335208
 20
206.8998245494
 10
119.7774103655
 20
206.8569545229
 10
119.7210203022
 20
206.8156047882
 10
119.6597895075
 20
206.7750750256
 10
119.5943420258
 20
206.7362371108
 10
119.524542936
 20
206.6994530514
 10
119.4512936238
 20
206.6654588124
 10
119.3751603794
 20
206.6347624227
 10
119.2970135685
 20
206.6077652594
 10
119.2182546383
 20
206.5849049877
 10
119.1378566344
 20
206.5658294401
 10
119.0557675463
 20
206.5505883697
 10
118.9704639889
 20
206.5391297047
 10
118.8802126504
 20
206.5317311658
 10
118.7855935213
 20
206.529122998
  0
LWPOLYLINE
  5
311
100
AcDbEntity
  8
RUNDUNGEN
100
AcDbPolyline
 62
9
  6
CONTINUOUS
 90
7
 70
0
 10
113.991865908
 20
206.529122998
 10
113.9975443704
 20
206.5340618015
 10
114.0116274202
 20
206.5476550693
 10
114.0344237675
 20
206.5681332959
 10
114.0650072822
 20
206.5938641475
 10
114.1026928196
 20
206.6234015525
 10
114.1470661343
 20
206.6552259138
  0
LWPOLYLINE
  5
312
100
AcDbEntity
  8
RUNDUNGEN
100
AcDbPolyline
 62
9
  6
CONTINUOUS
 90
19
 70
0
 10
111.1470661343
 20
206.6552259138
 10
111.1977359228
 20
206.6879448243
 10
111.2539482144
 20
206.720215167
 10
111.3151083265
 20
206.7507490647
 10
111.3803470905
 20
206.7785828857
 10
111.4487588332
 20
206.802780807
 10
111.5198583848
 20
206.8228269738
 10
111.5928883648
 20
206.8383238245
 10
111.6677597319
 20
206.8489065369
 10
111.7441766083
 20
206.8544878229
 10
111.8220021233
 20
206.8546093829
 10
111.9012909406
 20
206.8491647017
 10
111.9811725798
 20
206.8377689974
 10
112.0613280267
 20
206.8202882897
 10
112.1401575469
 20
206.7969727077
 10
112.2168754284
 20
206.7678084647
 10
112.2887205902
 20
206.7350270384
 10
112.3530592302
 20
206.6997572847
 10
112.4087237997
 20
206.6655657316
  0
LWPOLYLINE
  5
313
100
AcDbEntity
  8
RUNDUNGEN
100
AcDbPolyline
 62
9
  6
CONTINUOUS
 90
19
 70
0
 10
118.4230253549
 20
213.4022756193
 10
118.3721261431
 20
213.3694916639
 10
118.3156901584
 20
213.3372028374
 10
118.2543114681
 20
213.3066781071
 10
118.18882049
 20
213.2788794963
 10
118.1200754197
 20
213.2547228617
 10
118.0485869909
 20
213.2347470556
 10
117.9751152019
 20
213.2193657324
 10
117.8997704552
 20
213.2089538661
 10
117.8228560111
 20
213.2036121453
 10
117.7445532937
 20
213.2037990043
 10
117.6648587029
 20
213.2096208946
 10
117.5846305717
 20
213.2214565793
 10
117.5041951693
 20
213.2394217233
 10
117.4251450867
 20
213.2632679715
 10
117.3481562415
 20
213.2930789603
 10
117.2763049222
 20
213.3263327138
 10
117.2126257689
 20
213.3617040441
 10
117.1579196445
 20
213.3956931964
  0
LWPOLYLINE
  5
314
100
AcDbEntity
  8
0
100
AcDbPolyline
 62
7
  6
CONTINUOUS
 90
11
 70
0
 10
103.8855913013
 20
206.8937073476
 10
104.103018613
 20
206.9946482005
 10
104.3053727733
 20
207.1031494981
 10
104.4926158813
 20
207.2196190195
 10
104.6648616397
 20
207.3428334278
 10
104.8222241201
 20
207.4719857009
 10
104.9646643142
 20
207.6062346744
 10
105.0921803243
 20
207.7448254502
 10
105.2047748897
 20
207.8866922069
 10
105.302342758
 20
208.0309068746
 10
105.3852060069
 20
208.1763013001
  0
LWPOLYLINE
  5
315
100
AcDbEntity
  8
0
100
AcDbPolyline
 62
7
  6
CONTINUOUS
 90
11
 70
0
 10
103.8855913013
 20
213.1645386484
 10
104.1032370643
 20
213.0634842073
 10
104.3057568872
 20
212.9548738755
 10
104.4931099376
 20
212.8382973284
 10
104.6654187128
 20
212.7149855392
 10
104.8228033068
 20
212.5857507171
 10
104.9652300978
 20
212.4514388302
 10
105.092701888
 20
212.3128105163
 10
105.2052294991
 20
212.1709339759
 10
105.3027137898
 20
212.0267438299
 10
105.3854874508
 20
211.8814014548
  0
LWPOLYLINE
  5
316
100
AcDbEntity
  8
RUNDUNGEN
100
AcDbPolyline
 62
9
  6
CONTINUOUS
 90
11
 70
0
 10
111.1579196445
 20
213.3956931964
 10
111.1148999216
 20
213.4257191229
 10
111.0808637114
 20
213.4516591525
 10
111.0544339813
 20
213.4730004324
 10
111.0343465346
 20
213.4902624101
 10
111.019073047
 20
213.5037538552
 10
111.0080288681
 20
213.5139052095
 10
111.0002601764
 20
213.5211136143
 10
110.9953461613
 20
213.5257997674
 10
110.9924557279
 20
213.5283495022
 10
110.991865908
 20
213.529122998
  0
LWPOLYLINE
  5
317
100
AcDbEntity
  8
RUNDUNGEN
100
AcDbPolyline
 62
9
  6
CONTINUOUS
 90
11
 70
0
 10
114.1579196445
 20
213.3956931964
 10
114.1148999216
 20
213.4257191229
 10
114.0808637114
 20
213.4516591525
 10
114.0544339813
 20
213.4730004324
 10
114.0343465346
 20
213.4902624101
 10
114.019073047
 20
213.5037538552
 10
114.0080288681
 20
213.5139052095
 10
114.0002601764
 20
213.5211136143
 10
113.9953461613
 20
213.5257997674
 10
113.9924557279
 20
213.5283495022
 10
113.991865908
 20
213.529122998
  0
LWPOLYLINE
  5
318
100
AcDbEntity
  8
RUNDUNGEN
100
AcDbPolyline
 62
9
  6
CONTINUOUS
 90
5
 70
0
 10
120.2218441941
 20
212.5951829791
 10
120.2465736087
 20
212.5149850489
 10
120.2662968292
 20
212.4264600298
 10
120.2790888356
 20
212.3269788683
 10
120.2855913013
 20
212.216622998
  0
LWPOLYLINE
  5
319
100
AcDbEntity
  8
RUNDUNGEN
100
AcDbPolyline
 62
9
  6
CONTINUOUS
 90
7
 70
0
 10
116.991865908
 20
206.529122998
 10
116.9975443704
 20
206.5340618015
 10
117.0116274202
 20
206.5476550693
 10
117.0344237675
 20
206.5681332959
 10
117.0650072822
 20
206.5938641475
 10
117.1026928196
 20
206.6234015525
 10
117.1470661343
 20
206.6552259138
  0
LWPOLYLINE
  5
31A
100
AcDbEntity
  8
RUNDUNGEN
100
AcDbPolyline
 62
9
  6
CONTINUOUS
 90
19
 70
0
 10
114.1470661343
 20
206.6552259138
 10
114.1977359228
 20
206.6879448243
 10
114.2539482144
 20
206.720215167
 10
114.3151083265
 20
206.7507490647
 10
114.3803470905
 20
206.7785828857
 10
114.4487588332
 20
206.802780807
 10
114.5198583848
 20
206.8228269738
 10
114.5928883648
 20
206.8383238245
 10
114.6677597319
 20
206.8489065369
 10
114.7441766083
 20
206.8544878229
 10
114.8220021233
 20
206.8546093829
 10
114.9012909406
 20
206.8491647017
 10
114.9811725798
 20
206.8377689974
 10
115.0613280267
 20
206.8202882897
 10
115.1401575469
 20
206.7969727077
 10
115.2168754284
 20
206.7678084647
 10
115.2887205902
 20
206.7350270384
 10
115.3530592302
 20
206.6997572847
 10
115.4087237997
 20
206.6655657316
  0
LWPOLYLINE
  5
31B
100
AcDbEntity
  8
RUNDUNGEN
100
AcDbPolyline
 62
9
  6
CONTINUOUS
 90
19
 70
0
 10
117.1470661343
 20
206.6552259138
 10
117.1977359228
 20
206.6879448243
 10
117.2539482144
 20
206.720215167
 10
117.3151083265
 20
206.7507490647
 10
117.3803470905
 20
206.7785828857
 10
117.4487588332
 20
206.802780807
 10
117.5198583848
 20
206.8228269738
 10
117.5928883648
 20
206.8383238245
 10
117.6677597319
 20
206.8489065369
 10
117.7441766083
 20
206.8544878229
 10
117.8220021233
 20
206.8546093829
 10
117.9012909406
 20
206.8491647017
 10
117.9811725798
 20
206.8377689974
 10
118.0613280267
 20
206.8202882897
 10
118.1401575469
 20
206.7969727077
 10
118.2168754284
 20
206.7678084647
 10
118.2887205902
 20
206.7350270384
 10
118.3530592302
 20
206.6997572847
 10
118.4087237997
 20
206.6655657316
  0
LINE
  5
31C
100
AcDbEntity
  8
RUNDUNGEN
100
AcDbLine
 62
7
  6
CONTINUOUS
 10
118.7855913013
 20
206.529122998
 11
118.5793166946
 21
206.529122998
  0
LINE
  5
31D
100
AcDbEntity
  8
RUNDUNGEN
100
AcDbLine
 62
7
  6
CONTINUOUS
 10
116.991865908
 20
206.529122998
 11
115.5793166946
 21
206.529122998
  0
LINE
  5
31E
100
AcDbEntity
  8
RUNDUNGEN
100
AcDbLine
 62
7
  6
CONTINUOUS
 10
113.991865908
 20
206.529122998
 11
112.5793166946
 21
206.529122998
  0
LINE
  5
31F
100
AcDbEntity
  8
RUNDUNGEN
100
AcDbLine
 62
7
  6
CONTINUOUS
 10
110.991865908
 20
206.529122998
 11
89.2855913013
 21
206.529122998
  0
LINE
  5
320
100
AcDbEntity
  8
BEZUGSACHSEN
100
AcDbLine
 62
7
  6
CONTINUOUS
 10
118.7855980255
 20
206.529122998
 11
128.2855913013
 21
206.529122998
  0
LINE
  5
321
100
AcDbEntity
  8
0
100
AcDbLine
 62
7
  6
CONTINUOUS
 10
103.8855913013
 20
206.8937073476
 11
102.8855913013
 21
206.8937073476
  0
LWPOLYLINE
  5
322
100
AcDbEntity
  8
RUNDUNGEN
100
AcDbPolyline
 62
9
  6
CONTINUOUS
 90
11
 70
0
 10
117.1579196445
 20
213.3956931964
 10
117.1148999216
 20
213.425719123
 10
117.0808637114
 20
213.4516591525
 10
117.0544339813
 20
213.4730004324
 10
117.0343465346
 20
213.4902624101
 10
117.019073047
 20
213.5037538552
 10
117.0080288681
 20
213.5139052095
 10
117.0002601764
 20
213.5211136143
 10
116.9953461613
 20
213.5257997674
 10
116.9924557279
 20
213.5283495022
 10
116.991865908
 20
213.529122998
  0
LINE
  5
323
100
AcDbEntity
  8
RUNDUNGEN
100
AcDbLine
 62
9
  6
CONTINUOUS
 10
128.2855913013
 20
213.529122998
 11
128.2855913013
 21
206.529122998
  0
LINE
  5
324
100
AcDbEntity
  8
RUNDUNGEN
100
AcDbLine
 62
7
  6
CONTINUOUS
 10
128.7855913013
 20
213.029122998
 11
128.7855913013
 21
207.029122998
  0
LINE
  5
325
100
AcDbEntity
  8
BEZUGSACHSEN
100
AcDbLine
 62
7
  6
CONTINUOUS
 10
179.2552354389
 20
207.529122998
 11
128.7855913013
 21
207.529122998
  0
LINE
  5
326
100
AcDbEntity
  8
0
100
AcDbLine
 62
7
  6
CONTINUOUS
 10
88.2855913013
 20
208.819122998
 11
81.0855913013
 21
208.819122998
  0
LINE
  5
327
100
AcDbEntity
  8
RUNDUNGEN
100
AcDbLine
 62
9
  6
CONTINUOUS
 10
88.2855913013
 20
209.029122998
 11
102.5993689094
 21
209.029122998
  0
LINE
  5
328
100
AcDbEntity
  8
RUNDUNGEN
100
AcDbLine
 62
9
  6
CONTINUOUS
 10
105.5993689094
 20
209.029122998
 11
119.7855913013
 21
209.029122998
  0
LINE
  5
329
100
AcDbEntity
  8
RUNDUNGEN
100
AcDbLine
 62
9
  6
CONTINUOUS
 10
88.2855913013
 20
211.029122998
 11
102.5993689094
 21
211.029122998
  0
LINE
  5
32A
100
AcDbEntity
  8
RUNDUNGEN
100
AcDbLine
 62
9
  6
CONTINUOUS
 10
105.5993689094
 20
211.029122998
 11
119.7855913013
 21
211.029122998
  0
LINE
  5
32B
100
AcDbEntity
  8
0
100
AcDbLine
 62
7
  6
CONTINUOUS
 10
88.2855913013
 20
211.239122998
 11
81.0855913013
 21
211.239122998
  0
LINE
  5
32C
100
AcDbEntity
  8
BEZUGSACHSEN
100
AcDbLine
 62
7
  6
CONTINUOUS
 10
179.2552354389
 20
212.529122998
 11
128.7855913013
 21
212.529122998
  0
LINE
  5
32D
100
AcDbEntity
  8
0
100
AcDbLine
 62
7
  6
CONTINUOUS
 10
102.8855913013
 20
213.1645386484
 11
103.8855913013
 21
213.1645386484
  0
LINE
  5
32E
100
AcDbEntity
  8
RUNDUNGEN
100
AcDbLine
 62
7
  6
CONTINUOUS
 10
89.2855913013
 20
213.529122998
 11
110.991865908
 21
213.529122998
  0
LINE
  5
32F
100
AcDbEntity
  8
RUNDUNGEN
100
AcDbLine
 62
7
  6
CONTINUOUS
 10
112.5793166946
 20
213.529122998
 11
113.991865908
 21
213.529122998
  0
LINE
  5
330
100
AcDbEntity
  8
RUNDUNGEN
100
AcDbLine
 62
7
  6
CONTINUOUS
 10
115.5793166946
 20
213.529122998
 11
116.991865908
 21
213.529122998
  0
LINE
  5
331
100
AcDbEntity
  8
RUNDUNGEN
100
AcDbLine
 62
7
  6
CONTINUOUS
 10
118.5793166946
 20
213.529122998
 11
118.7855913013
 21
213.529122998
  0
LINE
  5
332
100
AcDbEntity
  8
BEZUGSACHSEN
100
AcDbLine
 62
7
  6
CONTINUOUS
 10
118.7855980255
 20
213.529122998
 11
128.2855913013
 21
213.529122998
  0
LWPOLYLINE
  5
333
100
AcDbEntity
  8
RUNDUNGEN
100
AcDbPolyline
 62
9
  6
CONTINUOUS
 90
25
 70
0
 10
118.7855913013
 20
213.529122998
 10
118.8718032734
 20
213.526958848
 10
118.9566181507
 20
213.5205637833
 10
119.0397580951
 20
213.5101452303
 10
119.1220566214
 20
213.4956776097
 10
119.2048683076
 20
213.4768027025
 10
119.2863521266
 20
213.4538242872
 10
119.3653599502
 20
213.4271097766
 10
119.4411676598
 20
213.3971337572
 10
119.5127152848
 20
213.3645921823
 10
119.5798622533
 20
213.3300183391
 10
119.6416586594
 20
213.2943974979
 10
119.6994725344
 20
213.2574026985
 10
119.7540071338
 20
213.2189754743
 10
119.8063068787
 20
213.1783828068
 10
119.8578503852
 20
213.1344560355
 10
119.9080383233
 20
213.0872865131
 10
119.9570196433
 20
213.0363829943
 10
120.0040281202
 20
212.9821412743
 10
120.0484691231
 20
212.9248302531
 10
120.0899768201
 20
212.864701121
 10
120.1279012869
 20
212.8025205741
 10
120.1625001693
 20
212.737319092
 10
120.1939266013
 20
212.668769115
 10
120.2218441941
 20
212.5951829791
  0
LINE
  5
334
100
AcDbEntity
  8
0
100
AcDbLine
 62
2
  6
CONTINUOUS
 10
179.2552354389
 20
207.529122998
 11
179.2552354389
 21
212.529122998
  0
LINE
  5
335
100
AcDbEntity
  8
0
100
AcDbLine
 62
2
  6
CONTINUOUS
 10
245.645632831
 20
212.529122998
 11
245.645632831
 21
207.529122998
  0
LINE
  5
336
100
AcDbEntity
  8
RUNDUNGEN
100
AcDbLine
 62
7
  6
CONTINUOUS
 10
363.3946095884
 20
206.529122998
 11
341.6883349818
 21
206.529122998
  0
LINE
  5
337
100
AcDbEntity
  8
RUNDUNGEN
100
AcDbLine
 62
7
  6
CONTINUOUS
 10
340.1008841951
 20
206.529122998
 11
338.6883349818
 21
206.529122998
  0
LINE
  5
338
100
AcDbEntity
  8
RUNDUNGEN
100
AcDbLine
 62
7
  6
CONTINUOUS
 10
337.1008841951
 20
206.529122998
 11
335.6883349818
 21
206.529122998
  0
LINE
  5
339
100
AcDbEntity
  8
RUNDUNGEN
100
AcDbLine
 62
7
  6
CONTINUOUS
 10
334.1008841951
 20
206.529122998
 11
333.8946095884
 21
206.529122998
  0
LINE
  5
33A
100
AcDbEntity
  8
BEZUGSACHSEN
100
AcDbLine
 62
7
  6
CONTINUOUS
 10
333.8946028642
 20
206.529122998
 11
324.3946095884
 21
206.529122998
  0
LINE
  5
33B
100
AcDbEntity
  8
0
100
AcDbLine
 62
7
  6
CONTINUOUS
 10
349.7946095884
 20
206.8937073476
 11
348.7946095884
 21
206.8937073476
  0
LINE
  5
33C
100
AcDbEntity
  8
BEZUGSACHSEN
100
AcDbLine
 62
7
  6
CONTINUOUS
 10
323.8946095884
 20
207.529122998
 11
245.645632831
 21
207.529122998
  0
LINE
  5
33D
100
AcDbEntity
  8
0
100
AcDbLine
 62
7
  6
CONTINUOUS
 10
364.3946095884
 20
208.819122998
 11
371.0446095884
 21
208.819122998
  0
LINE
  5
33E
100
AcDbEntity
  8
RUNDUNGEN
100
AcDbLine
 62
9
  6
CONTINUOUS
 10
364.3946095884
 20
209.029122998
 11
350.0808319804
 21
209.029122998
  0
LINE
  5
33F
100
AcDbEntity
  8
RUNDUNGEN
100
AcDbLine
 62
9
  6
CONTINUOUS
 10
347.0808319804
 20
209.029122998
 11
332.8946095884
 21
209.029122998
  0
LWPOLYLINE
  5
340
100
AcDbEntity
  8
RUNDUNGEN
100
AcDbPolyline
 62
9
  6
CONTINUOUS
 90
25
 70
0
 10
333.8946095884
 20
206.529122998
 10
333.8083976164
 20
206.5312871479
 10
333.723582739
 20
206.5376822127
 10
333.6404427946
 20
206.5481007656
 10
333.5581442683
 20
206.5625683863
 10
333.4753325821
 20
206.5814432934
 10
333.3938487631
 20
206.6044217088
 10
333.3148409396
 20
206.6311362193
 10
333.2390332299
 20
206.6611122387
 10
333.167485605
 20
206.6936538137
 10
333.1003386365
 20
206.7282276569
 10
333.0385422303
 20
206.7638484981
 10
332.9807283553
 20
206.8008432974
 10
332.9261937559
 20
206.8392705217
 10
332.8738940111
 20
206.8798631891
 10
332.8223505045
 20
206.9237899604
 10
332.7721625664
 20
206.9709594828
 10
332.7231812464
 20
207.0218630016
 10
332.6761727695
 20
207.0761047217
 10
332.6317317666
 20
207.1334157428
 10
332.5902240696
 20
207.1935448749
 10
332.5522996028
 20
207.2557254218
 10
332.5177007204
 20
207.3209269039
 10
332.4862742884
 20
207.389476881
 10
332.4583566956
 20
207.4630630168
  0
LINE
  5
341
100
AcDbEntity
  8
RUNDUNGEN
100
AcDbLine
 62
9
  6
CONTINUOUS
 10
332.8946095884
 20
211.029122998
 11
347.0808319804
 21
211.029122998
  0
LINE
  5
342
100
AcDbEntity
  8
RUNDUNGEN
100
AcDbLine
 62
9
  6
CONTINUOUS
 10
350.0808319804
 20
211.029122998
 11
364.3946095884
 21
211.029122998
  0
LINE
  5
343
100
AcDbEntity
  8
0
100
AcDbLine
 62
7
  6
CONTINUOUS
 10
364.3946095884
 20
211.239122998
 11
371.0446095884
 21
211.239122998
  0
LINE
  5
344
100
AcDbEntity
  8
BEZUGSACHSEN
100
AcDbLine
 62
7
  6
CONTINUOUS
 10
323.8946095884
 20
212.529122998
 11
245.645632831
 21
212.529122998
  0
LINE
  5
345
100
AcDbEntity
  8
0
100
AcDbLine
 62
7
  6
CONTINUOUS
 10
348.7946095884
 20
213.1645386484
 11
349.7946095884
 21
213.1645386484
  0
LINE
  5
346
100
AcDbEntity
  8
BEZUGSACHSEN
100
AcDbLine
 62
7
  6
CONTINUOUS
 10
333.8946028642
 20
213.529122998
 11
324.3946095884
 21
213.529122998
  0
LINE
  5
347
100
AcDbEntity
  8
RUNDUNGEN
100
AcDbLine
 62
7
  6
CONTINUOUS
 10
333.8946095884
 20
213.529122998
 11
334.1008841951
 21
213.529122998
  0
LINE
  5
348
100
AcDbEntity
  8
RUNDUNGEN
100
AcDbLine
 62
7
  6
CONTINUOUS
 10
335.6883349818
 20
213.529122998
 11
337.1008841951
 21
213.529122998
  0
LINE
  5
349
100
AcDbEntity
  8
RUNDUNGEN
100
AcDbLine
 62
7
  6
CONTINUOUS
 10
338.6883349818
 20
213.529122998
 11
340.1008841951
 21
213.529122998
  0
LINE
  5
34A
100
AcDbEntity
  8
RUNDUNGEN
100
AcDbLine
 62
7
  6
CONTINUOUS
 10
341.6883349818
 20
213.529122998
 11
363.3946095884
 21
213.529122998
  0
LWPOLYLINE
  5
34B
100
AcDbEntity
  8
RUNDUNGEN
100
AcDbPolyline
 62
9
  6
CONTINUOUS
 90
19
 70
0
 10
335.5331347554
 20
213.4030200821
 10
335.4824649669
 20
213.3703011717
 10
335.4262526753
 20
213.338030829
 10
335.3650925632
 20
213.3074969312
 10
335.2998537993
 20
213.2796631103
 10
335.2314420565
 20
213.255465189
 10
335.1603425049
 20
213.2354190221
 10
335.0873125249
 20
213.2199221714
 10
335.0124411578
 20
213.209339459
 10
334.9360242814
 20
213.203758173
 10
334.8581987664
 20
213.2036366131
 10
334.7789099492
 20
213.2090812943
 10
334.6990283099
 20
213.2204769985
 10
334.618872863
 20
213.2379577062
 10
334.5400433428
 20
213.2612732883
 10
334.4633254613
 20
213.2904375313
 10
334.3914802995
 20
213.3232189576
 10
334.3271416596
 20
213.3584887113
 10
334.2714770901
 20
213.3926802644
  0
LWPOLYLINE
  5
34C
100
AcDbEntity
  8
RUNDUNGEN
100
AcDbPolyline
 62
9
  6
CONTINUOUS
 90
11
 70
0
 10
335.5222812453
 20
206.6625527995
 10
335.5653009681
 20
206.632526873
 10
335.5993371783
 20
206.6065868434
 10
335.6257669084
 20
206.5852455635
 10
335.6458543551
 20
206.5679835858
 10
335.6611278427
 20
206.5544921407
 10
335.6721720216
 20
206.5443407865
 10
335.6799407134
 20
206.5371323816
 10
335.6848547285
 20
206.5324462286
 10
335.6877451618
 20
206.5298964938
 10
335.6883349818
 20
206.529122998
  0
LINE
  5
34D
100
AcDbEntity
  8
RUNDUNGEN
100
AcDbLine
 62
7
  6
CONTINUOUS
 10
323.8946095884
 20
207.029122998
 11
323.8946095884
 21
213.029122998
  0
LINE
  5
34E
100
AcDbEntity
  8
RUNDUNGEN
100
AcDbLine
 62
9
  6
CONTINUOUS
 10
324.3946095884
 20
206.529122998
 11
324.3946095884
 21
213.529122998
  0
LWPOLYLINE
  5
34F
100
AcDbEntity
  8
RUNDUNGEN
100
AcDbPolyline
 62
9
  6
CONTINUOUS
 90
7
 70
0
 10
335.6883349818
 20
213.529122998
 10
335.6826565193
 20
213.5241841945
 10
335.6685734695
 20
213.5105909266
 10
335.6457771223
 20
213.4901127001
 10
335.6151936075
 20
213.4643818485
 10
335.5775080701
 20
213.4348444434
 10
335.5331347554
 20
213.4030200821
  0
LWPOLYLINE
  5
350
100
AcDbEntity
  8
RUNDUNGEN
100
AcDbPolyline
 62
9
  6
CONTINUOUS
 90
7
 70
0
 10
338.6883349818
 20
213.529122998
 10
338.6826565193
 20
213.5241841945
 10
338.6685734695
 20
213.5105909266
 10
338.6457771223
 20
213.4901127001
 10
338.6151936075
 20
213.4643818485
 10
338.5775080701
 20
213.4348444434
 10
338.5331347554
 20
213.4030200821
  0
LWPOLYLINE
  5
351
100
AcDbEntity
  8
RUNDUNGEN
100
AcDbPolyline
 62
9
  6
CONTINUOUS
 90
19
 70
0
 10
338.5331347554
 20
213.4030200821
 10
338.4824649669
 20
213.3703011717
 10
338.4262526753
 20
213.338030829
 10
338.3650925632
 20
213.3074969312
 10
338.2998537993
 20
213.2796631103
 10
338.2314420565
 20
213.255465189
 10
338.1603425049
 20
213.2354190221
 10
338.0873125249
 20
213.2199221714
 10
338.0124411578
 20
213.209339459
 10
337.9360242814
 20
213.203758173
 10
337.8581987664
 20
213.2036366131
 10
337.7789099492
 20
213.2090812943
 10
337.6990283099
 20
213.2204769985
 10
337.618872863
 20
213.2379577062
 10
337.5400433428
 20
213.2612732883
 10
337.4633254613
 20
213.2904375313
 10
337.3914802995
 20
213.3232189576
 10
337.3271416596
 20
213.3584887113
 10
337.2714770901
 20
213.3926802644
  0
LWPOLYLINE
  5
352
100
AcDbEntity
  8
RUNDUNGEN
100
AcDbPolyline
 62
9
  6
CONTINUOUS
 90
19
 70
0
 10
341.5331347554
 20
213.4030200821
 10
341.4824649669
 20
213.3703011717
 10
341.4262526753
 20
213.338030829
 10
341.3650925632
 20
213.3074969312
 10
341.2998537993
 20
213.2796631103
 10
341.2314420565
 20
213.255465189
 10
341.1603425049
 20
213.2354190221
 10
341.0873125249
 20
213.2199221714
 10
341.0124411578
 20
213.209339459
 10
340.9360242814
 20
213.203758173
 10
340.8581987664
 20
213.2036366131
 10
340.7789099492
 20
213.2090812943
 10
340.6990283099
 20
213.2204769985
 10
340.618872863
 20
213.2379577062
 10
340.5400433428
 20
213.2612732883
 10
340.4633254613
 20
213.2904375313
 10
340.3914802995
 20
213.3232189576
 10
340.3271416596
 20
213.3584887113
 10
340.2714770901
 20
213.3926802644
  0
LWPOLYLINE
  5
353
100
AcDbEntity
  8
RUNDUNGEN
100
AcDbPolyline
 62
9
  6
CONTINUOUS
 90
19
 70
0
 10
334.2571755348
 20
206.6559703766
 10
334.3080747466
 20
206.6887543321
 10
334.3645107313
 20
206.7210431585
 10
334.4258894216
 20
206.7515678888
 10
334.4913803997
 20
206.7793664996
 10
334.56012547
 20
206.8035231343
 10
334.6316138988
 20
206.8234989403
 10
334.7050856878
 20
206.8388802635
 10
334.7804304345
 20
206.8492921299
 10
334.8573448786
 20
206.8546338507
 10
334.935647596
 20
206.8544469917
 10
335.0153421868
 20
206.8486251014
 10
335.0955703181
 20
206.8367894166
 10
335.1760057204
 20
206.8188242727
 10
335.255055803
 20
206.7949780245
 10
335.3320446482
 20
206.7651670356
 10
335.4038959675
 20
206.7319132821
 10
335.4675751209
 20
206.6965419518
 10
335.5222812453
 20
206.6625527995
  0
LWPOLYLINE
  5
354
100
AcDbEntity
  8
0
100
AcDbPolyline
 62
7
  6
CONTINUOUS
 90
11
 70
0
 10
348.7946095884
 20
213.1645386484
 10
348.5771822768
 20
213.0635977955
 10
348.3748281165
 20
212.9550964978
 10
348.1875850084
 20
212.8386269765
 10
348.01533925
 20
212.7154125681
 10
347.8579767696
 20
212.586260295
 10
347.7155365755
 20
212.4520113215
 10
347.5880205654
 20
212.3134205457
 10
347.475426
 20
212.1715537891
 10
347.3778581317
 20
212.0273391213
 10
347.2949948828
 20
211.8819446958
  0
LWPOLYLINE
  5
355
100
AcDbEntity
  8
0
100
AcDbPolyline
 62
7
  6
CONTINUOUS
 90
11
 70
0
 10
348.7946095884
 20
206.8937073476
 10
348.5769638254
 20
206.9947617886
 10
348.3744440025
 20
207.1033721205
 10
348.1870909521
 20
207.2199486676
 10
348.0147821769
 20
207.3432604567
 10
347.8573975829
 20
207.4724952788
 10
347.714970792
 20
207.6068071657
 10
347.5874990017
 20
207.7454354796
 10
347.4749713907
 20
207.88731202
 10
347.3774870999
 20
208.031502166
 10
347.2947134389
 20
208.1768445411
  0
LWPOLYLINE
  5
356
100
AcDbEntity
  8
RUNDUNGEN
100
AcDbPolyline
 62
9
  6
CONTINUOUS
 90
11
 70
0
 10
338.5222812453
 20
206.6625527995
 10
338.5653009681
 20
206.632526873
 10
338.5993371783
 20
206.6065868434
 10
338.6257669084
 20
206.5852455635
 10
338.6458543551
 20
206.5679835858
 10
338.6611278427
 20
206.5544921407
 10
338.6721720216
 20
206.5443407865
 10
338.6799407134
 20
206.5371323816
 10
338.6848547285
 20
206.5324462286
 10
338.6877451618
 20
206.5298964938
 10
338.6883349818
 20
206.529122998
  0
LWPOLYLINE
  5
357
100
AcDbEntity
  8
RUNDUNGEN
100
AcDbPolyline
 62
9
  6
CONTINUOUS
 90
11
 70
0
 10
341.5222812453
 20
206.6625527995
 10
341.5653009681
 20
206.632526873
 10
341.5993371783
 20
206.6065868434
 10
341.6257669084
 20
206.5852455635
 10
341.6458543551
 20
206.5679835858
 10
341.6611278427
 20
206.5544921407
 10
341.6721720216
 20
206.5443407865
 10
341.6799407134
 20
206.5371323816
 10
341.6848547285
 20
206.5324462286
 10
341.6877451618
 20
206.5298964938
 10
341.6883349818
 20
206.529122998
  0
LWPOLYLINE
  5
358
100
AcDbEntity
  8
RUNDUNGEN
100
AcDbPolyline
 62
9
  6
CONTINUOUS
 90
7
 70
0
 10
341.6883349818
 20
213.529122998
 10
341.6826565193
 20
213.5241841945
 10
341.6685734695
 20
213.5105909266
 10
341.6457771223
 20
213.4901127001
 10
341.6151936075
 20
213.4643818485
 10
341.5775080701
 20
213.4348444434
 10
341.5331347554
 20
213.4030200821
  0
LWPOLYLINE
  5
359
100
AcDbEntity
  8
RUNDUNGEN
100
AcDbPolyline
 62
9
  6
CONTINUOUS
 90
7
 70
0
 10
334.1008841951
 20
206.529122998
 10
334.1066176389
 20
206.5341056408
 10
334.1208147625
 20
206.5478101237
 10
334.1437920984
 20
206.5684386238
 10
334.1746000491
 20
206.5943327785
 10
334.2125409226
 20
206.6240235649
 10
334.2571755348
 20
206.6559703766
  0
LWPOLYLINE
  5
35A
100
AcDbEntity
  8
RUNDUNGEN
100
AcDbPolyline
 62
9
  6
CONTINUOUS
 90
19
 70
0
 10
337.2571755348
 20
206.6559703766
 10
337.3080747466
 20
206.6887543321
 10
337.3645107313
 20
206.7210431585
 10
337.4258894216
 20
206.7515678888
 10
337.4913803997
 20
206.7793664996
 10
337.56012547
 20
206.8035231343
 10
337.6316138988
 20
206.8234989403
 10
337.7050856878
 20
206.8388802635
 10
337.7804304345
 20
206.8492921299
 10
337.8573448786
 20
206.8546338507
 10
337.935647596
 20
206.8544469917
 10
338.0153421868
 20
206.8486251014
 10
338.095570318
 20
206.8367894166
 10
338.1760057204
 20
206.8188242727
 10
338.255055803
 20
206.7949780245
 10
338.3320446482
 20
206.7651670356
 10
338.4038959675
 20
206.7319132821
 10
338.4675751209
 20
206.6965419518
 10
338.5222812453
 20
206.6625527995
  0
LWPOLYLINE
  5
35B
100
AcDbEntity
  8
RUNDUNGEN
100
AcDbPolyline
 62
9
  6
CONTINUOUS
 90
19
 70
0
 10
340.2571755348
 20
206.6559703766
 10
340.3080747466
 20
206.6887543321
 10
340.3645107313
 20
206.7210431585
 10
340.4258894216
 20
206.7515678888
 10
340.4913803997
 20
206.7793664996
 10
340.56012547
 20
206.8035231343
 10
340.6316138988
 20
206.8234989403
 10
340.7050856878
 20
206.8388802635
 10
340.7804304345
 20
206.8492921299
 10
340.8573448786
 20
206.8546338507
 10
340.935647596
 20
206.8544469917
 10
341.0153421868
 20
206.8486251014
 10
341.095570318
 20
206.8367894166
 10
341.1760057204
 20
206.8188242727
 10
341.255055803
 20
206.7949780245
 10
341.3320446482
 20
206.7651670356
 10
341.4038959675
 20
206.7319132821
 10
341.4675751209
 20
206.6965419518
 10
341.5222812453
 20
206.6625527995
  0
LWPOLYLINE
  5
35C
100
AcDbEntity
  8
RUNDUNGEN
100
AcDbPolyline
 62
9
  6
CONTINUOUS
 90
11
 70
0
 10
334.2714770901
 20
213.3926802644
 10
334.2273852251
 20
213.4232188516
 10
334.1923066105
 20
213.4497519442
 10
334.1651009772
 20
213.4716275941
 10
334.1444094049
 20
213.48935191
 10
334.12869651
 20
213.5032092814
 10
334.1173514138
 20
213.5136239562
 10
334.109402407
 20
213.5209980041
 10
334.1043965986
 20
213.5257691881
 10
334.1014600954
 20
213.5283463582
 10
334.1008841951
 20
213.529122998
  0
LWPOLYLINE
  5
35D
100
AcDbEntity
  8
RUNDUNGEN
100
AcDbPolyline
 62
9
  6
CONTINUOUS
 90
11
 70
0
 10
337.2714770901
 20
213.3926802644
 10
337.2273852251
 20
213.4232188516
 10
337.1923066105
 20
213.4497519442
 10
337.1651009772
 20
213.4716275941
 10
337.1444094049
 20
213.48935191
 10
337.12869651
 20
213.5032092814
 10
337.1173514138
 20
213.5136239562
 10
337.109402407
 20
213.5209980041
 10
337.1043965986
 20
213.5257691881
 10
337.1014600954
 20
213.5283463582
 10
337.1008841951
 20
213.529122998
  0
LWPOLYLINE
  5
35E
100
AcDbEntity
  8
RUNDUNGEN
100
AcDbPolyline
 62
9
  6
CONTINUOUS
 90
11
 70
0
 10
340.2714770901
 20
213.3926802644
 10
340.2273852251
 20
213.4232188516
 10
340.1923066105
 20
213.4497519442
 10
340.1651009772
 20
213.4716275941
 10
340.1444094049
 20
213.48935191
 10
340.12869651
 20
213.5032092814
 10
340.1173514138
 20
213.5136239562
 10
340.109402407
 20
213.5209980041
 10
340.1043965986
 20
213.5257691881
 10
340.1014600954
 20
213.5283463582
 10
340.1008841951
 20
213.529122998
  0
LINE
  5
35F
100
AcDbEntity
  8
RUNDUNGEN
100
AcDbLine
 62
9
  6
CONTINUOUS
 10
332.3946095884
 20
207.841622998
 11
332.3946095884
 21
212.216622998
  0
LINE
  5
360
100
AcDbEntity
  8
RUNDUNGEN
100
AcDbLine
 62
7
  6
CONTINUOUS
 10
332.8946095884
 20
212.529122998
 11
332.8946095884
 21
207.529122998
  0
LINE
  5
361
100
AcDbEntity
  8
RUNDUNGEN
100
AcDbLine
 62
9
  6
CONTINUOUS
 10
333.8946095884
 20
213.529122998
 11
333.8946095884
 21
206.529122998
  0
LWPOLYLINE
  5
362
100
AcDbEntity
  8
RUNDUNGEN
100
AcDbPolyline
 62
9
  6
CONTINUOUS
 90
4
 70
0
 10
332.3946095884
 20
212.216622998
 10
332.3993389661
 20
212.3128612827
 10
332.409668584
 20
212.4021352285
 10
332.4259013018
 20
212.4840647953
  0
LWPOLYLINE
  5
363
100
AcDbEntity
  8
RUNDUNGEN
100
AcDbPolyline
 62
9
  6
CONTINUOUS
 90
11
 70
0
 10
332.8946095884
 20
212.529122998
 10
332.8884536429
 20
212.4802372026
 10
332.8701374531
 20
212.4325551975
 10
332.840112129
 20
212.3872510986
 10
332.7991170757
 20
212.3454404082
 10
332.7481617938
 20
212.3081526083
 10
332.6885010045
 20
212.2763058079
 10
332.6216037668
 20
212.2506841334
 10
332.5491172934
 20
212.2319184423
 10
332.4728263885
 20
212.2204707781
 10
332.3946095884
 20
212.216622998
  0
LWPOLYLINE
  5
364
100
AcDbEntity
  8
RUNDUNGEN
100
AcDbPolyline
 62
9
  6
CONTINUOUS
 90
26
 70
0
 10
332.4259013018
 20
212.4840647953
 10
332.447128541
 20
212.5608868004
 10
332.4725223462
 20
212.6343026365
 10
332.5021437082
 20
212.7046177528
 10
332.5359478576
 20
212.7727841779
 10
332.573424119
 20
212.8381001809
 10
332.6142568642
 20
212.9003851524
 10
332.6578161817
 20
212.9592613806
 10
332.7034523985
 20
213.0143444042
 10
332.7509091713
 20
213.065846115
 10
332.7993735567
 20
213.1134772981
 10
332.8498656817
 20
213.1584214466
 10
332.9027905242
 20
213.2012914731
 10
332.9591805875
 20
213.2426412077
 10
333.0204113822
 20
213.2831709704
 10
333.0858588639
 20
213.3220088851
 10
333.1556579537
 20
213.3587929445
 10
333.2289072659
 20
213.3927871836
 10
333.3050405103
 20
213.4234835733
 10
333.3831873213
 20
213.4504807366
 10
333.4619462514
 20
213.4733410082
 10
333.5423442553
 20
213.4924165558
 10
333.6244333435
 20
213.5076576262
 10
333.7097369008
 20
213.5191162912
 10
333.7999882393
 20
213.5265148302
 10
333.8946073685
 20
213.529122998
  0
LWPOLYLINE
  5
365
100
AcDbEntity
  8
RUNDUNGEN
100
AcDbPolyline
 62
9
  6
CONTINUOUS
 90
7
 70
0
 10
337.1008841951
 20
206.529122998
 10
337.1066176389
 20
206.5341056408
 10
337.1208147625
 20
206.5478101237
 10
337.1437920984
 20
206.5684386238
 10
337.1746000491
 20
206.5943327785
 10
337.2125409226
 20
206.6240235649
 10
337.2571755348
 20
206.6559703766
  0
LWPOLYLINE
  5
366
100
AcDbEntity
  8
RUNDUNGEN
100
AcDbPolyline
 62
9
  6
CONTINUOUS
 90
7
 70
0
 10
340.1008841951
 20
206.529122998
 10
340.1066176389
 20
206.5341056408
 10
340.1208147625
 20
206.5478101237
 10
340.1437920984
 20
206.5684386238
 10
340.1746000491
 20
206.5943327785
 10
340.2125409226
 20
206.6240235649
 10
340.2571755348
 20
206.6559703766
  0
LWPOLYLINE
  5
367
100
AcDbEntity
  8
RUNDUNGEN
100
AcDbPolyline
 62
9
  6
CONTINUOUS
 90
5
 70
0
 10
332.4583566956
 20
207.4630630168
 10
332.433627281
 20
207.5432609471
 10
332.4139040605
 20
207.6317859662
 10
332.4011120541
 20
207.7312671277
 10
332.3946095884
 20
207.841622998
  0
LWPOLYLINE
  5
368
100
AcDbEntity
  8
RUNDUNGEN
100
AcDbPolyline
 62
9
  6
CONTINUOUS
 90
11
 70
0
 10
332.8946095884
 20
207.529122998
 10
332.8884537364
 20
207.5780088566
 10
332.8701377698
 20
207.6256909564
 10
332.8401127077
 20
207.6709952044
 10
332.7991178823
 20
207.7128060642
 10
332.7481627361
 20
207.7500940189
 10
332.6885019614
 20
207.7819409237
 10
332.6216046088
 20
207.8075626099
 10
332.5491179112
 20
207.8263281947
 10
332.4728267238
 20
207.837775614
 10
332.3946095884
 20
207.8416229979
  0
LWPOLYLINE
  5
369
100
AcDbEntity
  8
0
100
AcDbPolyline
 62
7
  6
CONTINUOUS
 90
7
 70
0
 10
347.2949948828
 20
211.8819446958
 10
347.226819488
 20
211.7366525613
 10
347.172521263
 20
211.5920491019
 10
347.1315520027
 20
211.4493074316
 10
347.1031075044
 20
211.3079494091
 10
347.086077463
 20
211.1678770433
 10
347.0808319804
 20
211.029122998
  0
LWPOLYLINE
  5
36A
100
AcDbEntity
  8
0
100
AcDbPolyline
 62
7
  6
CONTINUOUS
 90
7
 70
0
 10
347.2947134389
 20
208.1768445411
 10
347.2266226147
 20
208.3220576214
 10
347.1723990755
 20
208.4665672286
 10
347.1314850556
 20
208.6092115752
 10
347.1030794033
 20
208.750471965
 10
347.0860716607
 20
208.8904541944
 10
347.0808319804
 20
209.029122998
  0
LINE
  5
36B
100
AcDbEntity
  8
0
100
AcDbLine
 62
7
  6
CONTINUOUS
 10
347.0808319804
 20
209.029122998
 11
347.0808319804
 21
211.029122998
  0
LINE
  5
36C
100
AcDbEntity
  8
0
100
AcDbLine
 62
7
  6
CONTINUOUS
 10
348.7946095884
 20
206.8937073476
 11
348.7946095884
 21
213.1645386484
  0
LINE
  5
36D
100
AcDbEntity
  8
0
100
AcDbLine
 62
7
  6
CONTINUOUS
 10
349.7946095884
 20
206.8937073476
 11
349.7946095884
 21
213.1645386484
  0
LINE
  5
36E
100
AcDbEntity
  8
0
100
AcDbLine
 62
7
  6
CONTINUOUS
 10
350.0808319804
 20
211.029122998
 11
350.0808319804
 21
209.029122998
  0
LWPOLYLINE
  5
36F
100
AcDbEntity
  8
0
100
AcDbPolyline
 62
7
  6
CONTINUOUS
 90
6
 70
0
 10
349.97191192
 20
208.2239111105
 10
350.0115699743
 20
208.3839072296
 10
350.0420997733
 20
208.5446177358
 10
350.0636719724
 20
208.7058921994
 10
350.0766197252
 20
208.8673518701
 10
350.0808319804
 20
209.029122998
  0
LWPOLYLINE
  5
370
100
AcDbEntity
  8
0
100
AcDbPolyline
 62
7
  6
CONTINUOUS
 90
4
 70
0
 10
349.7946095884
 20
207.7533879158
 10
349.8635942248
 20
207.9084231327
 10
349.9227491679
 20
208.0651880907
 10
349.97191192
 20
208.2239111105
  0
LWPOLYLINE
  5
371
100
AcDbEntity
  8
0
100
AcDbPolyline
 62
7
  6
CONTINUOUS
 90
4
 70
0
 10
349.7946095884
 20
212.3048580802
 10
349.8635942248
 20
212.1498228632
 10
349.9227491679
 20
211.9930579052
 10
349.97191192
 20
211.8343348855
  0
LWPOLYLINE
  5
372
100
AcDbEntity
  8
0
100
AcDbPolyline
 62
7
  6
CONTINUOUS
 90
6
 70
0
 10
349.97191192
 20
211.8343348855
 10
350.0115699743
 20
211.6743387664
 10
350.0420997733
 20
211.5136282602
 10
350.0636719724
 20
211.3523537965
 10
350.0766197252
 20
211.1908941258
 10
350.0808319804
 20
211.029122998
  0
LINE
  5
373
100
AcDbEntity
  8
RUNDUNGEN
100
AcDbLine
 62
9
  6
CONTINUOUS
 10
363.3946095884
 20
206.529122998
 11
363.3946095884
 21
213.529122998
  0
LINE
  5
374
100
AcDbEntity
  8
RUNDUNGEN
100
AcDbLine
 62
7
  6
CONTINUOUS
 10
364.3946095884
 20
212.529122998
 11
364.3946095884
 21
207.529122998
  0
LINE
  5
375
100
AcDbEntity
  8
0
100
AcDbLine
 62
7
  6
CONTINUOUS
 10
371.0446095884
 20
211.239122998
 11
371.0446095884
 21
208.819122998
  0
LINE
  5
376
100
AcDbEntity
  8
0
100
AcDbLine
 62
7
  6
CONTINUOUS
 10
81.0855913013
 20
160.5346373297
 11
81.0855913013
 21
152.3168831679
  0
LINE
  5
377
100
AcDbEntity
  8
RUNDUNGEN
100
AcDbLine
 62
7
  6
CONTINUOUS
 10
88.2855913013
 20
150.1757602488
 11
88.2855913013
 21
162.6757602488
  0
LINE
  5
378
100
AcDbEntity
  8
RUNDUNGEN
100
AcDbLine
 62
9
  6
CONTINUOUS
 10
89.2855913013
 20
149.1757602488
 11
89.2855913013
 21
163.6757602488
  0
LINE
  5
379
100
AcDbEntity
  8
0
100
AcDbLine
 62
7
  6
CONTINUOUS
 10
90.5855913009
 20
159.4626832878
 11
90.5855913009
 21
159.7257602488
  0
LWPOLYLINE
  5
37A
100
AcDbEntity
  8
0
100
AcDbPolyline
 62
7
  6
CONTINUOUS
 90
6
 70
0
 10
93.1043325811
 20
159.2537322317
 10
93.1080564852
 20
159.2179568312
 10
93.1108466095
 20
159.1812969087
 10
93.1125946326
 20
159.1437469555
 10
93.1136255189
 20
159.105323498
 10
93.1142642325
 20
159.0660430628
  0
LWPOLYLINE
  5
37B
100
AcDbEntity
  8
0
100
AcDbPolyline
 62
7
  6
CONTINUOUS
 90
7
 70
0
 10
93.412724176
 20
159.0472986971
 10
93.4125253148
 20
159.0829789336
 10
93.4117803745
 20
159.1181635419
 10
93.4105321999
 20
159.1528658634
 10
93.4086522565
 20
159.187045874
 10
93.40601201
 20
159.2206635496
 10
93.4026543051
 20
159.2537322317
  0
LINE
  5
37C
100
AcDbEntity
  8
0
100
AcDbLine
 62
7
  6
CONTINUOUS
 10
90.9883885294
 20
157.9257602488
 11
90.9883885294
 21
159.4626832878
  0
LINE
  5
37D
100
AcDbEntity
  8
0
100
AcDbLine
 62
7
  6
CONTINUOUS
 10
91.3181787341
 20
159.4626832878
 11
91.3181787341
 21
157.9257602488
  0
LINE
  5
37E
100
AcDbEntity
  8
0
100
AcDbLine
 62
7
  6
CONTINUOUS
 10
91.7171996504
 20
159.7257602488
 11
91.7171996504
 21
159.4626832878
  0
LINE
  5
37F
100
AcDbEntity
  8
0
100
AcDbLine
 62
7
  6
CONTINUOUS
 10
93.1144024521
 20
157.3693966066
 11
93.1142642325
 21
159.0660430628
  0
LINE
  5
380
100
AcDbEntity
  8
0
100
AcDbLine
 62
7
  6
CONTINUOUS
 10
93.4341228395
 20
158.1170889233
 11
93.4341228395
 21
157.3693966066
  0
LINE
  5
381
100
AcDbEntity
  8
0
100
AcDbLine
 62
7
  6
CONTINUOUS
 10
93.9212555557
 20
158.5777882015
 11
93.9210391807
 21
158.550345179
  0
LWPOLYLINE
  5
382
100
AcDbEntity
  8
0
100
AcDbPolyline
 62
7
  6
CONTINUOUS
 90
7
 70
0
 10
93.4341228395
 20
158.5853406583
 10
93.4353758699
 20
158.6475251975
 10
93.4399013795
 20
158.7070175471
 10
93.4475396581
 20
158.7640010906
 10
93.4587698362
 20
158.8179256779
 10
93.4740710445
 20
158.8682411588
 10
93.4932835728
 20
158.9151309167
  0
LWPOLYLINE
  5
383
100
AcDbEntity
  8
0
100
AcDbPolyline
 62
7
  6
CONTINUOUS
 90
17
 70
0
 10
93.9210391428
 20
158.5503403763
 10
93.9202395698
 20
158.5228861691
 10
93.9188921488
 20
158.4954106688
 10
93.9168909438
 20
158.4679586087
 10
93.9141825769
 20
158.4405450521
 10
93.9106446863
 20
158.4132440984
 10
93.9062040434
 20
158.3861585483
 10
93.9006598703
 20
158.35921736
 10
93.893950339
 20
158.3324286319
 10
93.8855853706
 20
158.3056577442
 10
93.875333284
 20
158.2786323319
 10
93.862357057
 20
158.2517737294
 10
93.8462004565
 20
158.2249751397
 10
93.8254894342
 20
158.1995485927
 10
93.7986652184
 20
158.1758866006
 10
93.7658257463
 20
158.1566409191
 10
93.7264966576
 20
158.1449419654
  0
LINE
  5
384
100
AcDbEntity
  8
0
100
AcDbLine
 62
7
  6
CONTINUOUS
 10
91.884612301
 20
157.387018988
 11
91.9022346288
 21
157.6324735408
  0
LINE
  5
385
100
AcDbEntity
  8
0
100
AcDbLine
 62
7
  6
CONTINUOUS
 10
89.8397081747
 20
154.6707602488
 11
89.5855913013
 21
153.3807602488
  0
LINE
  5
386
100
AcDbEntity
  8
0
100
AcDbLine
 62
7
  6
CONTINUOUS
 10
90.5795913013
 20
153.3807602488
 11
90.7294417354
 21
154.1414616431
  0
LINE
  5
387
100
AcDbEntity
  8
0
100
AcDbLine
 62
7
  6
CONTINUOUS
 10
92.1378857002
 20
154.6707602488
 11
91.9925072098
 21
153.9327602488
  0
LINE
  5
388
100
AcDbEntity
  8
0
100
AcDbLine
 62
7
  6
CONTINUOUS
 10
92.9057688267
 20
153.3807602488
 11
93.1598857002
 21
154.6707602488
  0
LINE
  5
389
100
AcDbEntity
  8
0
100
AcDbLine
 62
7
  6
CONTINUOUS
 10
92.2018150597
 20
157.7998861243
 11
92.2244724303
 21
157.9131728363
  0
LINE
  5
38A
100
AcDbEntity
  8
0
100
AcDbLine
 62
7
  6
CONTINUOUS
 10
92.3868500381
 20
158.2505154913
 11
92.642374435
 21
159.2537322317
  0
LINE
  5
38B
100
AcDbEntity
  8
0
100
AcDbLine
 62
7
  6
CONTINUOUS
 10
92.9520249515
 20
159.2537322317
 11
92.4674094349
 21
157.672753266
  0
LWPOLYLINE
  5
38C
100
AcDbEntity
  8
0
100
AcDbPolyline
 62
7
  6
CONTINUOUS
 90
7
 70
0
 10
92.2018150597
 20
157.7998861243
 10
92.1927269993
 20
157.7711226696
 10
92.1827855147
 20
157.7437553507
 10
92.1721287462
 20
157.7176520096
 10
92.1603422735
 20
157.6932091208
 10
92.1470116761
 20
157.6708231587
 10
92.1322750941
 20
157.6503619653
  0
LINE
  5
38D
100
AcDbEntity
  8
0
100
AcDbLine
 62
7
  6
CONTINUOUS
 10
92.1137032061
 20
159.2537322317
 11
92.3818149954
 21
158.2505154913
  0
LINE
  5
38E
100
AcDbEntity
  8
0
100
AcDbLine
 62
7
  6
CONTINUOUS
 10
95.4531438738
 20
158.2429630344
 11
95.4682487875
 21
157.9899560516
  0
LWPOLYLINE
  5
38F
100
AcDbEntity
  8
0
100
AcDbPolyline
 62
7
  6
CONTINUOUS
 90
7
 70
0
 10
94.4574795633
 20
158.5702357983
 10
94.4593773968
 20
158.507693644
 10
94.4649008782
 20
158.4476589994
 10
94.4741030391
 20
158.3901274803
 10
94.4868247849
 20
158.335112239
 10
94.5029070213
 20
158.2826264278
 10
94.5224027797
 20
158.2326656625
  0
LWPOLYLINE
  5
390
100
AcDbEntity
  8
0
100
AcDbPolyline
 62
7
  6
CONTINUOUS
 90
7
 70
0
 10
96.4261505991
 20
158.8257602488
 10
96.4276907483
 20
158.7588401016
 10
96.4321835753
 20
158.6940371766
 10
96.4396705699
 20
158.6312920179
 10
96.4500272623
 20
158.570782993
 10
96.4631291824
 20
158.5126884699
 10
96.4790178202
 20
158.4569489925
  0
LWPOLYLINE
  5
391
100
AcDbEntity
  8
0
100
AcDbPolyline
 62
7
  6
CONTINUOUS
 90
7
 70
0
 10
94.2409759432
 20
158.5903756474
 10
94.2401972217
 20
158.6350149769
 10
94.2378862696
 20
158.6793855462
 10
94.2340453757
 20
158.7234541652
 10
94.2286676736
 20
158.7673204042
 10
94.2217462972
 20
158.8110838335
 10
94.2132835353
 20
158.854711263
  0
LWPOLYLINE
  5
392
100
AcDbEntity
  8
0
100
AcDbPolyline
 62
7
  6
CONTINUOUS
 90
7
 70
0
 10
95.5349619776
 20
158.5639420484
 10
95.5339915626
 20
158.6247423727
 10
95.5307106707
 20
158.6837073877
 10
95.5251962791
 20
158.7409146068
 10
95.5172174563
 20
158.7961314905
 10
95.506543271
 20
158.8491254994
 10
95.4932507004
 20
158.8999741468
  0
LINE
  5
393
100
AcDbEntity
  8
0
100
AcDbLine
 62
7
  6
CONTINUOUS
 10
95.5349619776
 20
158.5639420484
 11
95.5349619776
 21
158.5022637402
  0
LWPOLYLINE
  5
394
100
AcDbEntity
  8
0
100
AcDbPolyline
 62
7
  6
CONTINUOUS
 90
7
 70
0
 10
96.7773397356
 20
158.8257602488
 10
96.7789146277
 20
158.8948054101
 10
96.7842133845
 20
158.9609204171
 10
96.793148139
 20
159.0242781584
 10
96.8059824917
 20
159.0843599681
 10
96.8229800429
 20
159.1406471805
 10
96.8440529257
 20
159.1933126842
  0
LWPOLYLINE
  5
395
100
AcDbEntity
  8
0
100
AcDbPolyline
 62
7
  6
CONTINUOUS
 90
7
 70
0
 10
94.7671296507
 20
158.7036623393
 10
94.7687257548
 20
158.7510199714
 10
94.7736783328
 20
158.7961466899
 10
94.7820180569
 20
158.8391430507
 10
94.7936529102
 20
158.8797073864
 10
94.8084908758
 20
158.9175380296
 10
94.8265626261
 20
158.9527355362
  0
LINE
  5
396
100
AcDbEntity
  8
0
100
AcDbLine
 62
7
  6
CONTINUOUS
 10
97.6433533579
 20
159.6766693865
 11
97.6257310301
 21
159.3796063696
  0
LWPOLYLINE
  5
397
100
AcDbEntity
  8
0
100
AcDbPolyline
 62
7
  6
CONTINUOUS
 90
19
 70
0
 10
96.2475913013
 20
153.9827602488
 10
96.2348176918
 20
153.8906191556
 10
96.2316215493
 20
153.809938965
 10
96.2371639364
 20
153.7426822192
 10
96.2539616655
 20
153.6829612914
 10
96.284087077
 20
153.6238908536
 10
96.32803465
 20
153.5704265516
 10
96.3891048601
 20
153.5253331998
 10
96.4609520583
 20
153.4882979644
 10
96.5372125578
 20
153.4610554995
 10
96.6212409483
 20
153.4402281568
 10
96.715729277
 20
153.4228943314
 10
96.8163014842
 20
153.4094205468
 10
96.9186318414
 20
153.3994526021
 10
97.025261401
 20
153.392231065
 10
97.1373472374
 20
153.3869032015
 10
97.2547155553
 20
153.383394715
 10
97.3776047381
 20
153.3813022465
 10
97.5059353246
 20
153.3807602488
  0
LINE
  5
398
100
AcDbEntity
  8
0
100
AcDbLine
 62
7
  6
CONTINUOUS
 10
93.6355913013
 20
154.6707602488
 11
93.4099353246
 21
153.3807602488
  0
LINE
  5
399
100
AcDbEntity
  8
0
100
AcDbLine
 62
7
  6
CONTINUOUS
 10
94.3108655733
 20
153.717644837
 11
94.3407766304
 21
153.8886363802
  0
LINE
  5
39A
100
AcDbEntity
  8
0
100
AcDbLine
 62
7
  6
CONTINUOUS
 10
94.3969499084
 20
154.2097602859
 11
94.424174994
 21
154.3653970255
  0
LINE
  5
39B
100
AcDbEntity
  8
0
100
AcDbLine
 62
7
  6
CONTINUOUS
 10
95.5207766304
 20
153.8886363802
 11
95.5769499084
 21
154.2097602859
  0
LINE
  5
39C
100
AcDbEntity
  8
0
100
AcDbLine
 62
7
  6
CONTINUOUS
 10
95.880174994
 20
154.3653970255
 11
95.9335913013
 21
154.6707602488
  0
LINE
  5
39D
100
AcDbEntity
  8
0
100
AcDbLine
 62
7
  6
CONTINUOUS
 10
95.7799353246
 20
153.3807602488
 11
95.8388655733
 21
153.717644837
  0
LINE
  5
39E
100
AcDbEntity
  8
0
100
AcDbLine
 62
7
  6
CONTINUOUS
 10
96.3755913013
 20
154.6707602488
 11
96.2475913013
 21
153.9827602488
  0
LWPOLYLINE
  5
39F
100
AcDbEntity
  8
0
100
AcDbPolyline
 62
7
  6
CONTINUOUS
 90
7
 70
0
 10
96.4779401559
 20
159.1932556261
 10
96.4621260309
 20
159.1377949187
 10
96.4491727333
 20
159.07994175
 10
96.4390688391
 20
159.0196238835
 10
96.43184862
 20
158.957058029
 10
96.427546348
 20
158.8924608963
 10
96.4261505991
 20
158.8257602488
  0
LWPOLYLINE
  5
3A0
100
AcDbEntity
  8
0
100
AcDbPolyline
 62
7
  6
CONTINUOUS
 90
7
 70
0
 10
94.1855913024
 20
158.2203056241
 10
94.2029014008
 20
158.27523741
 10
94.2169257552
 20
158.3329796439
 10
94.2276137278
 20
158.3936371639
 10
94.2351172326
 20
158.4568954555
 10
94.2395881838
 20
158.5224400039
 10
94.2409759432
 20
158.5903756474
  0
LWPOLYLINE
  5
3A1
100
AcDbEntity
  8
0
100
AcDbPolyline
 62
7
  6
CONTINUOUS
 90
7
 70
0
 10
94.5236574326
 20
158.9292021644
 10
94.5037964598
 20
158.8765774596
 10
94.4873992264
 20
158.8209750686
 10
94.4744012399
 20
158.7623045439
 10
94.4649959775
 20
158.7008372276
 10
94.4593769161
 20
158.6368444615
 10
94.4574795633
 20
158.5702357983
  0
LWPOLYLINE
  5
3A2
100
AcDbEntity
  8
0
100
AcDbPolyline
 62
7
  6
CONTINUOUS
 90
7
 70
0
 10
93.4932835728
 20
158.9151309167
 10
93.5152103025
 20
158.9530565527
 10
93.5413760556
 20
158.984204046
 10
93.5719407183
 20
159.0086525434
 10
93.6064246313
 20
159.0261646042
 10
93.6443481347
 20
159.0365027875
 10
93.6858711153
 20
159.0397462403
  0
LWPOLYLINE
  5
3A3
100
AcDbEntity
  8
0
100
AcDbPolyline
 62
7
  6
CONTINUOUS
 90
7
 70
0
 10
93.4391576677
 20
158.1170889233
 10
93.4473067739
 20
158.0993397717
 10
93.4568610645
 20
158.0817931602
 10
93.4678668888
 20
158.0644340876
 10
93.4801851995
 20
158.0473075578
 10
93.4936769493
 20
158.0304585746
 10
93.5083884873
 20
158.0138721367
  0
LWPOLYLINE
  5
3A4
100
AcDbEntity
  8
0
100
AcDbPolyline
 62
7
  6
CONTINUOUS
 90
7
 70
0
 10
93.4945422798
 20
158.259326682
 10
93.4749958212
 20
158.3054771143
 10
93.459400286
 20
158.3551039697
 10
93.4479059578
 20
158.4083969332
 10
93.4400619855
 20
158.4647869493
 10
93.4354175182
 20
158.5237049627
 10
93.4341228395
 20
158.5853406583
  0
LWPOLYLINE
  5
3A5
100
AcDbEntity
  8
0
100
AcDbPolyline
 62
7
  6
CONTINUOUS
 90
7
 70
0
 10
93.8703844926
 20
158.928740999
 10
93.8880173762
 20
158.8789366476
 10
93.9016311265
 20
158.8254789793
 10
93.9108906958
 20
158.7682009275
 10
93.916801227
 20
158.7076036919
 10
93.9203678628
 20
158.644188472
 10
93.9212555557
 20
158.5777882015
  0
LINE
  5
3A6
100
AcDbEntity
  8
0
100
AcDbLine
 62
7
  6
CONTINUOUS
 10
92.2244724303
 20
157.9131728363
 11
91.7839129477
 21
159.2537322317
  0
LWPOLYLINE
  5
3A7
100
AcDbEntity
  8
0
100
AcDbPolyline
 62
7
  6
CONTINUOUS
 90
7
 70
0
 10
94.2132835353
 20
158.854711263
 10
94.2034741776
 20
158.8955161364
 10
94.1919201023
 20
158.9346097438
 10
94.1785781025
 20
158.9720007893
 10
94.1635777986
 20
159.0076631608
 10
94.147048811
 20
159.0415707459
 10
94.1289479331
 20
159.0737322488
  0
LINE
  5
3A8
100
AcDbEntity
  8
0
100
AcDbLine
 62
7
  6
CONTINUOUS
 10
97.6257310301
 20
158.2656203781
 11
97.6433533579
 21
157.9647812267
  0
LINE
  5
3A9
100
AcDbEntity
  8
0
100
AcDbLine
 62
7
  6
CONTINUOUS
 10
98.9575913013
 20
153.9827602488
 11
99.0855913013
 21
154.6707602488
  0
LINE
  5
3AA
100
AcDbEntity
  8
0
100
AcDbLine
 62
7
  6
CONTINUOUS
 10
97.0908014568
 20
154.0677249143
 11
97.2035913013
 21
154.6707602488
  0
LINE
  5
3AB
100
AcDbEntity
  8
0
100
AcDbLine
 62
7
  6
CONTINUOUS
 10
98.2595913013
 20
154.6707602488
 11
98.1514665597
 21
154.0926670702
  0
LWPOLYLINE
  5
3AC
100
AcDbEntity
  8
0
100
AcDbPolyline
 62
7
  6
CONTINUOUS
 90
15
 70
0
 10
98.1514665597
 20
154.0926670702
 10
98.1383261134
 20
154.0255132713
 10
98.1230440818
 20
153.9627355486
 10
98.1061585696
 20
153.9041237381
 10
98.0860552627
 20
153.8503083323
 10
98.0620770835
 20
153.8016174577
 10
98.0318904278
 20
153.7587480489
 10
97.9922655886
 20
153.7221975927
 10
97.9452337971
 20
153.6928925589
 10
97.8915039905
 20
153.6728603721
 10
97.8318133439
 20
153.6592956553
 10
97.7666703089
 20
153.6503517135
 10
97.697469994
 20
153.645179925
 10
97.6259725655
 20
153.6421330802
 10
97.5515913013
 20
153.6417602488
  0
LINE
  5
3AD
100
AcDbEntity
  8
0
100
AcDbLine
 62
7
  6
CONTINUOUS
 10
99.3435913013
 20
154.6707602488
 11
99.2835913013
 21
154.3677602488
  0
LWPOLYLINE
  5
3AE
100
AcDbEntity
  8
0
100
AcDbPolyline
 62
7
  6
CONTINUOUS
 90
7
 70
0
 10
96.8440529257
 20
159.1933126842
 10
96.8679953325
 20
159.2402748864
 10
96.894531313
 20
159.282871759
 10
96.9237420851
 20
159.3211688333
 10
96.9553839951
 20
159.3549695151
 10
96.989213389
 20
159.3840772104
 10
97.0253114847
 20
159.4085574506
  0
LWPOLYLINE
  5
3AF
100
AcDbEntity
  8
0
100
AcDbPolyline
 62
7
  6
CONTINUOUS
 90
7
 70
0
 10
94.8265626261
 20
158.9527355362
 10
94.8481441056
 20
158.9846092389
 10
94.8730017189
 20
159.0107516749
 10
94.9012242471
 20
159.0312028489
 10
94.9325453469
 20
159.0458427466
 10
94.9666986751
 20
159.0545513538
 10
95.0037730127
 20
159.0573686754
  0
LINE
  5
3B0
100
AcDbEntity
  8
0
100
AcDbLine
 62
7
  6
CONTINUOUS
 10
93.5162259301
 20
158.2228809264
 11
93.4945422798
 21
158.259326682
  0
LWPOLYLINE
  5
3B1
100
AcDbEntity
  8
0
100
AcDbPolyline
 62
7
  6
CONTINUOUS
 90
7
 70
0
 10
94.5224027797
 20
158.2326656625
 10
94.546050387
 20
158.1843609953
 10
94.5737194625
 20
158.1395515977
 10
94.6052814677
 20
158.0983512062
 10
94.6411220186
 20
158.0604186113
 10
94.6816267314
 20
158.0254126037
 10
94.7266670674
 20
157.9934469197
  0
LWPOLYLINE
  5
3B2
100
AcDbEntity
  8
0
100
AcDbPolyline
 62
7
  6
CONTINUOUS
 90
7
 70
0
 10
96.8453116429
 20
158.4556902967
 10
96.823982865
 20
158.5087401353
 10
96.8067270372
 20
158.5654221199
 10
96.7936125027
 20
158.625905705
 10
96.7844342319
 20
158.6896825273
 10
96.7789871951
 20
158.7562442238
 10
96.7773397356
 20
158.8257602488
  0
LWPOLYLINE
  5
3B3
100
AcDbEntity
  8
0
100
AcDbPolyline
 62
7
  6
CONTINUOUS
 90
7
 70
0
 10
96.4790178202
 20
158.4569489925
 10
96.4988241237
 20
158.4004378845
 10
96.521280265
 20
158.3470140086
 10
96.5464279209
 20
158.2967457287
 10
96.5741420612
 20
158.2494279534
 10
96.6042976555
 20
158.2048555909
 10
96.6369363808
 20
158.1630970054
  0
LWPOLYLINE
  5
3B4
100
AcDbEntity
  8
0
100
AcDbPolyline
 62
7
  6
CONTINUOUS
 90
7
 70
0
 10
95.4932507004
 20
158.8999741468
 10
95.4793843908
 20
158.942803918
 10
95.4636555937
 20
158.9832644847
 10
95.4460897771
 20
159.0214868617
 10
95.4266105375
 20
159.0570780046
 10
95.4051414716
 20
159.0896448686
 10
95.3817080473
 20
159.1193184686
  0
LINE
  5
3B5
100
AcDbEntity
  8
0
100
AcDbLine
 62
7
  6
CONTINUOUS
 10
102.8855913013
 20
150.3757602488
 11
102.8855913013
 21
149.5257602488
  0
LINE
  5
3B6
100
AcDbEntity
  8
0
100
AcDbLine
 62
7
  6
CONTINUOUS
 10
102.8855913013
 20
162.4757602488
 11
102.8855913013
 21
163.3257602488
  0
LINE
  5
3B7
100
AcDbEntity
  8
BEZUGSACHSEN
100
AcDbLine
 62
7
  6
CONTINUOUS
 10
103.5855913013
 20
158.2111173559
 11
103.5855913013
 21
154.6404031417
  0
LINE
  5
3B8
100
AcDbEntity
  8
0
100
AcDbLine
 62
7
  6
CONTINUOUS
 10
101.8475913013
 20
154.6707602488
 11
101.6435913013
 21
153.3807602488
  0
LINE
  5
3B9
100
AcDbEntity
  8
0
100
AcDbLine
 62
7
  6
CONTINUOUS
 10
102.5655913013
 20
153.3807602488
 11
102.6449773478
 21
153.8827602488
  0
LINE
  5
3BA
100
AcDbEntity
  8
0
100
AcDbLine
 62
7
  6
CONTINUOUS
 10
102.6715913013
 20
154.0510543664
 11
102.7255913013
 21
154.3925249547
  0
LINE
  5
3BB
100
AcDbEntity
  8
0
100
AcDbLine
 62
7
  6
CONTINUOUS
 10
99.9755913013
 20
154.3677602488
 11
99.7801457567
 21
153.3807602488
  0
LINE
  5
3BC
100
AcDbEntity
  8
0
100
AcDbLine
 62
7
  6
CONTINUOUS
 10
100.6201457567
 20
153.3807602488
 11
100.8155913013
 21
154.3677602488
  0
LINE
  5
3BD
100
AcDbEntity
  8
0
100
AcDbLine
 62
7
  6
CONTINUOUS
 10
101.5075913013
 20
154.3677602488
 11
101.5675913013
 21
154.6707602488
  0
LWPOLYLINE
  5
3BE
100
AcDbEntity
  8
0
100
AcDbPolyline
 62
7
  6
CONTINUOUS
 90
7
 70
0
 10
96.6366703145
 20
159.4876022465
 10
96.6035187741
 20
159.4449789097
 10
96.5730268395
 20
159.3998712618
 10
96.5451766984
 20
159.3523631737
 10
96.5200217876
 20
159.3022030327
 10
96.4976155442
 20
159.2491392266
 10
96.4779401559
 20
159.1932556261
  0
LWPOLYLINE
  5
3BF
100
AcDbEntity
  8
0
100
AcDbPolyline
 62
7
  6
CONTINUOUS
 90
7
 70
0
 10
92.3314654511
 20
157.4386273449
 10
92.3601451164
 20
157.4683832916
 10
92.3864961196
 20
157.5019995047
 10
92.4105937153
 20
157.5396205939
 10
92.4322121394
 20
157.5808127301
 10
92.4511256277
 20
157.6251420842
 10
92.4674094349
 20
157.672753266
  0
LWPOLYLINE
  5
3C0
100
AcDbEntity
  8
0
100
AcDbPolyline
 62
7
  6
CONTINUOUS
 90
7
 70
0
 10
92.1322750941
 20
157.6503619653
 10
92.1187024443
 20
157.6368037953
 10
92.1032958249
 20
157.6257091837
 10
92.0859925552
 20
157.6170735274
 10
92.0669806768
 20
157.6109106355
 10
92.0464482313
 20
157.6072343169
 10
92.0243325382
 20
157.6060399686
  0
LINE
  5
3C1
100
AcDbEntity
  8
0
100
AcDbLine
 62
7
  6
CONTINUOUS
 10
91.9925072098
 20
153.9327602488
 11
91.1037081747
 21
154.6707602488
  0
LINE
  5
3C2
100
AcDbEntity
  8
0
100
AcDbLine
 62
7
  6
CONTINUOUS
 10
93.5418150754
 20
158.1929740826
 11
93.5162259301
 21
158.2228809264
  0
LWPOLYLINE
  5
3C3
100
AcDbEntity
  8
0
100
AcDbPolyline
 62
7
  6
CONTINUOUS
 90
7
 70
0
 10
94.8464304574
 20
158.2316344763
 10
94.8216494737
 20
158.2658948037
 10
94.80153382
 20
158.3048639328
 10
94.7861206745
 20
158.3488896591
 10
94.7752985022
 20
158.3969285963
 10
94.7689557682
 20
158.4479373582
 10
94.7671296507
 20
158.5022637402
  0
LWPOLYLINE
  5
3C4
100
AcDbEntity
  8
0
100
AcDbPolyline
 62
7
  6
CONTINUOUS
 90
7
 70
0
 10
94.1289479331
 20
159.0737322488
 10
94.1087519163
 20
159.1044805179
 10
94.086967446
 20
159.132672714
 10
94.0635894719
 20
159.1582559773
 10
94.0386331452
 20
159.1813888867
 10
94.012113617
 20
159.202230021
 10
93.984025837
 20
159.2207265206
  0
LINE
  5
3C5
100
AcDbEntity
  8
0
100
AcDbLine
 62
7
  6
CONTINUOUS
 10
104.4640425808
 20
154.3134434029
 11
104.4675913013
 21
154.2687602488
  0
LWPOLYLINE
  5
3C6
100
AcDbEntity
  8
0
100
AcDbPolyline
 62
7
  6
CONTINUOUS
 90
19
 70
0
 10
104.4675913013
 20
154.2687602488
 10
104.4631130687
 20
154.2183857335
 10
104.4511092057
 20
154.1737646244
 10
104.4315185932
 20
154.1352958468
 10
104.4045245889
 20
154.1017826252
 10
104.370203466
 20
154.0721737143
 10
104.3288153601
 20
154.0464314485
 10
104.2795345098
 20
154.024084988
 10
104.2256948792
 20
154.0053826103
 10
104.171270766
 20
153.9908565912
 10
104.1135154075
 20
153.9791840962
 10
104.0502855335
 20
153.969135451
 10
103.9837449635
 20
153.9609634504
 10
103.9157577269
 20
153.954614349
 10
103.8450799245
 20
153.949778093
 10
103.7710279774
 20
153.9461388144
 10
103.6937849537
 20
153.9436602102
 10
103.6133004627
 20
153.9421829893
 10
103.5295913013
 20
153.9417602488
  0
LINE
  5
3C7
100
AcDbEntity
  8
0
100
AcDbLine
 62
7
  6
CONTINUOUS
 10
105.0395913013
 20
154.6707602488
 11
104.8035913013
 21
153.3807602488
  0
LINE
  5
3C8
100
AcDbEntity
  8
0
100
AcDbLine
 62
7
  6
CONTINUOUS
 10
105.7855913013
 20
153.3807602488
 11
106.0215913013
 21
154.6707602488
  0
LINE
  5
3C9
100
AcDbEntity
  8
0
100
AcDbLine
 62
7
  6
CONTINUOUS
 10
106.5195913013
 20
154.6707602488
 11
106.2475913013
 21
153.3807602488
  0
LWPOLYLINE
  5
3CA
100
AcDbEntity
  8
0
100
AcDbPolyline
 62
7
  6
CONTINUOUS
 90
21
 70
0
 10
103.4915913013
 20
154.2217896606
 10
103.4834972881
 20
154.1922225616
 10
103.4692460928
 20
154.1661221098
 10
103.4482735106
 20
154.1433949253
 10
103.422272156
 20
154.1243211475
 10
103.3926934582
 20
154.1095704309
 10
103.3596967679
 20
154.0978808498
 10
103.3238830985
 20
154.0882958754
 10
103.2853788904
 20
154.0805689709
 10
103.244284472
 20
154.0741705237
 10
103.2012791919
 20
154.0689932329
 10
103.1573484784
 20
154.0648135493
 10
103.1116744208
 20
154.0614506047
 10
103.0636362148
 20
154.0586544106
 10
103.0136279691
 20
154.0564087795
 10
102.9619321893
 20
154.0546305419
 10
102.9082628799
 20
154.0532706548
 10
102.8524375231
 20
154.0522595906
 10
102.7944281911
 20
154.0515756336
 10
102.7341350213
 20
154.0511682808
 10
102.6715913013
 20
154.0510543664
  0
LWPOLYLINE
  5
3CB
100
AcDbEntity
  8
0
100
AcDbPolyline
 62
7
  6
CONTINUOUS
 90
7
 70
0
 10
94.0269899525
 20
157.9861798288
 10
94.059762416
 20
158.0146712166
 10
94.0901063305
 20
158.0474871836
 10
94.1181220208
 20
158.0847334308
 10
94.1435085126
 20
158.1260928548
 10
94.1659648316
 20
158.1712483522
 10
94.1855913024
 20
158.2203056241
  0
LWPOLYLINE
  5
3CC
100
AcDbEntity
  8
0
100
AcDbPolyline
 62
7
  6
CONTINUOUS
 90
7
 70
0
 10
93.5489729687
 20
159.2105377634
 10
93.522486029
 20
159.1886362634
 10
93.498036708
 20
159.164694309
 10
93.4756461916
 20
159.1387883531
 10
93.4552509217
 20
159.1106890366
 10
93.4367873401
 20
159.0801670003
 10
93.4202766329
 20
159.0472986971
  0
LWPOLYLINE
  5
3CD
100
AcDbEntity
  8
0
100
AcDbPolyline
 62
7
  6
CONTINUOUS
 90
7
 70
0
 10
94.7158226611
 20
159.1815760995
 10
94.6770465612
 20
159.1503313669
 10
94.6408889709
 20
159.1148371029
 10
94.6072740324
 20
159.075165968
 10
94.5764293194
 20
159.0310999806
 10
94.5485824054
 20
158.9824211592
 10
94.5236574326
 20
158.9292021644
  0
LINE
  5
3CE
100
AcDbEntity
  8
0
100
AcDbLine
 62
7
  6
CONTINUOUS
 10
90.7294417354
 20
154.1414616431
 11
91.7197688267
 21
153.3807602488
  0
LWPOLYLINE
  5
3CF
100
AcDbEntity
  8
0
100
AcDbPolyline
 62
7
  6
CONTINUOUS
 90
7
 70
0
 10
93.5083884873
 20
158.0138721367
 10
93.5235913849
 20
157.9985985341
 10
93.5403152729
 20
157.9842066529
 10
93.5586067504
 20
157.9706731258
 10
93.5783260199
 20
157.9580680547
 10
93.5993332842
 20
157.9464615415
 10
93.6216751423
 20
157.9358302187
  0
LWPOLYLINE
  5
3D0
100
AcDbEntity
  8
0
100
AcDbPolyline
 62
7
  6
CONTINUOUS
 90
7
 70
0
 10
95.3817080473
 20
159.1193184686
 10
95.3566151938
 20
159.145775061
 10
95.3303878402
 20
159.1694456213
 10
95.3030402403
 20
159.1902743092
 10
95.274529633
 20
159.208428646
 10
95.2448132571
 20
159.2240761531
 10
95.2139053663
 20
159.2371609899
  0
LWPOLYLINE
  5
3D1
100
AcDbEntity
  8
0
100
AcDbPolyline
 62
7
  6
CONTINUOUS
 90
7
 70
0
 10
96.6369363808
 20
158.1630970054
 10
96.6737204553
 20
158.1223345124
 10
96.7131540241
 20
158.0849734694
 10
96.7551732367
 20
158.0510422291
 10
96.7999696446
 20
158.020455733
 10
96.8477347995
 20
157.9931289225
 10
96.8984048507
 20
157.9690901504
  0
LINE
  5
3D2
100
AcDbEntity
  8
0
100
AcDbLine
 62
7
  6
CONTINUOUS
 10
107.1615913013
 20
153.3807602488
 11
107.2835913013
 21
153.95936319
  0
LINE
  5
3D3
100
AcDbEntity
  8
0
100
AcDbLine
 62
7
  6
CONTINUOUS
 10
107.3095913013
 20
154.0826720135
 11
107.4335913013
 21
154.6707602488
  0
LWPOLYLINE
  5
3D4
100
AcDbEntity
  8
0
100
AcDbPolyline
 62
7
  6
CONTINUOUS
 90
7
 70
0
 10
95.4531438738
 20
158.2429630344
 10
95.4406029069
 20
158.2339187915
 10
95.4275992695
 20
158.2251612861
 10
95.4141180481
 20
158.2166986244
 10
95.4002039836
 20
158.2085064877
 10
95.3859018174
 20
158.2005605575
 10
95.3711966356
 20
158.1928689401
  0
LINE
  5
3D5
100
AcDbEntity
  8
0
100
AcDbLine
 62
7
  6
CONTINUOUS
 10
103.8855913013
 20
162.4757602488
 11
105.5993689094
 21
163.6757602488
  0
LINE
  5
3D6
100
AcDbEntity
  8
0
100
AcDbLine
 62
7
  6
CONTINUOUS
 10
103.8855913013
 20
150.3757602488
 11
105.5993689094
 21
149.1757602488
  0
LINE
  5
3D7
100
AcDbEntity
  8
0
100
AcDbLine
 62
7
  6
CONTINUOUS
 10
93.5714452461
 20
158.1695566448
 11
93.5418150754
 21
158.1929740826
  0
LINE
  5
3D8
100
AcDbEntity
  8
RUNDUNGEN
100
AcDbLine
 62
9
  6
CONTINUOUS
 10
110.991865908
 20
151.6757602488
 11
110.991865908
 21
161.1757602488
  0
LINE
  5
3D9
100
AcDbEntity
  8
RUNDUNGEN
100
AcDbLine
 62
9
  6
CONTINUOUS
 10
111.1241534735
 20
151.6757602488
 11
111.1241534735
 21
161.1757602488
  0
LINE
  5
3DA
100
AcDbEntity
  8
RUNDUNGEN
100
AcDbLine
 62
9
  6
CONTINUOUS
 10
112.447029129
 20
161.1757602488
 11
112.447029129
 21
151.6757602488
  0
LINE
  5
3DB
100
AcDbEntity
  8
RUNDUNGEN
100
AcDbLine
 62
9
  6
CONTINUOUS
 10
112.5793166946
 20
161.1757602488
 11
112.5793166946
 21
151.6757602488
  0
LINE
  5
3DC
100
AcDbEntity
  8
RUNDUNGEN
100
AcDbLine
 62
9
  6
CONTINUOUS
 10
113.991865908
 20
151.6757602488
 11
113.991865908
 21
161.1757602488
  0
LWPOLYLINE
  5
3DD
100
AcDbEntity
  8
RUNDUNGEN
100
AcDbPolyline
 62
9
  6
CONTINUOUS
 90
35
 70
0
 10
111.1241534735
 20
161.1757602488
 10
111.1290549278
 20
161.3207291242
 10
111.1406932484
 20
161.4558842203
 10
111.1597689699
 20
161.5812414682
 10
111.1853515695
 20
161.6967530746
 10
111.2168400096
 20
161.8024483091
 10
111.2539684201
 20
161.8981119149
 10
111.2962762993
 20
161.9835429113
 10
111.3432867588
 20
162.0587277393
 10
111.3943276775
 20
162.1234707942
 10
111.448832969
 20
162.1781172328
 10
111.5059075702
 20
162.2227776814
 10
111.5652507698
 20
162.257960126
 10
111.626163292
 20
162.2841734525
 10
111.6886251212
 20
162.3015255865
 10
111.7523740471
 20
162.3104846245
 10
111.8172964565
 20
162.3104789404
 10
111.8833664576
 20
162.3014413039
 10
111.9499054098
 20
162.2823266247
 10
112.0166395518
 20
162.2523807507
 10
112.0822297796
 20
162.2106636371
 10
112.1462551571
 20
162.1553321531
 10
112.2060137854
 20
162.0883414049
 10
112.2595924407
 20
162.0091169878
 10
112.305718189
 20
161.923404304
 10
112.3422260418
 20
161.8363479318
 10
112.3713001114
 20
161.7491759374
 10
112.3937858757
 20
161.6648808758
 10
112.410958661
 20
161.5833138583
 10
112.4239477906
 20
161.5052589082
 10
112.4333680686
 20
161.4309098439
 10
112.4399461272
 20
161.3607105091
 10
112.4441100862
 20
161.2946948509
 10
112.4465376681
 20
161.233067501
 10
112.447029129
 20
161.1757602488
  0
LWPOLYLINE
  5
3DE
100
AcDbEntity
  8
RUNDUNGEN
100
AcDbPolyline
 62
9
  6
CONTINUOUS
 90
35
 70
0
 10
112.447029129
 20
151.6757602488
 10
112.442103937
 20
151.530476966
 10
112.4304203656
 20
151.3950676255
 10
112.4112714991
 20
151.2695156324
 10
112.3855991991
 20
151.153870771
 10
112.3540111843
 20
151.0481052714
 10
112.3167861061
 20
150.9524352019
 10
112.2744123907
 20
150.8670818428
 10
112.2273394395
 20
150.7920017879
 10
112.1762281008
 20
150.727336962
 10
112.1216143774
 20
150.6727526523
 10
112.0643477888
 20
150.6281138925
 10
112.0047536522
 20
150.5929633677
 10
111.9435369049
 20
150.5668301981
 10
111.880740493
 20
150.5496201115
 10
111.8166549771
 20
150.5408876669
 10
111.7513929615
 20
150.5412154912
 10
111.6849871389
 20
150.5506792239
 10
111.6181245381
 20
150.5703543852
 10
111.551074058
 20
150.601024851
 10
111.4852215046
 20
150.6436411936
 10
111.4209619526
 20
150.7001959032
 10
111.3611875664
 20
150.7683471012
 10
111.3080372075
 20
150.8483427559
 10
111.2625312426
 20
150.9344058163
 10
111.2267221524
 20
151.0211474352
 10
111.1983181083
 20
151.1076509692
 10
111.1763344173
 20
151.1911453806
 10
111.159553927
 20
151.2718050053
 10
111.1468480158
 20
151.3489207854
 10
111.1376225857
 20
151.4223718653
 10
111.1311592427
 20
151.4917910147
 10
111.1270536781
 20
151.5572083001
 10
111.1246544828
 20
151.6185198352
 10
111.1241534735
 20
151.6757602488
  0
LWPOLYLINE
  5
3DF
100
AcDbEntity
  8
RUNDUNGEN
100
AcDbPolyline
 62
9
  6
CONTINUOUS
 90
35
 70
0
 10
114.1241534735
 20
161.1757602488
 10
114.1290549278
 20
161.3207291242
 10
114.1406932484
 20
161.4558842203
 10
114.1597689699
 20
161.5812414682
 10
114.1853515695
 20
161.6967530746
 10
114.2168400096
 20
161.8024483091
 10
114.2539684201
 20
161.8981119149
 10
114.2962762993
 20
161.9835429113
 10
114.3432867588
 20
162.0587277393
 10
114.3943276775
 20
162.1234707942
 10
114.448832969
 20
162.1781172328
 10
114.5059075702
 20
162.2227776814
 10
114.5652507698
 20
162.257960126
 10
114.626163292
 20
162.2841734525
 10
114.6886251212
 20
162.3015255865
 10
114.7523740471
 20
162.3104846245
 10
114.8172964565
 20
162.3104789404
 10
114.8833664576
 20
162.3014413039
 10
114.9499054098
 20
162.2823266247
 10
115.0166395518
 20
162.2523807507
 10
115.0822297796
 20
162.2106636371
 10
115.1462551571
 20
162.1553321531
 10
115.2060137854
 20
162.0883414049
 10
115.2595924407
 20
162.0091169879
 10
115.305718189
 20
161.923404304
 10
115.3422260418
 20
161.8363479318
 10
115.3713001114
 20
161.7491759374
 10
115.3937858757
 20
161.6648808758
 10
115.410958661
 20
161.5833138583
 10
115.4239477906
 20
161.5052589083
 10
115.4333680686
 20
161.4309098439
 10
115.4399461272
 20
161.3607105091
 10
115.4441100862
 20
161.2946948509
 10
115.4465376681
 20
161.233067501
 10
115.447029129
 20
161.1757602488
  0
LWPOLYLINE
  5
3E0
100
AcDbEntity
  8
RUNDUNGEN
100
AcDbPolyline
 62
9
  6
CONTINUOUS
 90
35
 70
0
 10
110.991865908
 20
161.1757602488
 10
110.9975720367
 20
161.3331794928
 10
111.0117136889
 20
161.4802428212
 10
111.0346028623
 20
161.6165547093
 10
111.0653035634
 20
161.7420568028
 10
111.103124107
 20
161.8569821924
 10
111.1476435654
 20
161.9609252399
 10
111.1984644706
 20
162.0538065452
 10
111.2548247578
 20
162.1355083544
 10
111.3161197366
 20
162.2058798005
 10
111.3814798151
 20
162.2652804057
 10
111.4499936292
 20
162.3138058536
 10
111.5211818052
 20
162.3520660668
 10
111.5942877977
 20
162.3805354261
 10
111.6692317577
 20
162.3994187876
 10
111.7457420371
 20
162.4091300575
 10
111.8236374869
 20
162.4091501234
 10
111.9029290633
 20
162.3992907248
 10
111.9827688018
 20
162.3785512327
 10
112.0628262461
 20
162.3459621056
 10
112.1415598281
 20
162.3006583617
 10
112.2182767907
 20
162.2405353112
 10
112.290100246
 20
162.1676979222
 10
112.3542868566
 20
162.0816952021
 10
112.4097432146
 20
161.9884165931
 10
112.4535956967
 20
161.8938265888
 10
112.4884416122
 20
161.7990380587
 10
112.5154747705
 20
161.7074066385
 10
112.5360320474
 20
161.6187532774
 10
112.5516464707
 20
161.5339002004
 10
112.5629233946
 20
161.4530967603
 10
112.5708303953
 20
161.3767831107
 10
112.575813835
 20
161.3050369895
 10
112.5787387124
 20
161.2380160653
 10
112.5793166946
 20
161.1757602488
  0
LWPOLYLINE
  5
3E1
100
AcDbEntity
  8
RUNDUNGEN
100
AcDbPolyline
 62
9
  6
CONTINUOUS
 90
35
 70
0
 10
112.5793166946
 20
151.6757602488
 10
112.5735832508
 20
151.5179997108
 10
112.5593861272
 20
151.3706595766
 10
112.5364087913
 20
151.2341355089
 10
112.5056008406
 20
151.1084890726
 10
112.4676599672
 20
150.9934870506
 10
112.4230253549
 20
150.8895372296
 10
112.3721261431
 20
150.7967411889
 10
112.3156901584
 20
150.7151523919
 10
112.2543114681
 20
150.6448661103
 10
112.18882049
 20
150.5855328881
 10
112.1200754197
 20
150.5370305852
 10
112.0485869909
 20
150.4988054848
 10
111.975115202
 20
150.4704234642
 10
111.8997704552
 20
150.4516943247
 10
111.8228560111
 20
150.4422299702
 10
111.7445532937
 20
150.4425594267
 10
111.6648587029
 20
150.4528829357
 10
111.5846305717
 20
150.474230612
 10
111.5041951693
 20
150.5076080563
 10
111.4251450867
 20
150.5538884926
 10
111.3481562415
 20
150.615334202
 10
111.2763049222
 20
150.6894400567
 10
111.2126257689
 20
150.7762794747
 10
111.1579196445
 20
150.8699404825
 10
111.1148999216
 20
150.9641936576
 10
111.0808637114
 20
151.0582502651
 10
111.0544339813
 20
151.1490126
 10
111.0343465346
 20
151.2366784865
 10
111.019073047
 20
151.3205108713
 10
111.0080288681
 20
151.4003380974
 10
111.0002601764
 20
151.4758033337
 10
110.9953461613
 20
151.5468994356
 10
110.9924557279
 20
151.6135760015
 10
110.991865908
 20
151.6757602488
  0
LWPOLYLINE
  5
3E2
100
AcDbEntity
  8
RUNDUNGEN
100
AcDbPolyline
 62
9
  6
CONTINUOUS
 90
35
 70
0
 10
113.991865908
 20
161.1757602488
 10
113.9975720367
 20
161.3331794928
 10
114.0117136889
 20
161.4802428212
 10
114.0346028623
 20
161.6165547093
 10
114.0653035634
 20
161.7420568028
 10
114.103124107
 20
161.8569821924
 10
114.1476435654
 20
161.9609252399
 10
114.1984644706
 20
162.0538065452
 10
114.2548247578
 20
162.1355083544
 10
114.3161197366
 20
162.2058798005
 10
114.3814798151
 20
162.2652804057
 10
114.4499936292
 20
162.3138058536
 10
114.5211818052
 20
162.3520660668
 10
114.5942877977
 20
162.3805354261
 10
114.6692317577
 20
162.3994187876
 10
114.7457420371
 20
162.4091300575
 10
114.8236374869
 20
162.4091501234
 10
114.9029290633
 20
162.3992907248
 10
114.9827688018
 20
162.3785512327
 10
115.062826246
 20
162.3459621056
 10
115.1415598281
 20
162.3006583617
 10
115.2182767906
 20
162.2405353112
 10
115.290100246
 20
162.1676979222
 10
115.3542868566
 20
162.0816952021
 10
115.4097432146
 20
161.9884165931
 10
115.4535956967
 20
161.8938265888
 10
115.4884416122
 20
161.7990380587
 10
115.5154747705
 20
161.7074066385
 10
115.5360320474
 20
161.6187532774
 10
115.5516464707
 20
161.5339002004
 10
115.5629233946
 20
161.4530967603
 10
115.5708303953
 20
161.3767831107
 10
115.575813835
 20
161.3050369895
 10
115.5787387124
 20
161.2380160653
 10
115.5793166946
 20
161.1757602488
  0
LINE
  5
3E3
100
AcDbEntity
  8
0
100
AcDbLine
 62
7
  6
CONTINUOUS
 10
102.8855913013
 20
149.5257602488
 11
102.5993689094
 21
149.1757602488
  0
LWPOLYLINE
  5
3E4
100
AcDbEntity
  8
0
100
AcDbPolyline
 62
7
  6
CONTINUOUS
 90
7
 70
0
 10
97.6257310301
 20
158.2656203781
 10
97.5808038656
 20
158.2374997471
 10
97.5307790259
 20
158.2144633329
 10
97.4753496672
 20
158.1964753592
 10
97.4154363202
 20
158.1836431554
 10
97.351959515
 20
158.1760740509
 10
97.2846124082
 20
158.1737322693
  0
LWPOLYLINE
  5
3E5
100
AcDbEntity
  8
0
100
AcDbPolyline
 62
7
  6
CONTINUOUS
 90
7
 70
0
 10
97.0253114847
 20
159.4085574506
 10
97.0634224464
 20
159.4291944534
 10
97.1035253756
 20
159.4462583051
 10
97.1455730445
 20
159.4598111308
 10
97.1897071361
 20
159.4696665553
 10
97.2360693333
 20
159.4756382039
 10
97.2846124082
 20
159.4777882015
  0
LWPOLYLINE
  5
3E6
100
AcDbEntity
  8
0
100
AcDbPolyline
 62
7
  6
CONTINUOUS
 90
7
 70
0
 10
96.894402495
 20
159.682963029
 10
96.8450451022
 20
159.6587540189
 10
96.7983253639
 20
159.6312683599
 10
96.75431532
 20
159.6005658637
 10
96.7127988505
 20
159.5664670951
 10
96.6735598353
 20
159.5287926188
 10
96.6366703145
 20
159.4876022465
  0
LWPOLYLINE
  5
3E7
100
AcDbEntity
  8
0
100
AcDbPolyline
 62
7
  6
CONTINUOUS
 90
7
 70
0
 10
95.3711966356
 20
158.1928689401
 10
95.3544084352
 20
158.1849190497
 10
95.3369271928
 20
158.1776482847
 10
95.318724501
 20
158.1710797866
 10
95.2998855819
 20
158.1651441312
 10
95.2804956575
 20
158.1597718944
 10
95.2605263204
 20
158.1549862175
  0
LWPOLYLINE
  5
3E8
100
AcDbEntity
  8
0
100
AcDbPolyline
 62
7
  6
CONTINUOUS
 90
7
 70
0
 10
94.7266670674
 20
157.9934469197
 10
94.7735178823
 20
157.9669078565
 10
94.8247698831
 20
157.9450474186
 10
94.8806295411
 20
157.9277888268
 10
94.9404774422
 20
157.9153624189
 10
95.0036941723
 20
157.9079985323
 10
95.0704862028
 20
157.9056203879
  0
LINE
  5
3E9
100
AcDbEntity
  8
0
100
AcDbLine
 62
7
  6
CONTINUOUS
 10
102.6449773478
 20
153.8827602488
 11
103.3895913013
 21
153.3807602488
  0
LWPOLYLINE
  5
3EA
100
AcDbEntity
  8
0
100
AcDbPolyline
 62
7
  6
CONTINUOUS
 90
7
 70
0
 10
97.0265702249
 20
158.2404456613
 10
96.9905465412
 20
158.2648567858
 10
96.9567491052
 20
158.2939311133
 10
96.9250848041
 20
158.3277417789
 10
96.8958329763
 20
158.3660693779
 10
96.8692729602
 20
158.4086945055
 10
96.8453116429
 20
158.4556902967
  0
LINE
  5
3EB
100
AcDbEntity
  8
0
100
AcDbLine
 62
7
  6
CONTINUOUS
 10
102.8855913013
 20
163.3257602488
 11
102.5993689094
 21
163.6757602488
  0
LINE
  5
3EC
100
AcDbEntity
  8
RUNDUNGEN
100
AcDbLine
 62
9
  6
CONTINUOUS
 10
114.1241534735
 20
151.6757602488
 11
114.1241534735
 21
161.1757602488
  0
LINE
  5
3ED
100
AcDbEntity
  8
RUNDUNGEN
100
AcDbLine
 62
9
  6
CONTINUOUS
 10
115.447029129
 20
161.1757602488
 11
115.447029129
 21
151.6757602488
  0
LINE
  5
3EE
100
AcDbEntity
  8
RUNDUNGEN
100
AcDbLine
 62
9
  6
CONTINUOUS
 10
115.5793166946
 20
161.1757602488
 11
115.5793166946
 21
151.6757602488
  0
LINE
  5
3EF
100
AcDbEntity
  8
RUNDUNGEN
100
AcDbLine
 62
9
  6
CONTINUOUS
 10
116.991865908
 20
151.6757602488
 11
116.991865908
 21
161.1757602488
  0
LINE
  5
3F0
100
AcDbEntity
  8
RUNDUNGEN
100
AcDbLine
 62
9
  6
CONTINUOUS
 10
117.1241534735
 20
151.6757602488
 11
117.1241534735
 21
161.1757602488
  0
LWPOLYLINE
  5
3F1
100
AcDbEntity
  8
RUNDUNGEN
100
AcDbPolyline
 62
9
  6
CONTINUOUS
 90
35
 70
0
 10
115.447029129
 20
151.6757602488
 10
115.442103937
 20
151.530476966
 10
115.4304203656
 20
151.3950676255
 10
115.4112714991
 20
151.2695156324
 10
115.3855991991
 20
151.153870771
 10
115.3540111843
 20
151.0481052714
 10
115.3167861061
 20
150.9524352019
 10
115.2744123907
 20
150.8670818428
 10
115.2273394395
 20
150.7920017879
 10
115.1762281008
 20
150.727336962
 10
115.1216143774
 20
150.6727526523
 10
115.0643477888
 20
150.6281138925
 10
115.0047536522
 20
150.5929633677
 10
114.9435369049
 20
150.5668301981
 10
114.880740493
 20
150.5496201115
 10
114.8166549771
 20
150.5408876669
 10
114.7513929615
 20
150.5412154912
 10
114.6849871389
 20
150.5506792239
 10
114.6181245381
 20
150.5703543852
 10
114.551074058
 20
150.601024851
 10
114.4852215046
 20
150.6436411936
 10
114.4209619526
 20
150.7001959032
 10
114.3611875664
 20
150.7683471012
 10
114.3080372075
 20
150.8483427559
 10
114.2625312426
 20
150.9344058163
 10
114.2267221524
 20
151.0211474352
 10
114.1983181083
 20
151.1076509692
 10
114.1763344173
 20
151.1911453806
 10
114.159553927
 20
151.2718050053
 10
114.1468480158
 20
151.3489207854
 10
114.1376225857
 20
151.4223718653
 10
114.1311592427
 20
151.4917910147
 10
114.1270536781
 20
151.5572083001
 10
114.1246544828
 20
151.6185198352
 10
114.1241534735
 20
151.6757602488
  0
LWPOLYLINE
  5
3F2
100
AcDbEntity
  8
RUNDUNGEN
100
AcDbPolyline
 62
9
  6
CONTINUOUS
 90
35
 70
0
 10
117.1241534735
 20
161.1757602488
 10
117.1290549278
 20
161.3207291242
 10
117.1406932484
 20
161.4558842203
 10
117.1597689699
 20
161.5812414682
 10
117.1853515695
 20
161.6967530746
 10
117.2168400096
 20
161.8024483091
 10
117.2539684201
 20
161.8981119149
 10
117.2962762993
 20
161.9835429113
 10
117.3432867588
 20
162.0587277393
 10
117.3943276775
 20
162.1234707942
 10
117.448832969
 20
162.1781172328
 10
117.5059075702
 20
162.2227776814
 10
117.5652507698
 20
162.257960126
 10
117.626163292
 20
162.2841734525
 10
117.6886251212
 20
162.3015255865
 10
117.7523740471
 20
162.3104846245
 10
117.8172964565
 20
162.3104789404
 10
117.8833664576
 20
162.3014413039
 10
117.9499054098
 20
162.2823266247
 10
118.0166395518
 20
162.2523807507
 10
118.0822297796
 20
162.2106636371
 10
118.1462551571
 20
162.1553321531
 10
118.2060137854
 20
162.0883414049
 10
118.2595924407
 20
162.0091169879
 10
118.305718189
 20
161.923404304
 10
118.3422260418
 20
161.8363479318
 10
118.3713001114
 20
161.7491759374
 10
118.3937858757
 20
161.6648808758
 10
118.410958661
 20
161.5833138583
 10
118.4239477906
 20
161.5052589083
 10
118.4333680686
 20
161.4309098439
 10
118.4399461272
 20
161.3607105091
 10
118.4441100862
 20
161.2946948509
 10
118.4465376681
 20
161.233067501
 10
118.447029129
 20
161.1757602488
  0
LWPOLYLINE
  5
3F3
100
AcDbEntity
  8
RUNDUNGEN
100
AcDbPolyline
 62
9
  6
CONTINUOUS
 90
35
 70
0
 10
115.5793166946
 20
151.6757602488
 10
115.5735832508
 20
151.5179997108
 10
115.5593861272
 20
151.3706595766
 10
115.5364087913
 20
151.2341355089
 10
115.5056008406
 20
151.1084890726
 10
115.4676599672
 20
150.9934870506
 10
115.4230253549
 20
150.8895372296
 10
115.3721261431
 20
150.7967411889
 10
115.3156901584
 20
150.7151523919
 10
115.2543114681
 20
150.6448661103
 10
115.18882049
 20
150.5855328881
 10
115.1200754197
 20
150.5370305852
 10
115.0485869909
 20
150.4988054848
 10
114.9751152019
 20
150.4704234642
 10
114.8997704552
 20
150.4516943247
 10
114.8228560111
 20
150.4422299702
 10
114.7445532937
 20
150.4425594267
 10
114.6648587029
 20
150.4528829357
 10
114.5846305717
 20
150.474230612
 10
114.5041951693
 20
150.5076080563
 10
114.4251450867
 20
150.5538884926
 10
114.3481562415
 20
150.6153342021
 10
114.2763049222
 20
150.6894400567
 10
114.2126257689
 20
150.7762794747
 10
114.1579196445
 20
150.8699404825
 10
114.1148999216
 20
150.9641936576
 10
114.0808637114
 20
151.0582502651
 10
114.0544339813
 20
151.1490126
 10
114.0343465346
 20
151.2366784866
 10
114.019073047
 20
151.3205108713
 10
114.0080288681
 20
151.4003380974
 10
114.0002601764
 20
151.4758033337
 10
113.9953461613
 20
151.5468994356
 10
113.9924557279
 20
151.6135760015
 10
113.991865908
 20
151.6757602488
  0
LWPOLYLINE
  5
3F4
100
AcDbEntity
  8
RUNDUNGEN
100
AcDbPolyline
 62
9
  6
CONTINUOUS
 90
35
 70
0
 10
116.991865908
 20
161.1757602488
 10
116.9975720367
 20
161.3331794928
 10
117.0117136889
 20
161.4802428212
 10
117.0346028623
 20
161.6165547093
 10
117.0653035634
 20
161.7420568028
 10
117.103124107
 20
161.8569821924
 10
117.1476435654
 20
161.9609252399
 10
117.1984644706
 20
162.0538065452
 10
117.2548247578
 20
162.1355083544
 10
117.3161197366
 20
162.2058798005
 10
117.3814798151
 20
162.2652804057
 10
117.4499936292
 20
162.3138058536
 10
117.5211818052
 20
162.3520660668
 10
117.5942877977
 20
162.3805354261
 10
117.6692317577
 20
162.3994187876
 10
117.7457420371
 20
162.4091300575
 10
117.8236374869
 20
162.4091501234
 10
117.9029290633
 20
162.3992907248
 10
117.9827688018
 20
162.3785512327
 10
118.062826246
 20
162.3459621056
 10
118.1415598281
 20
162.3006583617
 10
118.2182767906
 20
162.2405353112
 10
118.290100246
 20
162.1676979222
 10
118.3542868566
 20
162.0816952021
 10
118.4097432146
 20
161.9884165931
 10
118.4535956967
 20
161.8938265888
 10
118.4884416122
 20
161.7990380587
 10
118.5154747705
 20
161.7074066385
 10
118.5360320474
 20
161.6187532774
 10
118.5516464707
 20
161.5339002004
 10
118.5629233946
 20
161.4530967603
 10
118.5708303953
 20
161.3767831107
 10
118.575813835
 20
161.3050369895
 10
118.5787387124
 20
161.2380160653
 10
118.5793166946
 20
161.1757602488
  0
LINE
  5
3F5
100
AcDbEntity
  8
0
100
AcDbLine
 62
7
  6
CONTINUOUS
 10
93.6046919014
 20
158.1528052033
 11
93.5714452461
 21
158.1695566448
  0
LWPOLYLINE
  5
3F6
100
AcDbEntity
  8
0
100
AcDbPolyline
 62
7
  6
CONTINUOUS
 90
7
 70
0
 10
93.984025837
 20
159.2207265206
 10
93.9543400255
 20
159.2366912479
 10
93.9224519077
 20
159.24986462
 10
93.8882923215
 20
159.26029491
 10
93.8520687535
 20
159.2678372987
 10
93.81398869
 20
159.2723469671
 10
93.7739829689
 20
159.2738721882
  0
LINE
  5
3F7
100
AcDbEntity
  8
0
100
AcDbLine
 62
7
  6
CONTINUOUS
 10
104.5015913013
 20
153.3807602488
 11
103.5295913013
 21
153.9417602488
  0
LINE
  5
3F8
100
AcDbEntity
  8
0
100
AcDbLine
 62
7
  6
CONTINUOUS
 10
107.2835913013
 20
153.95936319
 11
108.2695913013
 21
153.3807602488
  0
LWPOLYLINE
  5
3F9
100
AcDbEntity
  8
RUNDUNGEN
100
AcDbPolyline
 62
9
  6
CONTINUOUS
 90
11
 70
0
 10
119.7855913013
 20
159.548259248
 10
119.7917472468
 20
159.4872000238
 10
119.8100634366
 20
159.4276445314
 10
119.8400887607
 20
159.3710592183
 10
119.881083814
 20
159.3188373681
 10
119.9320390959
 20
159.2722648187
 10
119.9916998852
 20
159.2324882804
 10
120.0585971229
 20
159.2004871363
 10
120.1310835964
 20
159.1770493057
 10
120.2073745012
 20
159.1627518689
 10
120.2855913013
 20
159.1579468731
  0
LINE
  5
3FA
100
AcDbEntity
  8
RUNDUNGEN
100
AcDbLine
 62
9
  6
CONTINUOUS
 10
118.447029129
 20
161.1757602488
 11
118.447029129
 21
151.6757602488
  0
LINE
  5
3FB
100
AcDbEntity
  8
RUNDUNGEN
100
AcDbLine
 62
9
  6
CONTINUOUS
 10
118.5793166946
 20
161.1757602488
 11
118.5793166946
 21
151.6757602488
  0
LINE
  5
3FC
100
AcDbEntity
  8
RUNDUNGEN
100
AcDbLine
 62
9
  6
CONTINUOUS
 10
118.7855913013
 20
149.1757602488
 11
118.7855913013
 21
163.6757602488
  0
LINE
  5
3FD
100
AcDbEntity
  8
RUNDUNGEN
100
AcDbLine
 62
7
  6
CONTINUOUS
 10
119.7855913013
 20
150.1757602488
 11
119.7855913013
 21
153.3032612496
  0
LINE
  5
3FE
100
AcDbEntity
  8
RUNDUNGEN
100
AcDbLine
 62
7
  6
CONTINUOUS
 10
119.7855913013
 20
159.548259248
 11
119.7855913013
 21
162.6757602488
  0
LINE
  5
3FF
100
AcDbEntity
  8
RUNDUNGEN
100
AcDbLine
 62
9
  6
CONTINUOUS
 10
120.2855913013
 20
159.9257602488
 11
120.2855913013
 21
159.1579468731
  0
LINE
  5
400
100
AcDbEntity
  8
RUNDUNGEN
100
AcDbLine
 62
9
  6
CONTINUOUS
 10
120.2855913013
 20
153.6935736245
 11
120.2855913013
 21
152.9257602488
  0
LWPOLYLINE
  5
401
100
AcDbEntity
  8
RUNDUNGEN
100
AcDbPolyline
 62
9
  6
CONTINUOUS
 90
7
 70
0
 10
119.7855913013
 20
159.548259248
 10
119.7829143367
 20
159.4566375865
 10
119.7755522408
 20
159.3659938852
 10
119.7646012909
 20
159.2768655052
 10
119.7505785586
 20
159.1876403632
 10
119.7335985222
 20
159.0970098772
 10
119.7139020313
 20
159.0046009056
  0
LWPOLYLINE
  5
402
100
AcDbEntity
  8
RUNDUNGEN
100
AcDbPolyline
 62
9
  6
CONTINUOUS
 90
35
 70
0
 10
118.447029129
 20
151.6757602488
 10
118.442103937
 20
151.530476966
 10
118.4304203656
 20
151.3950676255
 10
118.4112714991
 20
151.2695156324
 10
118.3855991991
 20
151.153870771
 10
118.3540111843
 20
151.0481052714
 10
118.3167861061
 20
150.9524352019
 10
118.2744123907
 20
150.8670818428
 10
118.2273394395
 20
150.7920017879
 10
118.1762281008
 20
150.727336962
 10
118.1216143774
 20
150.6727526523
 10
118.0643477888
 20
150.6281138925
 10
118.0047536522
 20
150.5929633677
 10
117.9435369049
 20
150.5668301981
 10
117.880740493
 20
150.5496201115
 10
117.8166549771
 20
150.5408876669
 10
117.7513929615
 20
150.5412154912
 10
117.6849871389
 20
150.5506792239
 10
117.6181245381
 20
150.5703543852
 10
117.551074058
 20
150.601024851
 10
117.4852215046
 20
150.6436411936
 10
117.4209619526
 20
150.7001959032
 10
117.3611875664
 20
150.7683471012
 10
117.3080372075
 20
150.8483427559
 10
117.2625312426
 20
150.9344058163
 10
117.2267221524
 20
151.0211474352
 10
117.1983181083
 20
151.1076509692
 10
117.1763344173
 20
151.1911453806
 10
117.159553927
 20
151.2718050053
 10
117.1468480158
 20
151.3489207854
 10
117.1376225857
 20
151.4223718653
 10
117.1311592427
 20
151.4917910147
 10
117.1270536781
 20
151.5572083001
 10
117.1246544828
 20
151.6185198352
 10
117.1241534735
 20
151.6757602488
  0
LWPOLYLINE
  5
403
100
AcDbEntity
  8
RUNDUNGEN
100
AcDbPolyline
 62
9
  6
CONTINUOUS
 90
35
 70
0
 10
118.5793166946
 20
151.6757602488
 10
118.5735832508
 20
151.5179997108
 10
118.5593861272
 20
151.3706595766
 10
118.5364087913
 20
151.2341355089
 10
118.5056008406
 20
151.1084890726
 10
118.4676599672
 20
150.9934870506
 10
118.4230253549
 20
150.8895372296
 10
118.3721261431
 20
150.7967411889
 10
118.3156901584
 20
150.7151523919
 10
118.2543114681
 20
150.6448661103
 10
118.18882049
 20
150.5855328881
 10
118.1200754197
 20
150.5370305852
 10
118.0485869909
 20
150.4988054848
 10
117.9751152019
 20
150.4704234642
 10
117.8997704552
 20
150.4516943247
 10
117.8228560111
 20
150.4422299702
 10
117.7445532937
 20
150.4425594267
 10
117.6648587029
 20
150.4528829357
 10
117.5846305717
 20
150.474230612
 10
117.5041951693
 20
150.5076080563
 10
117.4251450867
 20
150.5538884926
 10
117.3481562415
 20
150.6153342021
 10
117.2763049222
 20
150.6894400567
 10
117.2126257689
 20
150.7762794747
 10
117.1579196445
 20
150.8699404825
 10
117.1148999216
 20
150.9641936576
 10
117.0808637114
 20
151.0582502651
 10
117.0544339813
 20
151.1490126
 10
117.0343465346
 20
151.2366784866
 10
117.019073047
 20
151.3205108713
 10
117.0080288681
 20
151.4003380974
 10
117.0002601764
 20
151.4758033337
 10
116.9953461613
 20
151.5468994356
 10
116.9924557279
 20
151.6135760015
 10
116.991865908
 20
151.6757602488
  0
LWPOLYLINE
  5
404
100
AcDbEntity
  8
RUNDUNGEN
100
AcDbPolyline
 62
9
  6
CONTINUOUS
 90
3
 70
0
 10
120.2855913013
 20
159.1579468731
 10
120.2808619237
 20
159.0780308698
 10
120.2705323057
 20
158.9984656252
  0
LWPOLYLINE
  5
405
100
AcDbEntity
  8
RUNDUNGEN
100
AcDbPolyline
 62
9
  6
CONTINUOUS
 90
11
 70
0
 10
119.7855913013
 20
153.3032612496
 10
119.7917471534
 20
153.3643196675
 10
119.8100631199
 20
153.423874591
 10
119.8400881821
 20
153.4804595786
 10
119.8810830074
 20
153.5326813258
 10
119.9320381537
 20
153.5792539663
 10
119.9916989284
 20
153.6190307376
 10
120.0585962809
 20
153.6510322134
 10
120.1310829785
 20
153.6744704214
 10
120.207374166
 20
153.6887682435
 10
120.2855913013
 20
153.6935736245
  0
LWPOLYLINE
  5
406
100
AcDbEntity
  8
RUNDUNGEN
100
AcDbPolyline
 62
9
  6
CONTINUOUS
 90
21
 70
0
 10
120.2705323057
 20
158.9984656252
 10
120.254299588
 20
158.9204066709
 10
120.2330723488
 20
158.8424050404
 10
120.2076785435
 20
158.7630747443
 10
120.1780571815
 20
158.6822459716
 10
120.1442530321
 20
158.5988509809
 10
120.1067767707
 20
158.5137370652
 10
120.0659440256
 20
158.427223124
 10
120.022384708
 20
158.339993531
 10
119.9767484912
 20
158.2529036904
 10
119.9292917185
 20
158.1659650386
 10
119.880827333
 20
158.0800753795
 10
119.830335208
 20
157.993398989
 10
119.7774103655
 20
157.9047285262
 10
119.7210203022
 20
157.8125914266
 10
119.6597895075
 20
157.7146247852
 10
119.5943420258
 20
157.611889472
 10
119.524542936
 20
157.5043232035
 10
119.4512936238
 20
157.3931088139
 10
119.3751603794
 20
157.2791747348
 10
119.2970135685
 20
157.1635347568
  0
LWPOLYLINE
  5
407
100
AcDbEntity
  8
RUNDUNGEN
100
AcDbPolyline
 62
9
  6
CONTINUOUS
 90
15
 70
0
 10
119.7139020313
 20
159.0046009056
 10
119.6913743439
 20
158.9092804907
 10
119.6663816141
 20
158.8120194986
 10
119.6391718338
 20
158.7131317285
 10
119.6101202577
 20
158.6134554234
 10
119.5796890805
 20
158.5139264724
 10
119.548058231
 20
158.4145657359
 10
119.5157063777
 20
158.3164407772
 10
119.4820872429
 20
158.2173473765
 10
119.4467706718
 20
158.1160384708
 10
119.4092106559
 20
158.0107101521
 10
119.3684038836
 20
157.8987356824
 10
119.3247584708
 20
157.781336489
 10
119.2782495965
 20
157.6583812766
 10
119.2293928296
 20
157.5313014748
  0
LINE
  5
408
100
AcDbEntity
  8
RUNDUNGEN
100
AcDbLine
 62
9
  6
CONTINUOUS
 10
119.2293928296
 20
157.5313014748
 11
119.1265395022
 21
157.2689310978
  0
LINE
  5
409
100
AcDbEntity
  8
RUNDUNGEN
100
AcDbLine
 62
9
  6
CONTINUOUS
 10
119.1265395022
 20
157.2689310978
 11
119.0204347698
 21
157.0035508626
  0
LINE
  5
40A
100
AcDbEntity
  8
RUNDUNGEN
100
AcDbLine
 62
9
  6
CONTINUOUS
 10
119.0204347698
 20
157.0035508626
 11
118.7855913013
 21
156.4257602488
  0
LWPOLYLINE
  5
40B
100
AcDbEntity
  8
0
100
AcDbPolyline
 62
7
  6
CONTINUOUS
 90
7
 70
0
 10
91.884612301
 20
157.387018988
 10
91.9198388854
 20
157.3764599679
 10
91.9545846315
 20
157.3678824748
 10
91.9888639718
 20
157.3613086828
 10
92.0226336089
 20
157.3566720695
 10
92.0558502456
 20
157.3539061124
 10
92.0885283142
 20
157.3530329858
  0
LWPOLYLINE
  5
40C
100
AcDbEntity
  8
0
100
AcDbPolyline
 62
7
  6
CONTINUOUS
 90
7
 70
0
 10
96.8984048507
 20
157.9690901504
 10
96.9508555606
 20
157.94873222
 10
97.0060891639
 20
157.9318600013
 10
97.0641337812
 20
157.9183886709
 10
97.1249050506
 20
157.9085726997
 10
97.1883186103
 20
157.9026665586
 10
97.2544025808
 20
157.9005854239
  0
LWPOLYLINE
  5
40D
100
AcDbEntity
  8
0
100
AcDbPolyline
 62
7
  6
CONTINUOUS
 90
7
 70
0
 10
93.6216751423
 20
157.9358302187
 10
93.6452274234
 20
157.9265079273
 10
93.6700882057
 20
157.9189053918
 10
93.696325047
 20
157.9130271387
 10
93.7237352742
 20
157.9088595887
 10
93.7521162146
 20
157.906389163
 10
93.7815354257
 20
157.9056203879
  0
LWPOLYLINE
  5
40E
100
AcDbEntity
  8
0
100
AcDbPolyline
 62
7
  6
CONTINUOUS
 90
7
 70
0
 10
97.5424684897
 20
159.419416591
 10
97.5669524072
 20
159.408204351
 10
97.5786764579
 20
159.402697177
 10
97.5904123241
 20
159.3970628482
 10
97.602164646
 20
159.3913255303
 10
97.6139380635
 20
159.3855093892
 10
97.6257310301
 20
159.3796063696
  0
LINE
  5
40F
100
AcDbEntity
  8
0
100
AcDbLine
 62
7
  6
CONTINUOUS
 10
109.4235913013
 20
153.3807602488
 11
108.2015913013
 21
154.0407602488
  0
LINE
  5
410
100
AcDbEntity
  8
RUNDUNGEN
100
AcDbLine
 62
9
  6
CONTINUOUS
 10
118.7855913013
 20
156.4257602488
 11
119.0099014129
 21
155.8741032443
  0
LINE
  5
411
100
AcDbEntity
  8
RUNDUNGEN
100
AcDbLine
 62
9
  6
CONTINUOUS
 10
119.0099014129
 20
155.8741032443
 11
119.119431885
 21
155.6005089297
  0
LWPOLYLINE
  5
412
100
AcDbEntity
  8
RUNDUNGEN
100
AcDbPolyline
 62
9
  6
CONTINUOUS
 90
15
 70
0
 10
119.119431885
 20
155.6005089297
 10
119.2226422061
 20
155.3376404938
 10
119.2703615955
 20
155.2137875239
 10
119.3151052989
 20
155.0958703183
 10
119.356284404
 20
154.9855705765
 10
119.3948454631
 20
154.8804879962
 10
119.4311597493
 20
154.7795174732
 10
119.4660683418
 20
154.6804551128
 10
119.5004156015
 20
154.5805017376
 10
119.5338892976
 20
154.4803380912
 10
119.5665534359
 20
154.3793275918
 10
119.5978825439
 20
154.2786230372
 10
119.6275222269
 20
154.1789972511
 10
119.6551816259
 20
154.0809535742
 10
119.6804200707
 20
153.9857176736
  0
LWPOLYLINE
  5
413
100
AcDbEntity
  8
RUNDUNGEN
100
AcDbPolyline
 62
9
  6
CONTINUOUS
 90
8
 70
0
 10
119.6804200707
 20
153.9857176736
 10
119.7035307153
 20
153.8918953935
 10
119.7243680122
 20
153.799031541
 10
119.7430930188
 20
153.7055348932
 10
119.7593945619
 20
153.6098366592
 10
119.772728754
 20
153.5114143501
 10
119.7820780228
 20
153.4090918695
 10
119.7855913013
 20
153.3032612496
  0
LWPOLYLINE
  5
414
100
AcDbEntity
  8
RUNDUNGEN
100
AcDbPolyline
 62
9
  6
CONTINUOUS
 90
4
 70
0
 10
120.2465736087
 20
153.961923837
 10
120.2662968292
 20
153.8757062972
 10
120.2790888356
 20
153.78571131
 10
120.2855913013
 20
153.6935736245
  0
LINE
  5
415
100
AcDbEntity
  8
RUNDUNGEN
100
AcDbLine
 62
9
  6
CONTINUOUS
 10
119.2970135685
 20
157.1635347568
 11
119.1378566344
 21
156.9313269923
  0
LWPOLYLINE
  5
416
100
AcDbEntity
  8
RUNDUNGEN
100
AcDbPolyline
 62
9
  6
CONTINUOUS
 90
3
 70
0
 10
119.1378566344
 20
156.9313269923
 10
118.8802126504
 20
156.560854187
 10
118.7855913013
 20
156.4257602488
  0
LINE
  5
417
100
AcDbEntity
  8
0
100
AcDbLine
 62
7
  6
CONTINUOUS
 10
108.5115913013
 20
154.6707602488
 11
107.3095913013
 21
154.0826720135
  0
LINE
  5
418
100
AcDbEntity
  8
0
100
AcDbLine
 62
7
  6
CONTINUOUS
 10
108.2015913013
 20
154.0407602488
 11
109.5855913013
 21
154.6707602488
  0
LINE
  5
419
100
AcDbEntity
  8
RUNDUNGEN
100
AcDbLine
 62
7
  6
CONTINUOUS
 10
89.2855913013
 20
149.1757602488
 11
102.5993689094
 21
149.1757602488
  0
LINE
  5
41A
100
AcDbEntity
  8
RUNDUNGEN
100
AcDbLine
 62
7
  6
CONTINUOUS
 10
105.5993689094
 20
149.1757602488
 11
118.7855913013
 21
149.1757602488
  0
LINE
  5
41B
100
AcDbEntity
  8
0
100
AcDbLine
 62
7
  6
CONTINUOUS
 10
93.6411377816
 20
158.1428905525
 11
93.6046919014
 21
158.1528052033
  0
LWPOLYLINE
  5
41C
100
AcDbEntity
  8
0
100
AcDbPolyline
 62
7
  6
CONTINUOUS
 90
7
 70
0
 10
97.6433533579
 20
159.6766693865
 10
97.575547972
 20
159.6998095991
 10
97.5082524907
 20
159.718570821
 10
97.4415354028
 20
159.7328837253
 10
97.3751912417
 20
159.7429562929
 10
97.3090145405
 20
159.7489965046
 10
97.2430737882
 20
159.7509350335
  0
LWPOLYLINE
  5
41D
100
AcDbEntity
  8
0
100
AcDbPolyline
 62
7
  6
CONTINUOUS
 90
7
 70
0
 10
95.2139053663
 20
159.2371609899
 10
95.1821493484
 20
159.2480459805
 10
95.1490736825
 20
159.2570730709
 10
95.1146659641
 20
159.2642879012
 10
95.0789634069
 20
159.269553551
 10
95.0420032246
 20
159.2727331
 10
95.0037730127
 20
159.2738721882
  0
LWPOLYLINE
  5
41E
100
AcDbEntity
  8
0
100
AcDbPolyline
 62
7
  6
CONTINUOUS
 90
6
 70
0
 10
97.4797171503
 20
159.4450609599
 10
97.4921688512
 20
159.4405844524
 10
97.5046633976
 20
159.4357574825
 10
97.5171900592
 20
159.4305395849
 10
97.5297810265
 20
159.4250521557
 10
97.5424684897
 20
159.419416591
  0
LINE
  5
41F
100
AcDbEntity
  8
RUNDUNGEN
100
AcDbLine
 62
9
  6
CONTINUOUS
 10
118.7855913013
 20
156.4257602488
 11
119.0397580951
 21
156.0617764331
  0
LWPOLYLINE
  5
420
100
AcDbEntity
  8
RUNDUNGEN
100
AcDbPolyline
 62
9
  6
CONTINUOUS
 90
22
 70
0
 10
119.0397580951
 20
156.0617764331
 10
119.2048683076
 20
155.8228467768
 10
119.2863521266
 20
155.7036653244
 10
119.3653599502
 20
155.5869003964
 10
119.4411676598
 20
155.4736554616
 10
119.5127152848
 20
155.3652672877
 10
119.5798622533
 20
155.262106543
 10
119.6416586594
 20
155.1656084959
 10
119.6994725344
 20
155.0736470231
 10
119.7540071338
 20
154.9853293482
 10
119.8063068787
 20
154.8986182592
 10
119.8578503852
 20
154.8111684348
 10
119.9080383233
 20
154.7235158731
 10
119.9570196433
 20
154.6351214482
 10
120.0040281202
 20
154.547015173
 10
120.0484691231
 20
154.4598305724
 10
120.0899768201
 20
154.3740544443
 10
120.1279012869
 20
154.290750674
 10
120.1625001693
 20
154.2086283366
 10
120.1939266013
 20
154.127441651
 10
120.2218441941
 20
154.0455635819
 10
120.2465736087
 20
153.961923837
  0
LWPOLYLINE
  5
421
100
AcDbEntity
  8
0
100
AcDbPolyline
 62
7
  6
CONTINUOUS
 90
19
 70
0
 10
97.5059353246
 20
153.3807602488
 10
97.637423997
 20
153.3813469347
 10
97.7637919151
 20
153.3836632506
 10
97.8850598557
 20
153.3875643843
 10
98.0011654882
 20
153.3934847724
 10
98.1116324268
 20
153.4015311914
 10
98.2177236149
 20
153.4125418093
 10
98.3217926528
 20
153.427301433
 10
98.4200911839
 20
153.4460769224
 10
98.5088888374
 20
153.4688282295
 10
98.5904852565
 20
153.4972608855
 10
98.6669181768
 20
153.5333079591
 10
98.7352429495
 20
153.5762467909
 10
98.7927302699
 20
153.6263268565
 10
98.840771841
 20
153.6825648203
 10
98.8789865106
 20
153.7425875972
 10
98.909963539
 20
153.8108139123
 10
98.9364729121
 20
153.891324925
 10
98.9575913013
 20
153.9827602488
  0
LINE
  5
422
100
AcDbEntity
  8
0
100
AcDbLine
 62
7
  6
CONTINUOUS
 10
102.8855913013
 20
150.3757602488
 11
103.8855913013
 21
150.3757602488
  0
LINE
  5
423
100
AcDbEntity
  8
RUNDUNGEN
100
AcDbLine
 62
9
  6
CONTINUOUS
 10
88.2855913013
 20
151.6757602488
 11
111.1241534735
 21
151.6757602488
  0
LINE
  5
424
100
AcDbEntity
  8
RUNDUNGEN
100
AcDbLine
 62
9
  6
CONTINUOUS
 10
112.447029129
 20
151.6757602488
 11
114.1241534735
 21
151.6757602488
  0
LINE
  5
425
100
AcDbEntity
  8
RUNDUNGEN
100
AcDbLine
 62
9
  6
CONTINUOUS
 10
115.447029129
 20
151.6757602488
 11
117.1241534735
 21
151.6757602488
  0
LINE
  5
426
100
AcDbEntity
  8
RUNDUNGEN
100
AcDbLine
 62
9
  6
CONTINUOUS
 10
118.447029129
 20
151.6757602488
 11
119.7855913013
 21
151.6757602488
  0
LINE
  5
427
100
AcDbEntity
  8
0
100
AcDbLine
 62
7
  6
CONTINUOUS
 10
81.0855913013
 20
152.2857602488
 11
88.2855913013
 21
152.2857602488
  0
LINE
  5
428
100
AcDbEntity
  8
RUNDUNGEN
100
AcDbLine
 62
7
  6
CONTINUOUS
 10
120.2855913013
 20
152.9257602488
 11
128.2855913013
 21
152.9257602488
  0
LINE
  5
429
100
AcDbEntity
  8
0
100
AcDbLine
 62
7
  6
CONTINUOUS
 10
89.5855913013
 20
153.3807602488
 11
90.5795913013
 21
153.3807602488
  0
LINE
  5
42A
100
AcDbEntity
  8
0
100
AcDbLine
 62
7
  6
CONTINUOUS
 10
91.7197688267
 20
153.3807602488
 11
92.9057688267
 21
153.3807602488
  0
LINE
  5
42B
100
AcDbEntity
  8
0
100
AcDbLine
 62
7
  6
CONTINUOUS
 10
93.4099353246
 20
153.3807602488
 11
95.7799353246
 21
153.3807602488
  0
LINE
  5
42C
100
AcDbEntity
  8
0
100
AcDbLine
 62
7
  6
CONTINUOUS
 10
99.7801457567
 20
153.3807602488
 11
100.6201457567
 21
153.3807602488
  0
LINE
  5
42D
100
AcDbEntity
  8
0
100
AcDbLine
 62
7
  6
CONTINUOUS
 10
101.6435913013
 20
153.3807602488
 11
102.5655913013
 21
153.3807602488
  0
LINE
  5
42E
100
AcDbEntity
  8
0
100
AcDbLine
 62
7
  6
CONTINUOUS
 10
103.3895913013
 20
153.3807602488
 11
104.5015913013
 21
153.3807602488
  0
LINE
  5
42F
100
AcDbEntity
  8
0
100
AcDbLine
 62
7
  6
CONTINUOUS
 10
104.8035913013
 20
153.3807602488
 11
105.7855913013
 21
153.3807602488
  0
LINE
  5
430
100
AcDbEntity
  8
0
100
AcDbLine
 62
7
  6
CONTINUOUS
 10
106.2475913013
 20
153.3807602488
 11
107.1615913013
 21
153.3807602488
  0
LINE
  5
431
100
AcDbEntity
  8
0
100
AcDbLine
 62
7
  6
CONTINUOUS
 10
108.2695913013
 20
153.3807602488
 11
109.4235913013
 21
153.3807602488
  0
LINE
  5
432
100
AcDbEntity
  8
0
100
AcDbLine
 62
9
  6
CONTINUOUS
 10
88.2855913013
 20
153.4957602488
 11
81.0855913013
 21
153.4957602488
  0
LWPOLYLINE
  5
433
100
AcDbEntity
  8
0
100
AcDbPolyline
 62
7
  6
CONTINUOUS
 90
21
 70
0
 10
97.5515913013
 20
153.6417602488
 10
97.4989700423
 20
153.6420224614
 10
97.4488372422
 20
153.6431004791
 10
97.4016130582
 20
153.6448441545
 10
97.3560370188
 20
153.6477039297
 10
97.3100218248
 20
153.6520372485
 10
97.2664681167
 20
153.6579729587
 10
97.2284047516
 20
153.665213499
 10
97.1933597809
 20
153.6753955403
 10
97.1585454242
 20
153.6903036587
 10
97.1279380349
 20
153.7091965773
 10
97.1052234377
 20
153.732053561
 10
97.0884854379
 20
153.7584975607
 10
97.0773627433
 20
153.7880050938
 10
97.0708764714
 20
153.8209947254
 10
97.0681439518
 20
153.8586782923
 10
97.0685152556
 20
153.8981524963
 10
97.0710369534
 20
153.9355891025
 10
97.0757368758
 20
153.9749747571
 10
97.0822887962
 20
154.0193588486
 10
97.0908014568
 20
154.0677249143
  0
LWPOLYLINE
  5
434
100
AcDbEntity
  8
0
100
AcDbPolyline
 62
7
  6
CONTINUOUS
 90
19
 70
0
 10
103.5647425908
 20
154.6545298324
 10
103.6423180984
 20
154.6492869892
 10
103.7185289158
 20
154.6430547453
 10
103.7918968867
 20
154.6358637734
 10
103.8613234532
 20
154.6277429986
 10
103.9274549643
 20
154.6185444061
 10
103.9902039867
 20
154.608299866
 10
104.0506733082
 20
154.5964986476
 10
104.1108933456
 20
154.5824956352
 10
104.1679937792
 20
154.566725853
 10
104.2193363372
 20
154.5496029681
 10
104.2662552928
 20
154.5305459361
 10
104.3092930813
 20
154.5093403568
 10
104.3481869446
 20
154.4852999651
 10
104.38333063
 20
154.457531855
 10
104.4132970562
 20
154.4264415482
 10
104.4367619349
 20
154.3922172349
 10
104.4538106331
 20
154.3546180042
 10
104.4640425808
 20
154.3134434029
  0
LWPOLYLINE
  5
435
100
AcDbEntity
  8
0
100
AcDbPolyline
 62
7
  6
CONTINUOUS
 90
7
 70
0
 10
97.3965073758
 20
159.4671170502
 10
97.4108944468
 20
159.4639694513
 10
97.4250802998
 20
159.4606195914
 10
97.4390708339
 20
159.4570760068
 10
97.4528483522
 20
159.4533130886
 10
97.466395158
 20
159.4493052275
 10
97.4797171503
 20
159.4450609599
  0
LINE
  5
436
100
AcDbEntity
  8
RUNDUNGEN
100
AcDbLine
 62
9
  6
CONTINUOUS
 10
128.2855913013
 20
159.9257602488
 11
128.2855913013
 21
152.9257602488
  0
LINE
  5
437
100
AcDbEntity
  8
RUNDUNGEN
100
AcDbLine
 62
7
  6
CONTINUOUS
 10
128.7855913013
 20
159.4257602488
 11
128.7855913013
 21
153.4257602488
  0
LINE
  5
438
100
AcDbEntity
  8
0
100
AcDbLine
 62
7
  6
CONTINUOUS
 10
95.8388655733
 20
153.717644837
 11
94.3108655733
 21
153.717644837
  0
LINE
  5
439
100
AcDbEntity
  8
0
100
AcDbLine
 62
7
  6
CONTINUOUS
 10
94.3407766304
 20
153.8886363802
 11
95.5207766304
 21
153.8886363802
  0
LINE
  5
43A
100
AcDbEntity
  8
BEZUGSACHSEN
100
AcDbLine
 62
7
  6
CONTINUOUS
 10
179.2552354389
 20
153.9257602488
 11
128.7855913013
 21
153.9257602488
  0
LINE
  5
43B
100
AcDbEntity
  8
0
100
AcDbLine
 62
7
  6
CONTINUOUS
 10
95.5769499084
 20
154.2097602859
 11
94.3969499084
 21
154.2097602859
  0
LINE
  5
43C
100
AcDbEntity
  8
0
100
AcDbLine
 62
7
  6
CONTINUOUS
 10
94.424174994
 20
154.3653970255
 11
95.880174994
 21
154.3653970255
  0
LINE
  5
43D
100
AcDbEntity
  8
0
100
AcDbLine
 62
7
  6
CONTINUOUS
 10
99.2835913013
 20
154.3677602488
 11
99.9755913013
 21
154.3677602488
  0
LINE
  5
43E
100
AcDbEntity
  8
0
100
AcDbLine
 62
7
  6
CONTINUOUS
 10
100.8155913013
 20
154.3677602488
 11
101.5075913013
 21
154.3677602488
  0
LINE
  5
43F
100
AcDbEntity
  8
0
100
AcDbLine
 62
7
  6
CONTINUOUS
 10
109.5855913013
 20
154.6707602488
 11
108.5115913013
 21
154.6707602488
  0
LINE
  5
440
100
AcDbEntity
  8
0
100
AcDbLine
 62
7
  6
CONTINUOUS
 10
107.4335913013
 20
154.6707602488
 11
106.5195913013
 21
154.6707602488
  0
LINE
  5
441
100
AcDbEntity
  8
0
100
AcDbLine
 62
7
  6
CONTINUOUS
 10
106.0215913013
 20
154.6707602488
 11
105.0395913013
 21
154.6707602488
  0
LINE
  5
442
100
AcDbEntity
  8
0
100
AcDbLine
 62
7
  6
CONTINUOUS
 10
101.5675913013
 20
154.6707602488
 11
99.3435913013
 21
154.6707602488
  0
LINE
  5
443
100
AcDbEntity
  8
0
100
AcDbLine
 62
7
  6
CONTINUOUS
 10
99.0855913013
 20
154.6707602488
 11
98.2595913013
 21
154.6707602488
  0
LINE
  5
444
100
AcDbEntity
  8
0
100
AcDbLine
 62
7
  6
CONTINUOUS
 10
97.2035913013
 20
154.6707602488
 11
96.3755913013
 21
154.6707602488
  0
LINE
  5
445
100
AcDbEntity
  8
0
100
AcDbLine
 62
7
  6
CONTINUOUS
 10
95.9335913013
 20
154.6707602488
 11
93.6355913013
 21
154.6707602488
  0
LINE
  5
446
100
AcDbEntity
  8
0
100
AcDbLine
 62
7
  6
CONTINUOUS
 10
93.1598857002
 20
154.6707602488
 11
92.1378857002
 21
154.6707602488
  0
LINE
  5
447
100
AcDbEntity
  8
0
100
AcDbLine
 62
7
  6
CONTINUOUS
 10
91.1037081747
 20
154.6707602488
 11
89.8397081747
 21
154.6707602488
  0
LWPOLYLINE
  5
448
100
AcDbEntity
  8
0
100
AcDbPolyline
 62
7
  6
CONTINUOUS
 90
8
 70
0
 10
101.8475913013
 20
154.6707602488
 10
103.0249391616
 20
154.6704485192
 10
103.1239965287
 20
154.669496334
 10
103.2183448913
 20
154.6679253496
 10
103.3092397835
 20
154.6656705964
 10
103.3983124164
 20
154.6626675519
 10
103.4840172487
 20
154.6589365317
 10
103.5647425908
 20
154.6545298324
  0
LWPOLYLINE
  5
449
100
AcDbEntity
  8
0
100
AcDbPolyline
 62
7
  6
CONTINUOUS
 90
26
 70
0
 10
102.7255913013
 20
154.3925249547
 10
102.8262773886
 20
154.3921879036
 10
102.8734049462
 20
154.3917611723
 10
102.9188117406
 20
154.3911419984
 10
102.9631043203
 20
154.3903119933
 10
103.0057317212
 20
154.3892654065
 10
103.0461011696
 20
154.3880074239
 10
103.084944642
 20
154.3864868477
 10
103.1229889791
 20
154.3846590883
 10
103.1596568146
 20
154.3825095073
 10
103.1945868631
 20
154.3800229627
 10
103.2278577231
 20
154.3771563761
 10
103.2591735272
 20
154.3739335521
 10
103.2892963874
 20
154.3701386993
 10
103.3192891408
 20
154.3655637166
 10
103.3479537441
 20
154.360209337
 10
103.3742172576
 20
154.3541814643
 10
103.3987672071
 20
154.3469564849
 10
103.4223627955
 20
154.3381089605
 10
103.4437160518
 20
154.3274502693
 10
103.4619867139
 20
154.3145491419
 10
103.4765908576
 20
154.2997080828
 10
103.4864923977
 20
154.2831421585
 10
103.4922075552
 20
154.2646824134
 10
103.4939285472
 20
154.2442194224
 10
103.4915913013
 20
154.2217896606
  0
LWPOLYLINE
  5
44A
100
AcDbEntity
  8
0
100
AcDbPolyline
 62
7
  6
CONTINUOUS
 90
7
 70
0
 10
95.1044725805
 20
158.1397462671
 10
95.0504222029
 20
158.1417209739
 10
95.0002664615
 20
158.1490296074
 10
94.953515319
 20
158.1616702259
 10
94.9116388876
 20
158.1796486546
 10
94.8761072795
 20
158.2029707187
 10
94.8464304574
 20
158.2316344763
  0
LWPOLYLINE
  5
44B
100
AcDbEntity
  8
0
100
AcDbPolyline
 62
7
  6
CONTINUOUS
 90
7
 70
0
 10
97.2846124082
 20
158.1737322693
 10
97.2354514535
 20
158.175758089
 10
97.1887698901
 20
158.1814898884
 10
97.1445844255
 20
158.1909921185
 10
97.1028449368
 20
158.2040714258
 10
97.0635013007
 20
158.2205344563
 10
97.0265702249
 20
158.2404456613
  0
LWPOLYLINE
  5
44C
100
AcDbEntity
  8
0
100
AcDbPolyline
 62
7
  6
CONTINUOUS
 90
7
 70
0
 10
92.0243325382
 20
157.6060399686
 10
92.0048203898
 20
157.6069474548
 10
91.9849423129
 20
157.6093061374
 10
91.9646693135
 20
157.6131647222
 10
91.944088374
 20
157.6183770921
 10
91.9232864772
 20
157.6247971297
 10
91.9022346288
 20
157.6324735408
  0
LWPOLYLINE
  5
44D
100
AcDbEntity
  8
0
100
AcDbPolyline
 62
7
  6
CONTINUOUS
 90
7
 70
0
 10
93.6858711153
 20
159.0397462403
 10
93.727912007
 20
159.0367234054
 10
93.765595927
 20
159.0273803553
 10
93.7990714629
 20
159.0115961528
 10
93.8278928523
 20
158.9897336096
 10
93.8516143331
 20
158.9621555374
 10
93.8703844926
 20
158.928740999
  0
LINE
  5
44E
100
AcDbEntity
  8
0
100
AcDbLine
 62
7
  6
CONTINUOUS
 10
93.6808360725
 20
158.1397462671
 11
93.6411377816
 21
158.1428905525
  0
LWPOLYLINE
  5
44F
100
AcDbEntity
  8
0
100
AcDbPolyline
 62
7
  6
CONTINUOUS
 90
7
 70
0
 10
93.7815354257
 20
157.9056203879
 10
93.8289345802
 20
157.9080276747
 10
93.873640775
 20
157.9148753536
 10
93.9155631356
 20
157.9261940596
 10
93.9549742858
 20
157.9418918875
 10
93.9921468497
 20
157.9618769322
 10
94.0269899525
 20
157.9861798288
  0
LWPOLYLINE
  5
450
100
AcDbEntity
  8
0
100
AcDbPolyline
 62
7
  6
CONTINUOUS
 90
7
 70
0
 10
92.0885283142
 20
157.3530329858
 10
92.1376919142
 20
157.3555026587
 10
92.1834804285
 20
157.3627765793
 10
92.2259824934
 20
157.3749352099
 10
92.2649322004
 20
157.3917371639
 10
92.3000636409
 20
157.4129410549
 10
92.3314654511
 20
157.4386273449
  0
LWPOLYLINE
  5
451
100
AcDbEntity
  8
0
100
AcDbPolyline
 62
7
  6
CONTINUOUS
 90
7
 70
0
 10
95.0704862028
 20
157.9056203879
 10
95.1336894117
 20
157.9077071654
 10
95.1981602809
 20
157.9144971997
 10
95.2639282837
 20
157.9259113566
 10
95.3309050001
 20
157.9421870386
 10
95.3990020103
 20
157.9635616484
 10
95.4682487875
 20
157.9899560516
  0
LWPOLYLINE
  5
452
100
AcDbEntity
  8
0
100
AcDbPolyline
 62
7
  6
CONTINUOUS
 90
7
 70
0
 10
97.2544025808
 20
157.9005854239
 10
97.2930908589
 20
157.9011110816
 10
97.331395298
 20
157.902649073
 10
97.3692972095
 20
157.9052038491
 10
97.406852659
 20
157.9087620569
 10
97.4441177118
 20
157.9133103433
 10
97.4810736795
 20
157.9188531595
  0
LINE
  5
453
100
AcDbEntity
  8
0
100
AcDbLine
 62
7
  6
CONTINUOUS
 10
93.4341228395
 20
157.3693966066
 11
93.1144024521
 21
157.3693966066
  0
LINE
  5
454
100
AcDbEntity
  8
0
100
AcDbLine
 62
7
  6
CONTINUOUS
 10
91.3181787341
 20
157.9257602488
 11
90.9883885294
 21
157.9257602488
  0
LINE
  5
455
100
AcDbEntity
  8
0
100
AcDbLine
 62
7
  6
CONTINUOUS
 10
93.4391576677
 20
158.1170889233
 11
93.4341228395
 21
158.1170889233
  0
LINE
  5
456
100
AcDbEntity
  8
0
100
AcDbLine
 62
7
  6
CONTINUOUS
 10
92.3818149954
 20
158.2505154913
 11
92.3868500381
 21
158.2505154913
  0
LINE
  5
457
100
AcDbEntity
  8
0
100
AcDbLine
 62
7
  6
CONTINUOUS
 10
95.5349619776
 20
158.5022637402
 11
94.7671296507
 21
158.5022637402
  0
LINE
  5
458
100
AcDbEntity
  8
0
100
AcDbLine
 62
7
  6
CONTINUOUS
 10
94.7671296507
 20
158.7036623393
 11
95.2253114611
 21
158.7036623393
  0
LINE
  5
459
100
AcDbEntity
  8
BEZUGSACHSEN
100
AcDbLine
 62
7
  6
CONTINUOUS
 10
128.7855913013
 20
158.9257602488
 11
179.2552354389
 21
158.9257602488
  0
LINE
  5
45A
100
AcDbEntity
  8
0
100
AcDbLine
 62
7
  6
CONTINUOUS
 10
93.412724176
 20
159.0472986971
 11
93.4202766329
 21
159.0472986971
  0
LINE
  5
45B
100
AcDbEntity
  8
0
100
AcDbLine
 62
7
  6
CONTINUOUS
 10
91.7839129477
 20
159.2537322317
 11
92.1137032061
 21
159.2537322317
  0
LINE
  5
45C
100
AcDbEntity
  8
0
100
AcDbLine
 62
7
  6
CONTINUOUS
 10
92.642374435
 20
159.2537322317
 11
92.9520249515
 21
159.2537322317
  0
LINE
  5
45D
100
AcDbEntity
  8
0
100
AcDbLine
 62
7
  6
CONTINUOUS
 10
93.1043325811
 20
159.2537322317
 11
93.4026543051
 21
159.2537322317
  0
LINE
  5
45E
100
AcDbEntity
  8
0
100
AcDbLine
 62
9
  6
CONTINUOUS
 10
88.2855913013
 20
159.3557602488
 11
81.0855913013
 21
159.3557602488
  0
LINE
  5
45F
100
AcDbEntity
  8
0
100
AcDbLine
 62
7
  6
CONTINUOUS
 10
91.7171996504
 20
159.4626832878
 11
91.3181787341
 21
159.4626832878
  0
LINE
  5
460
100
AcDbEntity
  8
0
100
AcDbLine
 62
7
  6
CONTINUOUS
 10
90.9883885294
 20
159.4626832878
 11
90.5855913009
 21
159.4626832878
  0
LINE
  5
461
100
AcDbEntity
  8
0
100
AcDbLine
 62
7
  6
CONTINUOUS
 10
90.5855913009
 20
159.7257602488
 11
91.7171996504
 21
159.7257602488
  0
LINE
  5
462
100
AcDbEntity
  8
RUNDUNGEN
100
AcDbLine
 62
7
  6
CONTINUOUS
 10
128.2855913013
 20
159.9257602488
 11
120.2855913013
 21
159.9257602488
  0
LWPOLYLINE
  5
463
100
AcDbEntity
  8
0
100
AcDbPolyline
 62
7
  6
CONTINUOUS
 90
7
 70
0
 10
97.2846124082
 20
159.4777882015
 10
97.3041683098
 20
159.4775310192
 10
97.3233763155
 20
159.4766775686
 10
97.3422503004
 20
159.4752393517
 10
97.360748639
 20
159.4731818624
 10
97.3788297057
 20
159.4704705945
 10
97.3965073758
 20
159.4671170502
  0
LWPOLYLINE
  5
464
100
AcDbEntity
  8
0
100
AcDbPolyline
 62
7
  6
CONTINUOUS
 90
19
 70
0
 10
95.0037730127
 20
159.0573686754
 10
95.0294281413
 20
159.0563067855
 10
95.0544150593
 20
159.0520900323
 10
95.079022196
 20
159.0447556366
 10
95.1023842634
 20
159.0341919361
 10
95.1238064203
 20
159.0200702318
 10
95.143065756
 20
159.0030788559
 10
95.1596296008
 20
158.9835187768
 10
95.1737323915
 20
158.9622233872
 10
95.1852545379
 20
158.9401766182
 10
95.1947254512
 20
158.9172278232
 10
95.2025863831
 20
158.8935631836
 10
95.2089822212
 20
158.8691561464
 10
95.2141772533
 20
158.8441047701
 10
95.2182545304
 20
158.818221401
 10
95.2213825272
 20
158.7914136348
 10
95.2235692604
 20
158.7634937815
 10
95.2248869269
 20
158.7342160382
 10
95.2253114611
 20
158.7036623393
  0
LINE
  5
465
100
AcDbEntity
  8
0
100
AcDbLine
 62
7
  6
CONTINUOUS
 10
93.7264966576
 20
158.1449419654
 11
93.6808360725
 21
158.1397462671
  0
LWPOLYLINE
  5
466
100
AcDbEntity
  8
0
100
AcDbPolyline
 62
7
  6
CONTINUOUS
 90
7
 70
0
 10
95.0037730127
 20
159.2738721882
 10
94.9495922838
 20
159.2711101487
 10
94.898039725
 20
159.2632924768
 10
94.8492583694
 20
159.2504122577
 10
94.8028191177
 20
159.2324902356
 10
94.7582928706
 20
159.2095471544
 10
94.7158226611
 20
159.1815760995
  0
LWPOLYLINE
  5
467
100
AcDbEntity
  8
0
100
AcDbPolyline
 62
7
  6
CONTINUOUS
 90
7
 70
0
 10
93.7739829689
 20
159.2738721882
 10
93.7297114714
 20
159.2723483124
 10
93.6878938656
 20
159.2672022295
 10
93.6482919885
 20
159.2584250683
 10
93.6116203293
 20
159.2460434422
 10
93.5785933771
 20
159.2300839642
 10
93.5489729687
 20
159.2105377634
  0
LWPOLYLINE
  5
468
100
AcDbEntity
  8
0
100
AcDbPolyline
 62
7
  6
CONTINUOUS
 90
7
 70
0
 10
97.2430737882
 20
159.7509350335
 10
97.1781031067
 20
159.7489816203
 10
97.1158017179
 20
159.743212978
 10
97.0561000343
 20
159.7335680495
 10
96.999206819
 20
159.7202300058
 10
96.9453308351
 20
159.703382018
 10
96.894402495
 20
159.682963029
  0
LINE
  5
469
100
AcDbEntity
  8
0
100
AcDbLine
 62
7
  6
CONTINUOUS
 10
81.0855913013
 20
160.5657602488
 11
88.2855913013
 21
160.5657602488
  0
LINE
  5
46A
100
AcDbEntity
  8
RUNDUNGEN
100
AcDbLine
 62
9
  6
CONTINUOUS
 10
88.2855913013
 20
161.1757602488
 11
111.1241534735
 21
161.1757602488
  0
LINE
  5
46B
100
AcDbEntity
  8
RUNDUNGEN
100
AcDbLine
 62
9
  6
CONTINUOUS
 10
112.447029129
 20
161.1757602488
 11
114.1241534735
 21
161.1757602488
  0
LINE
  5
46C
100
AcDbEntity
  8
RUNDUNGEN
100
AcDbLine
 62
9
  6
CONTINUOUS
 10
115.447029129
 20
161.1757602488
 11
117.1241534735
 21
161.1757602488
  0
LINE
  5
46D
100
AcDbEntity
  8
RUNDUNGEN
100
AcDbLine
 62
9
  6
CONTINUOUS
 10
118.447029129
 20
161.1757602488
 11
119.7855913013
 21
161.1757602488
  0
LINE
  5
46E
100
AcDbEntity
  8
0
100
AcDbLine
 62
7
  6
CONTINUOUS
 10
103.8855913013
 20
162.4757602488
 11
102.8855913013
 21
162.4757602488
  0
LWPOLYLINE
  5
46F
100
AcDbEntity
  8
0
100
AcDbPolyline
 62
7
  6
CONTINUOUS
 90
7
 70
0
 10
95.2605263204
 20
158.1549862175
 10
95.2360863875
 20
158.1501216757
 10
95.2109938855
 20
158.1462173533
 10
95.1852254149
 20
158.1433017497
 10
95.1588511744
 20
158.1412893667
 10
95.1319413628
 20
158.140094706
 10
95.1044725805
 20
158.1397462671
  0
LWPOLYLINE
  5
470
100
AcDbEntity
  8
0
100
AcDbPolyline
 62
7
  6
CONTINUOUS
 90
7
 70
0
 10
97.4810736795
 20
157.9188531595
 10
97.5110717456
 20
157.924060087
 10
97.5399761568
 20
157.9301032316
 10
97.5678684066
 20
157.9368486403
 10
97.5945040147
 20
157.9446981718
 10
97.6196385006
 20
157.9540536849
 10
97.6433533579
 20
157.9647812267
  0
LINE
  5
471
100
AcDbEntity
  8
RUNDUNGEN
100
AcDbLine
 62
7
  6
CONTINUOUS
 10
118.7855913013
 20
163.6757602488
 11
105.5993689094
 21
163.6757602488
  0
LINE
  5
472
100
AcDbEntity
  8
RUNDUNGEN
100
AcDbLine
 62
7
  6
CONTINUOUS
 10
102.5993689094
 20
163.6757602488
 11
89.2855913013
 21
163.6757602488
  0
LINE
  5
473
100
AcDbEntity
  8
0
100
AcDbLine
 62
2
  6
CONTINUOUS
 10
179.2552354389
 20
153.9257602488
 11
179.2552354389
 21
158.9257602488
  0
LINE
  5
474
100
AcDbEntity
  8
0
100
AcDbLine
 62
2
  6
CONTINUOUS
 10
245.645632831
 20
158.9257602488
 11
245.645632831
 21
153.9257602488
  0
LWPOLYLINE
  5
475
100
AcDbEntity
  8
0
100
AcDbPolyline
 62
7
  6
CONTINUOUS
 90
7
 70
0
 10
357.4196745693
 20
154.6965342801
 10
357.4440497577
 20
154.7013892258
 10
357.4691030417
 20
154.7052893031
 10
357.4948574729
 20
154.7082074309
 10
357.5212438967
 20
154.710224853
 10
357.5481931582
 20
154.7114228133
 10
357.5757283092
 20
154.7117742305
  0
LWPOLYLINE
  5
476
100
AcDbEntity
  8
0
100
AcDbPolyline
 62
7
  6
CONTINUOUS
 90
7
 70
0
 10
355.1991272102
 20
154.932667338
 10
355.1690175612
 20
154.927437621
 10
355.1400475256
 20
154.9213776787
 10
355.1121368525
 20
154.9146185352
 10
355.0855262947
 20
154.9067671181
 10
355.0604566047
 20
154.8974303553
 10
355.0368475319
 20
154.8867392709
  0
LWPOLYLINE
  5
477
100
AcDbEntity
  8
0
100
AcDbPolyline
 62
7
  6
CONTINUOUS
 90
7
 70
0
 10
357.676427877
 20
153.5776483094
 10
357.7306910965
 20
153.5804369329
 10
357.7822124762
 20
153.5882372443
 10
357.8307733515
 20
153.6010249292
 10
357.877029716
 20
153.6188729306
 10
357.9216375632
 20
153.6418541917
 10
357.9643782286
 20
153.6699443981
  0
LWPOLYLINE
  5
478
100
AcDbEntity
  8
0
100
AcDbPolyline
 62
7
  6
CONTINUOUS
 90
7
 70
0
 10
358.898665464
 20
154.9459001097
 10
358.8511669837
 20
154.9434749313
 10
358.8064106532
 20
154.936613354
 10
358.7644962157
 20
154.9252817773
 10
358.7251244416
 20
154.9095810033
 10
358.687996101
 20
154.889611834
 10
358.6532109372
 20
154.8653406687
  0
LWPOLYLINE
  5
479
100
AcDbEntity
  8
0
100
AcDbPolyline
 62
7
  6
CONTINUOUS
 90
7
 70
0
 10
358.9062179208
 20
153.5776483094
 10
358.9507136122
 20
153.5792002612
 10
358.9926585924
 20
153.5843772565
 10
359.0322843288
 20
153.5932013538
 10
359.068896419
 20
153.6056063773
 10
359.1018004606
 20
153.6215261512
 10
359.131227921
 20
153.6409827342
  0
LWPOLYLINE
  5
47A
100
AcDbEntity
  8
0
100
AcDbPolyline
 62
7
  6
CONTINUOUS
 90
7
 70
0
 10
355.4371271015
 20
153.1005854641
 10
355.5023445313
 20
153.1025648391
 10
355.5647758229
 20
153.1083552007
 10
355.6244735521
 20
153.1180233644
 10
355.6812799915
 20
153.1313688841
 10
355.7350374138
 20
153.1481913137
 10
355.7857983947
 20
153.1685574685
  0
LINE
  5
47B
100
AcDbEntity
  8
RUNDUNGEN
100
AcDbLine
 62
7
  6
CONTINUOUS
 10
333.8946095884
 20
149.1757602488
 11
347.0808319804
 21
149.1757602488
  0
LINE
  5
47C
100
AcDbEntity
  8
RUNDUNGEN
100
AcDbLine
 62
7
  6
CONTINUOUS
 10
350.0808319804
 20
149.1757602488
 11
363.3946095884
 21
149.1757602488
  0
LINE
  5
47D
100
AcDbEntity
  8
0
100
AcDbLine
 62
7
  6
CONTINUOUS
 10
348.7946095884
 20
150.3757602488
 11
349.7946095884
 21
150.3757602488
  0
LINE
  5
47E
100
AcDbEntity
  8
RUNDUNGEN
100
AcDbLine
 62
9
  6
CONTINUOUS
 10
332.8946095884
 20
151.6757602488
 11
334.2331717607
 21
151.6757602488
  0
LINE
  5
47F
100
AcDbEntity
  8
RUNDUNGEN
100
AcDbLine
 62
9
  6
CONTINUOUS
 10
335.5560474162
 20
151.6757602488
 11
337.2331717607
 21
151.6757602488
  0
LINE
  5
480
100
AcDbEntity
  8
RUNDUNGEN
100
AcDbLine
 62
9
  6
CONTINUOUS
 10
338.5560474162
 20
151.6757602488
 11
340.2331717607
 21
151.6757602488
  0
LINE
  5
481
100
AcDbEntity
  8
RUNDUNGEN
100
AcDbLine
 62
9
  6
CONTINUOUS
 10
341.5560474162
 20
151.6757602488
 11
364.3946095884
 21
151.6757602488
  0
LINE
  5
482
100
AcDbEntity
  8
0
100
AcDbLine
 62
7
  6
CONTINUOUS
 10
364.3946095884
 20
152.2857602488
 11
371.0446095884
 21
152.2857602488
  0
LWPOLYLINE
  5
483
100
AcDbEntity
  8
0
100
AcDbPolyline
 62
7
  6
CONTINUOUS
 90
7
 70
0
 10
360.5916725755
 20
155.4984875118
 10
360.5423954345
 20
155.4959859939
 10
360.4966054939
 20
155.4887197696
 10
360.454276647
 20
155.4766335051
 10
360.4154872134
 20
155.4598932022
 10
360.3803155128
 20
155.4386648627
 10
360.3487354386
 20
155.4128931527
  0
LWPOLYLINE
  5
484
100
AcDbEntity
  8
0
100
AcDbPolyline
 62
7
  6
CONTINUOUS
 90
7
 70
0
 10
357.6097146869
 20
154.9459001097
 10
357.5467439017
 20
154.9438377896
 10
357.4824235892
 20
154.9370762035
 10
357.4167346844
 20
154.9257073984
 10
357.3497343818
 20
154.9094552332
 10
357.2814798761
 20
154.8880435667
 10
357.2119521022
 20
154.861564446
  0
LWPOLYLINE
  5
485
100
AcDbEntity
  8
0
100
AcDbPolyline
 62
7
  6
CONTINUOUS
 90
7
 70
0
 10
355.4257983089
 20
154.9509350737
 10
355.3871100308
 20
154.950409416
 10
355.3488055917
 20
154.9488714246
 10
355.3109036802
 20
154.9463166485
 10
355.2733482307
 20
154.9427584407
 10
355.2360831779
 20
154.9382101542
 10
355.1991272102
 20
154.932667338
  0
LINE
  5
486
100
AcDbEntity
  8
RUNDUNGEN
100
AcDbLine
 62
7
  6
CONTINUOUS
 10
332.3946095884
 20
152.9257602488
 11
324.3946095884
 21
152.9257602488
  0
LINE
  5
487
100
AcDbEntity
  8
0
100
AcDbLine
 62
7
  6
CONTINUOUS
 10
362.0946095888
 20
153.1257602488
 11
360.9630012394
 21
153.1257602488
  0
LINE
  5
488
100
AcDbEntity
  8
0
100
AcDbLine
 62
7
  6
CONTINUOUS
 10
360.9630012394
 20
153.3888372098
 11
361.3620221556
 21
153.3888372098
  0
LINE
  5
489
100
AcDbEntity
  8
0
100
AcDbLine
 62
7
  6
CONTINUOUS
 10
361.6918123603
 20
153.3888372098
 11
362.0946095888
 21
153.3888372098
  0
LINE
  5
48A
100
AcDbEntity
  8
0
100
AcDbLine
 62
9
  6
CONTINUOUS
 10
364.3946095884
 20
153.4957602488
 11
371.0446095884
 21
153.4957602488
  0
LINE
  5
48B
100
AcDbEntity
  8
0
100
AcDbLine
 62
7
  6
CONTINUOUS
 10
360.896287942
 20
153.5977882658
 11
360.5664976836
 21
153.5977882658
  0
LINE
  5
48C
100
AcDbEntity
  8
0
100
AcDbLine
 62
7
  6
CONTINUOUS
 10
360.0378264547
 20
153.5977882658
 11
359.7281759382
 21
153.5977882658
  0
LINE
  5
48D
100
AcDbEntity
  8
0
100
AcDbLine
 62
7
  6
CONTINUOUS
 10
359.5758683086
 20
153.5977882658
 11
359.2775465847
 21
153.5977882658
  0
LINE
  5
48E
100
AcDbEntity
  8
0
100
AcDbLine
 62
7
  6
CONTINUOUS
 10
359.2674767137
 20
153.8042218005
 11
359.2599242569
 21
153.8042218005
  0
LINE
  5
48F
100
AcDbEntity
  8
BEZUGSACHSEN
100
AcDbLine
 62
7
  6
CONTINUOUS
 10
323.8946095884
 20
153.9257602488
 11
245.645632831
 21
153.9257602488
  0
LINE
  5
490
100
AcDbEntity
  8
0
100
AcDbLine
 62
7
  6
CONTINUOUS
 10
357.9130712391
 20
154.1478581582
 11
357.4548894287
 21
154.1478581582
  0
LINE
  5
491
100
AcDbEntity
  8
0
100
AcDbLine
 62
7
  6
CONTINUOUS
 10
357.1452389122
 20
154.3492567574
 11
357.9130712391
 21
154.3492567574
  0
LINE
  5
492
100
AcDbEntity
  8
0
100
AcDbLine
 62
7
  6
CONTINUOUS
 10
360.2983858944
 20
154.6010050063
 11
360.2933508516
 21
154.6010050063
  0
LINE
  5
493
100
AcDbEntity
  8
0
100
AcDbLine
 62
7
  6
CONTINUOUS
 10
359.241043222
 20
154.7344315742
 11
359.2460780502
 21
154.7344315742
  0
LINE
  5
494
100
AcDbEntity
  8
0
100
AcDbLine
 62
7
  6
CONTINUOUS
 10
361.3620221556
 20
154.9257602488
 11
361.6918123603
 21
154.9257602488
  0
LINE
  5
495
100
AcDbEntity
  8
0
100
AcDbLine
 62
7
  6
CONTINUOUS
 10
359.2460780502
 20
155.482123891
 11
359.5657984377
 21
155.482123891
  0
LWPOLYLINE
  5
496
100
AcDbEntity
  8
0
100
AcDbPolyline
 62
7
  6
CONTINUOUS
 90
7
 70
0
 10
355.3955884815
 20
153.3737322961
 10
355.375991694
 20
153.3739913447
 10
355.3567593787
 20
153.3748468069
 10
355.3378778684
 20
153.3762880166
 10
355.3193881646
 20
153.3783469718
 10
355.3013312689
 20
153.3810556708
 10
355.283693514
 20
153.3844034474
  0
LWPOLYLINE
  5
497
100
AcDbEntity
  8
0
100
AcDbPolyline
 62
7
  6
CONTINUOUS
 90
7
 70
0
 10
357.5757283092
 20
154.7117742305
 10
357.6300663304
 20
154.7097533802
 10
357.680361104
 20
154.7024061138
 10
357.7270712106
 20
154.6897241103
 10
357.7688209083
 20
154.6717323324
 10
357.8042344554
 20
154.6484557431
 10
357.8337704323
 20
154.6198860213
  0
LWPOLYLINE
  5
498
100
AcDbEntity
  8
0
100
AcDbPolyline
 62
7
  6
CONTINUOUS
 90
7
 70
0
 10
355.3955884815
 20
154.6777882283
 10
355.4449664237
 20
154.675732331
 10
355.4917656227
 20
154.6699739312
 10
355.5359575988
 20
154.6604405584
 10
355.5776277914
 20
154.6473496242
 10
355.61686164
 20
154.6309185403
 10
355.6536306648
 20
154.6110748363
  0
LWPOLYLINE
  5
499
100
AcDbEntity
  8
0
100
AcDbPolyline
 62
7
  6
CONTINUOUS
 90
9
 70
0
 10
358.9943297744
 20
153.8117742573
 10
358.9623299947
 20
153.8134914196
 10
358.9327647252
 20
153.8187539291
 10
358.905569843
 20
153.8275834099
 10
358.880937717
 20
153.8399149899
 10
358.8590456744
 20
153.8557440368
 10
358.8398747177
 20
153.8749114564
 10
358.8234699726
 20
153.8972365305
 10
358.8098163971
 20
153.9227794985
  0
LWPOLYLINE
  5
49A
100
AcDbEntity
  8
0
100
AcDbPolyline
 62
7
  6
CONTINUOUS
 90
41
 70
0
 10
355.1742655651
 20
159.4707602488
 10
355.1006235759
 20
159.4705635461
 10
355.0287763167
 20
159.4698971401
 10
354.9587413385
 20
159.4687745651
 10
354.8904659881
 20
159.4671552182
 10
354.8239115989
 20
159.4650127423
 10
354.7590537623
 20
159.4623179348
 10
354.6958555688
 20
159.4590580974
 10
354.6343158544
 20
159.4551573595
 10
354.5744095758
 20
159.4505744427
 10
354.5161714606
 20
159.4451928725
 10
354.4595985053
 20
159.4388991089
 10
354.4047788596
 20
159.4316430693
 10
354.3517682018
 20
159.4233461981
 10
354.3006609427
 20
159.4139803735
 10
354.2515793995
 20
159.4035344248
 10
354.2044955306
 20
159.391878943
 10
354.1594238502
 20
159.37894285
 10
354.1163590087
 20
159.364539983
 10
354.0752314383
 20
159.348469432
 10
354.0362483088
 20
159.3307043596
 10
353.999502439
 20
159.3110904559
 10
353.9652673144
 20
159.289809228
 10
353.9337384528
 20
159.2667635887
 10
353.9052425759
 20
159.2426350104
 10
353.8803074422
 20
159.2178937291
 10
353.8585254586
 20
159.1930763662
 10
353.8398473638
 20
159.1689203426
 10
353.8237259215
 20
159.1452934961
 10
353.8097263244
 20
159.1224138314
 10
353.7974620247
 20
159.0999682688
 10
353.7864487534
 20
159.0778097214
 10
353.7765448675
 20
159.0556582154
 10
353.7674574748
 20
159.0331692379
 10
353.759156054
 20
159.0103893195
 10
353.7515093456
 20
158.9872034867
 10
353.7445266712
 20
158.9637517394
 10
353.7381890978
 20
158.9401134892
 10
353.7324501296
 20
158.9163555269
 10
353.727250359
 20
158.892582771
 10
353.7226095884
 20
158.8687602488
  0
LINE
  5
49B
100
AcDbEntity
  8
0
100
AcDbLine
 62
7
  6
CONTINUOUS
 10
362.840492715
 20
158.1807602488
 11
361.576492715
 21
158.1807602488
  0
LINE
  5
49C
100
AcDbEntity
  8
0
100
AcDbLine
 62
7
  6
CONTINUOUS
 10
360.5423151896
 20
158.1807602488
 11
359.5203151896
 21
158.1807602488
  0
LINE
  5
49D
100
AcDbEntity
  8
0
100
AcDbLine
 62
7
  6
CONTINUOUS
 10
359.0446095884
 20
158.1807602488
 11
356.7466095884
 21
158.1807602488
  0
LINE
  5
49E
100
AcDbEntity
  8
0
100
AcDbLine
 62
7
  6
CONTINUOUS
 10
356.3046095884
 20
158.1807602488
 11
355.4766095884
 21
158.1807602488
  0
LINE
  5
49F
100
AcDbEntity
  8
0
100
AcDbLine
 62
7
  6
CONTINUOUS
 10
354.4206095884
 20
158.1807602488
 11
353.5946095884
 21
158.1807602488
  0
LINE
  5
4A0
100
AcDbEntity
  8
0
100
AcDbLine
 62
7
  6
CONTINUOUS
 10
353.3366095884
 20
158.1807602488
 11
351.1126095884
 21
158.1807602488
  0
LINE
  5
4A1
100
AcDbEntity
  8
0
100
AcDbLine
 62
7
  6
CONTINUOUS
 10
347.6406095884
 20
158.1807602488
 11
346.6586095884
 21
158.1807602488
  0
LINE
  5
4A2
100
AcDbEntity
  8
0
100
AcDbLine
 62
7
  6
CONTINUOUS
 10
346.1606095884
 20
158.1807602488
 11
345.2466095884
 21
158.1807602488
  0
LINE
  5
4A3
100
AcDbEntity
  8
0
100
AcDbLine
 62
7
  6
CONTINUOUS
 10
344.1686095884
 20
158.1807602488
 11
343.0946095884
 21
158.1807602488
  0
LINE
  5
4A4
100
AcDbEntity
  8
0
100
AcDbLine
 62
7
  6
CONTINUOUS
 10
351.1726095884
 20
158.4837602488
 11
351.8646095884
 21
158.4837602488
  0
LINE
  5
4A5
100
AcDbEntity
  8
0
100
AcDbLine
 62
7
  6
CONTINUOUS
 10
352.7046095884
 20
158.4837602488
 11
353.3966095884
 21
158.4837602488
  0
LINE
  5
4A6
100
AcDbEntity
  8
0
100
AcDbLine
 62
7
  6
CONTINUOUS
 10
356.8000258957
 20
158.486123472
 11
358.2560258957
 21
158.486123472
  0
LINE
  5
4A7
100
AcDbEntity
  8
0
100
AcDbLine
 62
7
  6
CONTINUOUS
 10
358.2832509814
 20
158.6417602116
 11
357.1032509814
 21
158.6417602116
  0
LINE
  5
4A8
100
AcDbEntity
  8
BEZUGSACHSEN
100
AcDbLine
 62
7
  6
CONTINUOUS
 10
245.645632831
 20
158.9257602488
 11
323.8946095884
 21
158.9257602488
  0
LINE
  5
4A9
100
AcDbEntity
  8
0
100
AcDbLine
 62
7
  6
CONTINUOUS
 10
357.1594242593
 20
158.9628841174
 11
358.3394242593
 21
158.9628841174
  0
LINE
  5
4AA
100
AcDbEntity
  8
0
100
AcDbLine
 62
7
  6
CONTINUOUS
 10
358.3693353164
 20
159.1338756606
 11
356.8413353164
 21
159.1338756606
  0
LINE
  5
4AB
100
AcDbEntity
  8
0
100
AcDbLine
 62
9
  6
CONTINUOUS
 10
364.3946095884
 20
159.3557602488
 11
371.0446095884
 21
159.3557602488
  0
LINE
  5
4AC
100
AcDbEntity
  8
0
100
AcDbLine
 62
7
  6
CONTINUOUS
 10
343.2566095884
 20
159.4707602488
 11
344.4106095884
 21
159.4707602488
  0
LINE
  5
4AD
100
AcDbEntity
  8
0
100
AcDbLine
 62
7
  6
CONTINUOUS
 10
345.5186095884
 20
159.4707602488
 11
346.4326095884
 21
159.4707602488
  0
LINE
  5
4AE
100
AcDbEntity
  8
0
100
AcDbLine
 62
7
  6
CONTINUOUS
 10
346.8946095884
 20
159.4707602488
 11
347.8766095884
 21
159.4707602488
  0
LINE
  5
4AF
100
AcDbEntity
  8
0
100
AcDbLine
 62
7
  6
CONTINUOUS
 10
348.1786095884
 20
159.4707602488
 11
349.2906095884
 21
159.4707602488
  0
LINE
  5
4B0
100
AcDbEntity
  8
0
100
AcDbLine
 62
7
  6
CONTINUOUS
 10
350.1146095884
 20
159.4707602488
 11
351.0366095884
 21
159.4707602488
  0
LINE
  5
4B1
100
AcDbEntity
  8
0
100
AcDbLine
 62
7
  6
CONTINUOUS
 10
352.060055133
 20
159.4707602488
 11
352.900055133
 21
159.4707602488
  0
LINE
  5
4B2
100
AcDbEntity
  8
0
100
AcDbLine
 62
7
  6
CONTINUOUS
 10
356.9002655651
 20
159.4707602488
 11
359.2702655651
 21
159.4707602488
  0
LINE
  5
4B3
100
AcDbEntity
  8
0
100
AcDbLine
 62
7
  6
CONTINUOUS
 10
359.774432063
 20
159.4707602488
 11
360.960432063
 21
159.4707602488
  0
LINE
  5
4B4
100
AcDbEntity
  8
0
100
AcDbLine
 62
7
  6
CONTINUOUS
 10
362.1006095884
 20
159.4707602488
 11
363.0946095884
 21
159.4707602488
  0
LINE
  5
4B5
100
AcDbEntity
  8
RUNDUNGEN
100
AcDbLine
 62
7
  6
CONTINUOUS
 10
324.3946095884
 20
159.9257602488
 11
332.3946095884
 21
159.9257602488
  0
LINE
  5
4B6
100
AcDbEntity
  8
0
100
AcDbLine
 62
7
  6
CONTINUOUS
 10
364.3946095884
 20
160.5657602488
 11
371.0446095884
 21
160.5657602488
  0
LINE
  5
4B7
100
AcDbEntity
  8
RUNDUNGEN
100
AcDbLine
 62
9
  6
CONTINUOUS
 10
364.3946095884
 20
161.1757602488
 11
341.5560474162
 21
161.1757602488
  0
LINE
  5
4B8
100
AcDbEntity
  8
RUNDUNGEN
100
AcDbLine
 62
9
  6
CONTINUOUS
 10
332.8946095884
 20
161.1757602488
 11
334.2331717607
 21
161.1757602488
  0
LINE
  5
4B9
100
AcDbEntity
  8
RUNDUNGEN
100
AcDbLine
 62
9
  6
CONTINUOUS
 10
335.5560474162
 20
161.1757602488
 11
337.2331717607
 21
161.1757602488
  0
LINE
  5
4BA
100
AcDbEntity
  8
RUNDUNGEN
100
AcDbLine
 62
9
  6
CONTINUOUS
 10
338.5560474162
 20
161.1757602488
 11
340.2331717607
 21
161.1757602488
  0
LWPOLYLINE
  5
4BB
100
AcDbEntity
  8
0
100
AcDbPolyline
 62
7
  6
CONTINUOUS
 90
38
 70
0
 10
355.1286095884
 20
159.2097602488
 10
355.1543649742
 20
159.2097048236
 10
355.1806877391
 20
159.2094480224
 10
355.2077457553
 20
159.2090080077
 10
355.2350354064
 20
159.2083302914
 10
355.2622160753
 20
159.207376066
 10
355.2889666366
 20
159.2061164521
 10
355.3149162998
 20
159.2045048671
 10
355.3398734424
 20
159.2025556122
 10
355.3635258812
 20
159.200268012
 10
355.3858645076
 20
159.1976404132
 10
355.4066966963
 20
159.194687088
 10
355.4262608147
 20
159.1913595857
 10
355.4445882031
 20
159.1876735072
 10
355.4621073175
 20
159.1834509697
 10
355.4792618485
 20
159.1786044876
 10
355.4960374327
 20
159.1728784702
 10
355.5127130977
 20
159.1660532504
 10
355.5288523605
 20
159.1579335725
 10
355.5442317603
 20
159.1482584245
 10
355.558491259
 20
159.1370054077
 10
355.5712880042
 20
159.1238782384
 10
355.5823469788
 20
159.1094375598
 10
355.5911402846
 20
159.0941111605
 10
355.5980837118
 20
159.0780013201
 10
355.603321822
 20
159.0614004404
 10
355.6071404015
 20
159.0441659436
 10
355.6098517631
 20
159.0263060955
 10
355.6115208887
 20
159.0076607675
 10
355.6123113297
 20
158.9880847054
 10
355.6122396908
 20
158.9675415521
 10
355.6113583135
 20
158.9458690779
 10
355.6097235399
 20
158.9232996457
 10
355.6073582783
 20
158.8998601217
 10
355.6044151716
 20
158.8760047663
 10
355.6010062448
 20
158.8520545966
 10
355.5972762606
 20
158.8284362085
 10
355.5934300863
 20
158.8057499043
  0
LWPOLYLINE
  5
4BC
100
AcDbEntity
  8
0
100
AcDbPolyline
 62
7
  6
CONTINUOUS
 90
24
 70
0
 10
350.8326095884
 20
158.1807602488
 10
349.6467066605
 20
158.1811285081
 10
349.5397893461
 20
158.1822555625
 10
349.4381178554
 20
158.1841335043
 10
349.3409115574
 20
158.1867860572
 10
349.2473017129
 20
158.1902107548
 10
349.1578128564
 20
158.1944782589
 10
349.0729755783
 20
158.1996257661
 10
348.9919029721
 20
158.2057512054
 10
348.9137433804
 20
158.2129444936
 10
348.8389216469
 20
158.2212668639
 10
348.7676939239
 20
158.2307332521
 10
348.6997146281
 20
158.2415724663
 10
348.6346091556
 20
158.2539333475
 10
348.5727207202
 20
158.2680707324
 10
348.5141408281
 20
158.2841945484
 10
348.4592499984
 20
158.3025883637
 10
348.4083302197
 20
158.3233423857
 10
348.3617685897
 20
158.3472466238
 10
348.3196761228
 20
158.3749271772
 10
348.2831630581
 20
158.406965984
 10
348.2529338222
 20
158.4444437137
 10
348.2303168677
 20
158.4864902706
 10
348.2170708642
 20
158.5325320482
  0
LINE
  5
4BD
100
AcDbEntity
  8
0
100
AcDbLine
 62
7
  6
CONTINUOUS
 10
349.9546095884
 20
158.4589955429
 11
349.8539086669
 21
158.4593235296
  0
LWPOLYLINE
  5
4BE
100
AcDbEntity
  8
0
100
AcDbPolyline
 62
7
  6
CONTINUOUS
 90
24
 70
0
 10
349.8539086669
 20
158.4593235296
 10
349.761604172
 20
158.4602945217
 10
349.7181164505
 20
158.4610476032
 10
349.6764099625
 20
158.4620177724
 10
349.6365602302
 20
158.4632382206
 10
349.5983553363
 20
158.4647254666
 10
349.5616082681
 20
158.4665057487
 10
349.5263198343
 20
158.4685830991
 10
349.4924289507
 20
158.4709517333
 10
349.4599342831
 20
158.4736673395
 10
349.4288719579
 20
158.4767465516
 10
349.3990685091
 20
158.4803007482
 10
349.3702381383
 20
158.4844129619
 10
349.3427539685
 20
158.4891848654
 10
349.3169704947
 20
158.4946548126
 10
349.2926578018
 20
158.5010957926
 10
349.2695395492
 20
158.5085971992
 10
349.2481095093
 20
158.5177481727
 10
349.2284204723
 20
158.5289585815
 10
349.2115190445
 20
158.5428556358
 10
349.1981498082
 20
158.5604520203
 10
349.1892716254
 20
158.5810011792
 10
349.1862424342
 20
158.6040429938
 10
349.1886095884
 20
158.629730837
  0
LINE
  5
4BF
100
AcDbEntity
  8
0
100
AcDbLine
 62
7
  6
CONTINUOUS
 10
344.4786095884
 20
158.8107602488
 11
344.486449766
 21
158.8104934326
  0
LWPOLYLINE
  5
4C0
100
AcDbEntity
  8
0
100
AcDbPolyline
 62
7
  6
CONTINUOUS
 90
7
 70
0
 10
360.6558683515
 20
155.245480529
 10
360.6753087622
 20
155.2445825337
 10
360.6951438552
 20
155.2422323928
 10
360.7154026797
 20
155.2383840696
 10
360.7359980878
 20
155.2331756739
 10
360.7568429319
 20
155.2267453151
 10
360.777966261
 20
155.2190469568
  0
LWPOLYLINE
  5
4C1
100
AcDbEntity
  8
0
100
AcDbPolyline
 62
7
  6
CONTINUOUS
 90
13
 70
0
 10
357.676427877
 20
153.7941518222
 10
357.6368788938
 20
153.7972368295
 10
357.6010997862
 20
153.8066954022
 10
357.5688499336
 20
153.8229180676
 10
357.540851198
 20
153.8447332442
 10
357.5180475281
 20
153.8713362461
 10
357.4995320438
 20
153.902016913
 10
357.4848604147
 20
153.935857974
 10
357.473588941
 20
153.9726760743
 10
357.465194892
 20
154.0117621325
 10
357.4594710307
 20
154.053776058
 10
357.4559881912
 20
154.0991943435
 10
357.4548894287
 20
154.1478581582
  0
LWPOLYLINE
  5
4C2
100
AcDbEntity
  8
0
100
AcDbPolyline
 62
7
  6
CONTINUOUS
 90
7
 70
0
 10
358.9993648172
 20
154.7117742305
 10
359.0391001385
 20
154.7086333688
 10
359.0754875476
 20
154.6987435368
 10
359.1086457602
 20
154.6820735276
 10
359.1382186291
 20
154.6587169618
 10
359.1638500071
 20
154.6287674601
 10
359.1856586099
 20
154.5921938156
  0
LINE
  5
4C3
100
AcDbEntity
  8
0
100
AcDbLine
 62
7
  6
CONTINUOUS
 10
349.7946095884
 20
162.4757602488
 11
348.7946095884
 21
162.4757602488
  0
LINE
  5
4C4
100
AcDbEntity
  8
RUNDUNGEN
100
AcDbLine
 62
7
  6
CONTINUOUS
 10
363.3946095884
 20
163.6757602488
 11
350.0808319804
 21
163.6757602488
  0
LINE
  5
4C5
100
AcDbEntity
  8
RUNDUNGEN
100
AcDbLine
 62
7
  6
CONTINUOUS
 10
347.0808319804
 20
163.6757602488
 11
333.8946095884
 21
163.6757602488
  0
LWPOLYLINE
  5
4C6
100
AcDbEntity
  8
0
100
AcDbPolyline
 62
7
  6
CONTINUOUS
 90
7
 70
0
 10
355.283693514
 20
153.3844034474
 10
355.2692873673
 20
153.3875555584
 10
355.2550901303
 20
153.3909083473
 10
355.2410959614
 20
153.3944534853
 10
355.2273223849
 20
153.3982159584
 10
355.2137869247
 20
153.402220752
 10
355.2004837394
 20
153.4064595376
  0
LINE
  5
4C7
100
AcDbEntity
  8
0
100
AcDbLine
 62
7
  6
CONTINUOUS
 10
343.0946095884
 20
158.1807602488
 11
344.4786095884
 21
158.8107602488
  0
LINE
  5
4C8
100
AcDbEntity
  8
0
100
AcDbLine
 62
7
  6
CONTINUOUS
 10
349.1506095884
 20
158.9097602488
 11
349.1636604969
 21
158.9062585234
  0
LWPOLYLINE
  5
4C9
100
AcDbEntity
  8
0
100
AcDbPolyline
 62
7
  6
CONTINUOUS
 90
7
 70
0
 10
355.0368475319
 20
153.1748511111
 10
355.1046529177
 20
153.1517108985
 10
355.171948399
 20
153.1329496765
 10
355.2386654869
 20
153.1186367722
 10
355.305009648
 20
153.1085642047
 10
355.3711863492
 20
153.102523993
 10
355.4371271015
 20
153.1005854641
  0
LWPOLYLINE
  5
4CA
100
AcDbEntity
  8
0
100
AcDbPolyline
 62
7
  6
CONTINUOUS
 90
6
 70
0
 10
355.2004837394
 20
153.4064595376
 10
355.1880528258
 20
153.4109277744
 10
355.1755708325
 20
153.4157495006
 10
355.1630485655
 20
153.420964918
 10
355.1504536072
 20
153.4264534215
 10
355.1377535404
 20
153.4320944056
  0
LINE
  5
4CB
100
AcDbEntity
  8
RUNDUNGEN
100
AcDbLine
 62
7
  6
CONTINUOUS
 10
323.8946095884
 20
153.4257602488
 11
323.8946095884
 21
159.4257602488
  0
LINE
  5
4CC
100
AcDbEntity
  8
RUNDUNGEN
100
AcDbLine
 62
9
  6
CONTINUOUS
 10
324.3946095884
 20
152.9257602488
 11
324.3946095884
 21
159.9257602488
  0
LINE
  5
4CD
100
AcDbEntity
  8
0
100
AcDbLine
 62
7
  6
CONTINUOUS
 10
345.3706095884
 20
158.7688484841
 11
344.1686095884
 21
158.1807602488
  0
LWPOLYLINE
  5
4CE
100
AcDbEntity
  8
0
100
AcDbPolyline
 62
7
  6
CONTINUOUS
 90
7
 70
0
 10
360.7955885888
 20
155.4645015096
 10
360.760261007
 20
155.4750843725
 10
360.725460412
 20
155.4836721366
 10
360.6911777617
 20
155.4902388454
 10
360.6574401826
 20
155.4948623686
 10
360.6242748012
 20
155.4976205763
 10
360.5916725755
 20
155.4984875118
  0
LWPOLYLINE
  5
4CF
100
AcDbEntity
  8
0
100
AcDbPolyline
 62
7
  6
CONTINUOUS
 90
7
 70
0
 10
357.4662955234
 20
153.6143595076
 10
357.4979856788
 20
153.603492623
 10
357.5310162063
 20
153.5944742873
 10
357.565394241
 20
153.587256883
 10
357.6010983778
 20
153.5819832622
 10
357.6381072115
 20
153.5787962768
 10
357.676427877
 20
153.5776483094
  0
LWPOLYLINE
  5
4D0
100
AcDbEntity
  8
0
100
AcDbPolyline
 62
7
  6
CONTINUOUS
 90
7
 70
0
 10
355.781796039
 20
154.8824303471
 10
355.7295419527
 20
154.9027281806
 10
355.6744402688
 20
154.9195718975
 10
355.6164759401
 20
154.9330534055
 10
355.5556941078
 20
154.9428969813
 10
355.4921399131
 20
154.9488269014
 10
355.4257983089
 20
154.9509350737
  0
LWPOLYLINE
  5
4D1
100
AcDbEntity
  8
0
100
AcDbPolyline
 62
7
  6
CONTINUOUS
 90
7
 70
0
 10
359.0585257475
 20
154.9156902789
 10
359.0350713022
 20
154.9249836198
 10
359.0102711366
 20
154.9325732033
 10
358.9840594888
 20
154.9384586452
 10
358.9566336447
 20
154.942641098
 10
358.9281908904
 20
154.9451217142
 10
358.898665464
 20
154.9459001097
  0
LWPOLYLINE
  5
4D2
100
AcDbEntity
  8
0
100
AcDbPolyline
 62
7
  6
CONTINUOUS
 90
7
 70
0
 10
355.1377535404
 20
153.4320944056
 10
355.1132562406
 20
153.4433124887
 10
355.1015369219
 20
153.4488173871
 10
355.0898028338
 20
153.4544507465
 10
355.0780491195
 20
153.460188629
 10
355.0662709217
 20
153.4660070963
 10
355.0544698597
 20
153.471914128
  0
LINE
  5
4D3
100
AcDbEntity
  8
RUNDUNGEN
100
AcDbLine
 62
9
  6
CONTINUOUS
 10
333.3831873213
 20
155.6879857408
 11
333.5423442553
 21
155.9201935053
  0
LWPOLYLINE
  5
4D4
100
AcDbEntity
  8
RUNDUNGEN
100
AcDbPolyline
 62
9
  6
CONTINUOUS
 90
3
 70
0
 10
333.5423442553
 20
155.9201935053
 10
333.7999882393
 20
156.2906663105
 10
333.8946095884
 20
156.4257602488
  0
LWPOLYLINE
  5
4D5
100
AcDbEntity
  8
0
100
AcDbPolyline
 62
7
  6
CONTINUOUS
 90
7
 70
0
 10
358.6961750527
 20
153.630793977
 10
358.7257533761
 20
153.6148739578
 10
358.7575645827
 20
153.6017221611
 10
358.7916661922
 20
153.5912853923
 10
358.8278856451
 20
153.5837232349
 10
358.8660503813
 20
153.579195272
 10
358.9062179208
 20
153.5776483094
  0
LINE
  5
4D6
100
AcDbEntity
  8
0
100
AcDbLine
 62
7
  6
CONTINUOUS
 10
344.4786095884
 20
158.8107602488
 11
343.2566095884
 21
159.4707602488
  0
LINE
  5
4D7
100
AcDbEntity
  8
0
100
AcDbLine
 62
7
  6
CONTINUOUS
 10
344.4106095884
 20
159.4707602488
 11
345.3966095884
 21
158.8921573076
  0
LINE
  5
4D8
100
AcDbEntity
  8
RUNDUNGEN
100
AcDbLine
 62
9
  6
CONTINUOUS
 10
333.8946095884
 20
156.4257602488
 11
333.6404427946
 21
156.7897440645
  0
LWPOLYLINE
  5
4D9
100
AcDbEntity
  8
RUNDUNGEN
100
AcDbPolyline
 62
9
  6
CONTINUOUS
 90
22
 70
0
 10
333.6404427946
 20
156.7897440645
 10
333.4753325821
 20
157.0286737208
 10
333.3938487631
 20
157.1478551731
 10
333.3148409396
 20
157.2646201012
 10
333.2390332299
 20
157.3778650359
 10
333.167485605
 20
157.4862532099
 10
333.1003386365
 20
157.5894139546
 10
333.0385422303
 20
157.6859120017
 10
332.9807283553
 20
157.7778734744
 10
332.9261937559
 20
157.8661911494
 10
332.8738940111
 20
157.9529022384
 10
332.8223505045
 20
158.0403520628
 10
332.7721625664
 20
158.1280046244
 10
332.7231812464
 20
158.2163990494
 10
332.6761727695
 20
158.3045053246
 10
332.6317317666
 20
158.3916899252
 10
332.5902240696
 20
158.4774660533
 10
332.5522996028
 20
158.5607698236
 10
332.5177007204
 20
158.642892161
 10
332.4862742884
 20
158.7240788466
 10
332.4583566956
 20
158.8059569157
 10
332.433627281
 20
158.8895966606
  0
LWPOLYLINE
  5
4DA
100
AcDbEntity
  8
RUNDUNGEN
100
AcDbPolyline
 62
9
  6
CONTINUOUS
 90
11
 70
0
 10
332.8946095884
 20
153.3032612496
 10
332.8884536429
 20
153.3643204738
 10
332.8701374531
 20
153.4238759662
 10
332.840112129
 20
153.4804612793
 10
332.7991170757
 20
153.5326831295
 10
332.7481617938
 20
153.5792556788
 10
332.6885010045
 20
153.6190322172
 10
332.6216037668
 20
153.6510333613
 10
332.5491172934
 20
153.6744711918
 10
332.4728263885
 20
153.6887686287
 10
332.3946095884
 20
153.6935736245
  0
LINE
  5
4DB
100
AcDbEntity
  8
RUNDUNGEN
100
AcDbLine
 62
9
  6
CONTINUOUS
 10
332.3946095884
 20
152.9257602488
 11
332.3946095884
 21
153.6935736245
  0
LINE
  5
4DC
100
AcDbEntity
  8
RUNDUNGEN
100
AcDbLine
 62
9
  6
CONTINUOUS
 10
332.3946095884
 20
159.1579468731
 11
332.3946095884
 21
159.9257602488
  0
LINE
  5
4DD
100
AcDbEntity
  8
RUNDUNGEN
100
AcDbLine
 62
7
  6
CONTINUOUS
 10
332.8946095884
 20
162.6757602488
 11
332.8946095884
 21
159.548259248
  0
LINE
  5
4DE
100
AcDbEntity
  8
RUNDUNGEN
100
AcDbLine
 62
7
  6
CONTINUOUS
 10
332.8946095884
 20
153.3032612496
 11
332.8946095884
 21
150.1757602488
  0
LINE
  5
4DF
100
AcDbEntity
  8
RUNDUNGEN
100
AcDbLine
 62
9
  6
CONTINUOUS
 10
333.8946095884
 20
163.6757602488
 11
333.8946095884
 21
149.1757602488
  0
LINE
  5
4E0
100
AcDbEntity
  8
RUNDUNGEN
100
AcDbLine
 62
9
  6
CONTINUOUS
 10
334.1008841951
 20
151.6757602488
 11
334.1008841951
 21
161.1757602488
  0
LWPOLYLINE
  5
4E1
100
AcDbEntity
  8
RUNDUNGEN
100
AcDbPolyline
 62
9
  6
CONTINUOUS
 90
7
 70
0
 10
332.8946095884
 20
153.3032612496
 10
332.897286553
 20
153.3948829111
 10
332.9046486489
 20
153.4855266124
 10
332.9155995989
 20
153.5746549924
 10
332.9296223311
 20
153.6638801344
 10
332.9466023676
 20
153.7545106204
 10
332.9662988584
 20
153.846919592
  0
LWPOLYLINE
  5
4E2
100
AcDbEntity
  8
RUNDUNGEN
100
AcDbPolyline
 62
9
  6
CONTINUOUS
 90
35
 70
0
 10
334.2331717607
 20
161.1757602488
 10
334.2380692652
 20
161.3206683302
 10
334.2496973871
 20
161.4557674393
 10
334.2687566137
 20
161.5810745871
 10
334.2943145227
 20
161.6965387401
 10
334.3257705704
 20
161.8021881238
 10
334.3628506415
 20
161.897801972
 10
334.4050742421
 20
161.9831573669
 10
334.4519970147
 20
162.0582889889
 10
334.5029678718
 20
162.1230492742
 10
334.5574508701
 20
162.1777620369
 10
334.6146013153
 20
162.2225504811
 10
334.6740897086
 20
162.2578688731
 10
334.7352096393
 20
162.2841789432
 10
334.7979122673
 20
162.3015815029
 10
334.8618886663
 20
162.3105246379
 10
334.9270611522
 20
162.3104282559
 10
334.9934207749
 20
162.3012294257
 10
335.0602951659
 20
162.281824749
 10
335.1274515528
 20
162.2514028313
 10
335.1934519786
 20
162.2090247297
 10
335.2578530767
 20
162.1527171364
 10
335.3177897323
 20
162.0847717513
 10
335.3711414817
 20
162.0049002821
 10
335.4168563955
 20
161.9188693981
 10
335.4528681247
 20
161.8320210566
 10
335.4814511346
 20
161.7453411018
 10
335.5035668576
 20
161.6616552144
 10
335.5204484275
 20
161.5807858422
 10
335.5332295481
 20
161.5034540304
 10
335.5425086067
 20
161.4297896681
 10
335.5490074784
 20
161.3601704351
 10
335.5531343292
 20
161.2945740044
 10
335.5555453557
 20
161.2331168881
 10
335.5560474162
 20
161.1757602488
  0
LWPOLYLINE
  5
4E3
100
AcDbEntity
  8
RUNDUNGEN
100
AcDbPolyline
 62
9
  6
CONTINUOUS
 90
35
 70
0
 10
334.1008841951
 20
161.1757602488
 10
334.1065858903
 20
161.3331136064
 10
334.1207149977
 20
161.4801158853
 10
334.1435844535
 20
161.6163732937
 10
334.1742554493
 20
161.7418238307
 10
334.2120373606
 20
161.8566994402
 10
334.2564985718
 20
161.9605883465
 10
334.3072171796
 20
162.0533867404
 10
334.3634734236
 20
162.1350314384
 10
334.4246835068
 20
162.2054218349
 10
334.490017636
 20
162.2648943241
 10
334.5586235207
 20
162.3135595982
 10
334.6299848562
 20
162.3519669115
 10
334.7033405427
 20
162.3805413553
 10
334.7785726753
 20
162.3994795691
 10
334.8553562204
 20
162.409173105
 10
334.9335514642
 20
162.4090950305
 10
335.013191465
 20
162.3990593441
 10
335.0934328733
 20
162.3780057568
 10
335.1739951882
 20
162.3448983006
 10
335.2532229224
 20
162.2988770616
 10
335.3303823276
 20
162.2376988676
 10
335.4024276852
 20
162.1638178129
 10
335.4663472015
 20
162.0771132865
 10
335.521305353
 20
161.9834873204
 10
335.5645673223
 20
161.8891193277
 10
335.5988191974
 20
161.7948697664
 10
335.625407753
 20
161.7038994658
 10
335.645616112
 20
161.6160054346
 10
335.660980125
 20
161.5319382266
 10
335.6720883844
 20
161.4518791781
 10
335.6798998619
 20
161.3761963846
 10
335.6848392695
 20
161.3049056347
 10
335.6877440222
 20
161.2380705393
 10
335.6883349818
 20
161.1757602488
  0
LWPOLYLINE
  5
4E4
100
AcDbEntity
  8
RUNDUNGEN
100
AcDbPolyline
 62
9
  6
CONTINUOUS
 90
3
 70
0
 10
332.3946095884
 20
153.6935736245
 10
332.3993389661
 20
153.7734896278
 10
332.409668584
 20
153.8530548724
  0
LWPOLYLINE
  5
4E5
100
AcDbEntity
  8
RUNDUNGEN
100
AcDbPolyline
 62
9
  6
CONTINUOUS
 90
11
 70
0
 10
332.8946095884
 20
159.548259248
 10
332.8884537351
 20
159.4872008241
 10
332.8701377657
 20
159.4276458966
 10
332.8401126999
 20
159.3710609071
 10
332.7991178713
 20
159.31883916
 10
332.7481627229
 20
159.2722665209
 10
332.6885019476
 20
159.2324897521
 10
332.6216045963
 20
159.2004882792
 10
332.5491179017
 20
159.1770500738
 10
332.4728267184
 20
159.1627522534
 10
332.3946095884
 20
159.1579468731
  0
LWPOLYLINE
  5
4E6
100
AcDbEntity
  8
RUNDUNGEN
100
AcDbPolyline
 62
9
  6
CONTINUOUS
 90
21
 70
0
 10
332.409668584
 20
153.8530548724
 10
332.4259013018
 20
153.9311138266
 10
332.447128541
 20
154.0091154572
 10
332.4725223462
 20
154.0884457533
 10
332.5021437082
 20
154.169274526
 10
332.5359478576
 20
154.2526695167
 10
332.573424119
 20
154.3377834324
 10
332.6142568642
 20
154.4242973736
 10
332.6578161817
 20
154.5115269666
 10
332.7034523985
 20
154.5986168072
 10
332.7509091713
 20
154.685555459
 10
332.7993735567
 20
154.7714451181
 10
332.8498656817
 20
154.8581215086
 10
332.9027905242
 20
154.9467919714
 10
332.9591805875
 20
155.038929071
 10
333.0204113822
 20
155.1368957124
 10
333.0858588639
 20
155.2396310256
 10
333.1556579537
 20
155.3471972941
 10
333.2289072659
 20
155.4584116837
 10
333.3050405103
 20
155.5723457628
 10
333.3831873213
 20
155.6879857408
  0
LWPOLYLINE
  5
4E7
100
AcDbEntity
  8
RUNDUNGEN
100
AcDbPolyline
 62
9
  6
CONTINUOUS
 90
15
 70
0
 10
332.9662988584
 20
153.846919592
 10
332.9888265459
 20
153.9422400068
 10
333.0138192756
 20
154.0395009989
 10
333.0410290559
 20
154.138388769
 10
333.070080632
 20
154.2380650742
 10
333.1005118092
 20
154.3375940252
 10
333.1321426587
 20
154.4369547617
 10
333.164494512
 20
154.5350797203
 10
333.1981136468
 20
154.6341731211
 10
333.2334302179
 20
154.7354820268
 10
333.2709902339
 20
154.8408103455
 10
333.3117970062
 20
154.9527848151
 10
333.3554424189
 20
155.0701840086
 10
333.4019512932
 20
155.193139221
 10
333.4508080601
 20
155.3202190227
  0
LINE
  5
4E8
100
AcDbEntity
  8
RUNDUNGEN
100
AcDbLine
 62
9
  6
CONTINUOUS
 10
333.4508080601
 20
155.3202190227
 11
333.5536613876
 21
155.5825893998
  0
LINE
  5
4E9
100
AcDbEntity
  8
RUNDUNGEN
100
AcDbLine
 62
9
  6
CONTINUOUS
 10
333.5536613876
 20
155.5825893998
 11
333.6597661199
 21
155.847969635
  0
LINE
  5
4EA
100
AcDbEntity
  8
RUNDUNGEN
100
AcDbLine
 62
9
  6
CONTINUOUS
 10
333.6597661199
 20
155.847969635
 11
333.8946095884
 21
156.4257602488
  0
LWPOLYLINE
  5
4EB
100
AcDbEntity
  8
0
100
AcDbPolyline
 62
7
  6
CONTINUOUS
 90
7
 70
0
 10
355.654889405
 20
153.442963047
 10
355.6168126679
 20
153.4223419408
 10
355.5767419035
 20
153.4052870503
 10
355.5347352427
 20
153.3917357101
 10
355.4906182932
 20
153.3818759169
 10
355.4442166625
 20
153.3758956675
 10
355.3955884815
 20
153.3737322961
  0
LWPOLYLINE
  5
4EC
100
AcDbEntity
  8
0
100
AcDbPolyline
 62
7
  6
CONTINUOUS
 90
7
 70
0
 10
355.7857983947
 20
153.1685574685
 10
355.8351557875
 20
153.1927664786
 10
355.8818755259
 20
153.2202521377
 10
355.9258855697
 20
153.2509546338
 10
355.9674020392
 20
153.2850534025
 10
356.0066410544
 20
153.3227278788
 10
356.0435305752
 20
153.3639182511
  0
LWPOLYLINE
  5
4ED
100
AcDbEntity
  8
0
100
AcDbPolyline
 62
7
  6
CONTINUOUS
 90
7
 70
0
 10
357.3090042542
 20
154.6586515575
 10
357.3257458004
 20
154.6665825342
 10
357.3431984827
 20
154.6738431623
 10
357.3613901762
 20
154.6804114358
 10
357.3802372554
 20
154.6863533721
 10
357.3996560947
 20
154.6917349889
 10
357.4196745693
 20
154.6965342801
  0
LWPOLYLINE
  5
4EE
100
AcDbEntity
  8
0
100
AcDbPolyline
 62
7
  6
CONTINUOUS
 90
7
 70
0
 10
357.9535338224
 20
154.8580735779
 10
357.9068745623
 20
154.8845300361
 10
357.8557634895
 20
154.9063506221
 10
357.800018503
 20
154.9236212192
 10
357.7401859058
 20
154.9360841773
 10
357.6768120007
 20
154.9434818464
 10
357.6097146869
 20
154.9459001097
  0
LINE
  5
4EF
100
AcDbEntity
  8
0
100
AcDbLine
 62
7
  6
CONTINUOUS
 10
349.1506095884
 20
158.9097602488
 11
348.1786095884
 21
159.4707602488
  0
LINE
  5
4F0
100
AcDbEntity
  8
0
100
AcDbLine
 62
7
  6
CONTINUOUS
 10
349.2906095884
 20
159.4707602488
 11
350.0352235419
 21
158.9687602488
  0
LWPOLYLINE
  5
4F1
100
AcDbEntity
  8
0
100
AcDbPolyline
 62
7
  6
CONTINUOUS
 90
7
 70
0
 10
355.6536306648
 20
154.6110748363
 10
355.6895213589
 20
154.5867778689
 10
355.7232391729
 20
154.5577928114
 10
355.7548773806
 20
154.5240660064
 10
355.7841561605
 20
154.4857584263
 10
355.8107956913
 20
154.4430310437
 10
355.8348892468
 20
154.3958302009
  0
LINE
  5
4F2
100
AcDbEntity
  8
RUNDUNGEN
100
AcDbLine
 62
9
  6
CONTINUOUS
 10
333.8946095884
 20
156.4257602488
 11
333.6702994768
 21
156.9774172533
  0
LINE
  5
4F3
100
AcDbEntity
  8
RUNDUNGEN
100
AcDbLine
 62
9
  6
CONTINUOUS
 10
333.6702994768
 20
156.9774172533
 11
333.5607690048
 21
157.2510115679
  0
LWPOLYLINE
  5
4F4
100
AcDbEntity
  8
RUNDUNGEN
100
AcDbPolyline
 62
9
  6
CONTINUOUS
 90
15
 70
0
 10
333.5607690048
 20
157.2510115679
 10
333.4575586836
 20
157.5138800038
 10
333.4098392942
 20
157.6377329737
 10
333.3650955908
 20
157.7556501793
 10
333.3239164857
 20
157.8659499211
 10
333.2853554266
 20
157.9710325014
 10
333.2490411404
 20
158.0720030244
 10
333.2141325479
 20
158.1710653848
 10
333.1797852882
 20
158.27101876
 10
333.1463115921
 20
158.3711824064
 10
333.1136474538
 20
158.4721929058
 10
333.0823183458
 20
158.5728974604
 10
333.0526786628
 20
158.6725232465
 10
333.0250192638
 20
158.7705669234
 10
332.999780819
 20
158.8658028239
  0
LWPOLYLINE
  5
4F5
100
AcDbEntity
  8
RUNDUNGEN
100
AcDbPolyline
 62
9
  6
CONTINUOUS
 90
8
 70
0
 10
332.999780819
 20
158.8658028239
 10
332.9766701745
 20
158.9596251041
 10
332.9558328776
 20
159.0524889566
 10
332.9371078709
 20
159.1459856044
 10
332.9208063279
 20
159.2416838384
 10
332.9074721357
 20
159.3401061475
 10
332.8981228669
 20
159.442428628
 10
332.8946095884
 20
159.548259248
  0
LWPOLYLINE
  5
4F6
100
AcDbEntity
  8
RUNDUNGEN
100
AcDbPolyline
 62
9
  6
CONTINUOUS
 90
4
 70
0
 10
332.433627281
 20
158.8895966606
 10
332.4139040605
 20
158.9758142004
 10
332.4011120541
 20
159.0658091876
 10
332.3946095884
 20
159.1579468731
  0
LINE
  5
4F7
100
AcDbEntity
  8
RUNDUNGEN
100
AcDbLine
 62
9
  6
CONTINUOUS
 10
334.2331717607
 20
151.6757602488
 11
334.2331717607
 21
161.1757602488
  0
LINE
  5
4F8
100
AcDbEntity
  8
RUNDUNGEN
100
AcDbLine
 62
9
  6
CONTINUOUS
 10
335.5560474162
 20
161.1757602488
 11
335.5560474162
 21
151.6757602488
  0
LINE
  5
4F9
100
AcDbEntity
  8
RUNDUNGEN
100
AcDbLine
 62
9
  6
CONTINUOUS
 10
335.6883349818
 20
161.1757602488
 11
335.6883349818
 21
151.6757602488
  0
LINE
  5
4FA
100
AcDbEntity
  8
RUNDUNGEN
100
AcDbLine
 62
9
  6
CONTINUOUS
 10
337.1008841951
 20
151.6757602488
 11
337.1008841951
 21
161.1757602488
  0
LINE
  5
4FB
100
AcDbEntity
  8
RUNDUNGEN
100
AcDbLine
 62
9
  6
CONTINUOUS
 10
337.2331717607
 20
151.6757602488
 11
337.2331717607
 21
161.1757602488
  0
LWPOLYLINE
  5
4FC
100
AcDbEntity
  8
RUNDUNGEN
100
AcDbPolyline
 62
9
  6
CONTINUOUS
 90
35
 70
0
 10
335.5560474162
 20
151.6757602488
 10
335.5511700683
 20
151.5311171572
 10
335.5395795316
 20
151.3962302092
 10
335.5205809293
 20
151.2710830322
 10
335.4950962224
 20
151.1557247441
 10
335.463719852
 20
151.0501256589
 10
335.4267136676
 20
150.9545058159
 10
335.384531368
 20
150.8690684078
 10
335.3376445942
 20
150.7938342881
 10
335.2867160643
 20
150.7290034442
 10
335.2323118622
 20
150.674241667
 10
335.1753224898
 20
150.629449543
 10
335.1160529636
 20
150.5941226737
 10
335.0552038717
 20
150.5677611963
 10
334.9928024543
 20
150.5502520897
 10
334.9291314133
 20
150.5411251988
 10
334.8642672358
 20
150.5409520619
 10
334.7981998459
 20
150.5497953366
 10
334.7316256548
 20
150.5687115101
 10
334.6648090589
 20
150.5984812216
 10
334.5991396738
 20
150.639994673
 10
334.5351159045
 20
150.6950163972
 10
334.475336823
 20
150.7617040399
 10
334.4216304074
 20
150.8407100844
 10
334.3753322305
 20
150.9263145509
 10
334.3386234832
 20
151.0134556858
 10
334.309356884
 20
151.1008112935
 10
334.2867276258
 20
151.1853235703
 10
334.2694426969
 20
151.2671375875
 10
334.2563717608
 20
151.3454497997
 10
334.2468944196
 20
151.4200482529
 10
334.240281509
 20
151.4904697948
 10
334.2360987567
 20
151.5566644752
 10
334.2336615852
 20
151.6184024181
 10
334.2331717607
 20
151.6757602488
  0
LWPOLYLINE
  5
4FD
100
AcDbEntity
  8
RUNDUNGEN
100
AcDbPolyline
 62
9
  6
CONTINUOUS
 90
35
 70
0
 10
337.2331717607
 20
161.1757602488
 10
337.2380692652
 20
161.3206683302
 10
337.2496973871
 20
161.4557674393
 10
337.2687566137
 20
161.5810745871
 10
337.2943145227
 20
161.6965387401
 10
337.3257705704
 20
161.8021881238
 10
337.3628506415
 20
161.897801972
 10
337.4050742421
 20
161.9831573669
 10
337.4519970147
 20
162.0582889889
 10
337.5029678718
 20
162.1230492742
 10
337.5574508701
 20
162.1777620369
 10
337.6146013153
 20
162.2225504811
 10
337.6740897086
 20
162.2578688731
 10
337.7352096393
 20
162.2841789432
 10
337.7979122673
 20
162.3015815029
 10
337.8618886663
 20
162.3105246379
 10
337.9270611522
 20
162.3104282559
 10
337.9934207749
 20
162.3012294257
 10
338.0602951659
 20
162.281824749
 10
338.1274515528
 20
162.2514028314
 10
338.1934519786
 20
162.2090247297
 10
338.2578530767
 20
162.1527171364
 10
338.3177897323
 20
162.0847717513
 10
338.3711414817
 20
162.0049002821
 10
338.4168563955
 20
161.9188693981
 10
338.4528681247
 20
161.8320210566
 10
338.4814511346
 20
161.7453411018
 10
338.5035668576
 20
161.6616552144
 10
338.5204484275
 20
161.5807858422
 10
338.5332295481
 20
161.5034540304
 10
338.5425086067
 20
161.4297896681
 10
338.5490074784
 20
161.3601704351
 10
338.5531343292
 20
161.2945740044
 10
338.5555453557
 20
161.2331168881
 10
338.5560474162
 20
161.1757602488
  0
LWPOLYLINE
  5
4FE
100
AcDbEntity
  8
RUNDUNGEN
100
AcDbPolyline
 62
9
  6
CONTINUOUS
 90
35
 70
0
 10
335.6883349818
 20
151.6757602488
 10
335.6826565193
 20
151.5186945753
 10
335.6685734695
 20
151.3719232546
 10
335.6457771223
 20
151.2358401581
 10
335.6151936075
 20
151.1105042616
 10
335.5775080701
 20
150.9956835423
 10
335.5331347554
 20
150.8917879063
 10
335.4824649669
 20
150.7988995078
 10
335.4262526753
 20
150.7171442527
 10
335.3650925632
 20
150.6466770548
 10
335.2998537993
 20
150.5871514105
 10
335.2314420565
 20
150.5384826008
 10
335.1603425049
 20
150.5000656227
 10
335.0873125249
 20
150.4714351342
 10
335.0124411578
 20
150.4523812466
 10
334.9360242814
 20
150.442487426
 10
334.8581987664
 20
150.4422731034
 10
334.7789099492
 20
150.451921278
 10
334.6990283099
 20
150.4724449766
 10
334.618872863
 20
150.504842134
 10
334.5400433428
 20
150.5499249671
 10
334.4633254613
 20
150.6097130727
 10
334.3914802995
 20
150.682219244
 10
334.3271416596
 20
150.7679852911
 10
334.2714770901
 20
150.8611455862
 10
334.2273852251
 20
150.9558261938
 10
334.1923066105
 20
151.0508158476
 10
334.1651009772
 20
151.1426830521
 10
334.1444094049
 20
151.2316052078
 10
334.12869651
 20
151.3167378788
 10
334.1173514138
 20
151.3978124323
 10
334.109402407
 20
151.4743677127
 10
334.1043965986
 20
151.5463083216
 10
334.1014600954
 20
151.6134497719
 10
334.1008841951
 20
151.6757602488
  0
LWPOLYLINE
  5
4FF
100
AcDbEntity
  8
RUNDUNGEN
100
AcDbPolyline
 62
9
  6
CONTINUOUS
 90
35
 70
0
 10
337.1008841951
 20
161.1757602488
 10
337.1065858903
 20
161.3331136064
 10
337.1207149977
 20
161.4801158853
 10
337.1435844535
 20
161.6163732937
 10
337.1742554493
 20
161.7418238307
 10
337.2120373606
 20
161.8566994402
 10
337.2564985718
 20
161.9605883465
 10
337.3072171796
 20
162.0533867404
 10
337.3634734236
 20
162.1350314384
 10
337.4246835068
 20
162.2054218349
 10
337.490017636
 20
162.2648943241
 10
337.5586235207
 20
162.3135595982
 10
337.6299848562
 20
162.3519669115
 10
337.7033405427
 20
162.3805413553
 10
337.7785726753
 20
162.3994795691
 10
337.8553562204
 20
162.409173105
 10
337.9335514642
 20
162.4090950305
 10
338.0131914649
 20
162.3990593441
 10
338.0934328733
 20
162.3780057568
 10
338.1739951882
 20
162.3448983006
 10
338.2532229224
 20
162.2988770616
 10
338.3303823276
 20
162.2376988676
 10
338.4024276852
 20
162.1638178129
 10
338.4663472015
 20
162.0771132865
 10
338.521305353
 20
161.9834873204
 10
338.5645673223
 20
161.8891193277
 10
338.5988191974
 20
161.7948697664
 10
338.625407753
 20
161.7038994658
 10
338.645616112
 20
161.6160054346
 10
338.660980125
 20
161.5319382266
 10
338.6720883844
 20
161.4518791781
 10
338.6798998619
 20
161.3761963846
 10
338.6848392695
 20
161.3049056347
 10
338.6877440222
 20
161.2380705393
 10
338.6883349818
 20
161.1757602488
  0
LINE
  5
500
100
AcDbEntity
  8
0
100
AcDbLine
 62
7
  6
CONTINUOUS
 10
345.3706095884
 20
158.7688484841
 11
345.375501483
 21
158.7751283285
  0
LINE
  5
501
100
AcDbEntity
  8
0
100
AcDbLine
 62
7
  6
CONTINUOUS
 10
349.7946095884
 20
163.3257602488
 11
350.0808319804
 21
163.6757602488
  0
LINE
  5
502
100
AcDbEntity
  8
0
100
AcDbLine
 62
7
  6
CONTINUOUS
 10
348.7946095884
 20
150.3757602488
 11
347.0808319804
 21
149.1757602488
  0
LWPOLYLINE
  5
503
100
AcDbEntity
  8
0
100
AcDbPolyline
 62
7
  6
CONTINUOUS
 90
7
 70
0
 10
355.0544698597
 20
154.5859001194
 10
355.0990838961
 20
154.613881811
 10
355.1489086559
 20
154.6368562777
 10
355.2042395417
 20
154.6548793739
 10
355.2641903451
 20
154.6677835367
 10
355.3278748574
 20
154.6754012034
 10
355.3955884815
 20
154.6777882283
  0
LINE
  5
504
100
AcDbEntity
  8
0
100
AcDbLine
 62
7
  6
CONTINUOUS
 10
348.7946095884
 20
162.4757602488
 11
347.0808319804
 21
163.6757602488
  0
LINE
  5
505
100
AcDbEntity
  8
0
100
AcDbLine
 62
7
  6
CONTINUOUS
 10
349.7946095884
 20
149.5257602488
 11
350.0808319804
 21
149.1757602488
  0
LINE
  5
506
100
AcDbEntity
  8
RUNDUNGEN
100
AcDbLine
 62
9
  6
CONTINUOUS
 10
338.5560474162
 20
161.1757602488
 11
338.5560474162
 21
151.6757602488
  0
LINE
  5
507
100
AcDbEntity
  8
RUNDUNGEN
100
AcDbLine
 62
9
  6
CONTINUOUS
 10
338.6883349818
 20
161.1757602488
 11
338.6883349818
 21
151.6757602488
  0
LINE
  5
508
100
AcDbEntity
  8
RUNDUNGEN
100
AcDbLine
 62
9
  6
CONTINUOUS
 10
340.1008841951
 20
151.6757602488
 11
340.1008841951
 21
161.1757602488
  0
LINE
  5
509
100
AcDbEntity
  8
RUNDUNGEN
100
AcDbLine
 62
9
  6
CONTINUOUS
 10
340.2331717607
 20
151.6757602488
 11
340.2331717607
 21
161.1757602488
  0
LINE
  5
50A
100
AcDbEntity
  8
RUNDUNGEN
100
AcDbLine
 62
9
  6
CONTINUOUS
 10
341.5560474162
 20
161.1757602488
 11
341.5560474162
 21
151.6757602488
  0
LINE
  5
50B
100
AcDbEntity
  8
RUNDUNGEN
100
AcDbLine
 62
9
  6
CONTINUOUS
 10
341.6883349818
 20
161.1757602488
 11
341.6883349818
 21
151.6757602488
  0
LWPOLYLINE
  5
50C
100
AcDbEntity
  8
RUNDUNGEN
100
AcDbPolyline
 62
9
  6
CONTINUOUS
 90
35
 70
0
 10
338.5560474162
 20
151.6757602488
 10
338.5511700683
 20
151.5311171572
 10
338.5395795316
 20
151.3962302092
 10
338.5205809293
 20
151.2710830322
 10
338.4950962224
 20
151.1557247441
 10
338.463719852
 20
151.0501256589
 10
338.4267136676
 20
150.9545058159
 10
338.384531368
 20
150.8690684078
 10
338.3376445942
 20
150.7938342881
 10
338.2867160643
 20
150.7290034442
 10
338.2323118622
 20
150.674241667
 10
338.1753224898
 20
150.629449543
 10
338.1160529636
 20
150.5941226737
 10
338.0552038717
 20
150.5677611963
 10
337.9928024543
 20
150.5502520897
 10
337.9291314133
 20
150.5411251988
 10
337.8642672358
 20
150.5409520619
 10
337.7981998459
 20
150.5497953366
 10
337.7316256548
 20
150.5687115101
 10
337.6648090589
 20
150.5984812216
 10
337.5991396738
 20
150.639994673
 10
337.5351159045
 20
150.6950163972
 10
337.475336823
 20
150.7617040399
 10
337.4216304074
 20
150.8407100844
 10
337.3753322305
 20
150.9263145509
 10
337.3386234832
 20
151.0134556858
 10
337.309356884
 20
151.1008112935
 10
337.2867276258
 20
151.1853235703
 10
337.2694426969
 20
151.2671375875
 10
337.2563717608
 20
151.3454497997
 10
337.2468944196
 20
151.4200482529
 10
337.240281509
 20
151.4904697948
 10
337.2360987567
 20
151.5566644752
 10
337.2336615852
 20
151.6184024181
 10
337.2331717607
 20
151.6757602488
  0
LWPOLYLINE
  5
50D
100
AcDbEntity
  8
RUNDUNGEN
100
AcDbPolyline
 62
9
  6
CONTINUOUS
 90
35
 70
0
 10
341.5560474162
 20
151.6757602488
 10
341.5511700683
 20
151.5311171572
 10
341.5395795316
 20
151.3962302092
 10
341.5205809293
 20
151.2710830322
 10
341.4950962224
 20
151.1557247441
 10
341.463719852
 20
151.0501256589
 10
341.4267136676
 20
150.9545058159
 10
341.384531368
 20
150.8690684078
 10
341.3376445942
 20
150.7938342881
 10
341.2867160643
 20
150.7290034442
 10
341.2323118622
 20
150.674241667
 10
341.1753224898
 20
150.629449543
 10
341.1160529636
 20
150.5941226737
 10
341.0552038717
 20
150.5677611963
 10
340.9928024543
 20
150.5502520897
 10
340.9291314133
 20
150.5411251988
 10
340.8642672358
 20
150.5409520619
 10
340.7981998459
 20
150.5497953366
 10
340.7316256548
 20
150.5687115101
 10
340.6648090589
 20
150.5984812216
 10
340.5991396738
 20
150.639994673
 10
340.5351159045
 20
150.6950163972
 10
340.475336823
 20
150.7617040399
 10
340.4216304074
 20
150.8407100844
 10
340.3753322305
 20
150.9263145509
 10
340.3386234832
 20
151.0134556858
 10
340.309356884
 20
151.1008112935
 10
340.2867276258
 20
151.1853235703
 10
340.2694426969
 20
151.2671375875
 10
340.2563717608
 20
151.3454497997
 10
340.2468944196
 20
151.4200482529
 10
340.240281509
 20
151.4904697948
 10
340.2360987567
 20
151.5566644752
 10
340.2336615852
 20
151.6184024181
 10
340.2331717607
 20
151.6757602488
  0
LWPOLYLINE
  5
50E
100
AcDbEntity
  8
RUNDUNGEN
100
AcDbPolyline
 62
9
  6
CONTINUOUS
 90
35
 70
0
 10
340.2331717607
 20
161.1757602488
 10
340.2380692652
 20
161.3206683302
 10
340.2496973871
 20
161.4557674393
 10
340.2687566137
 20
161.5810745871
 10
340.2943145227
 20
161.6965387401
 10
340.3257705704
 20
161.8021881238
 10
340.3628506415
 20
161.897801972
 10
340.4050742421
 20
161.9831573669
 10
340.4519970147
 20
162.0582889889
 10
340.5029678718
 20
162.1230492742
 10
340.5574508701
 20
162.1777620369
 10
340.6146013153
 20
162.2225504811
 10
340.6740897086
 20
162.2578688731
 10
340.7352096393
 20
162.2841789432
 10
340.7979122673
 20
162.3015815029
 10
340.8618886663
 20
162.3105246379
 10
340.9270611522
 20
162.3104282559
 10
340.9934207749
 20
162.3012294257
 10
341.0602951659
 20
162.281824749
 10
341.1274515528
 20
162.2514028314
 10
341.1934519786
 20
162.2090247297
 10
341.2578530767
 20
162.1527171364
 10
341.3177897323
 20
162.0847717513
 10
341.3711414817
 20
162.0049002821
 10
341.4168563955
 20
161.9188693981
 10
341.4528681247
 20
161.8320210566
 10
341.4814511346
 20
161.7453411018
 10
341.5035668576
 20
161.6616552144
 10
341.5204484275
 20
161.5807858422
 10
341.5332295481
 20
161.5034540304
 10
341.5425086067
 20
161.4297896681
 10
341.5490074784
 20
161.3601704351
 10
341.5531343292
 20
161.2945740044
 10
341.5555453557
 20
161.2331168881
 10
341.5560474162
 20
161.1757602488
  0
LWPOLYLINE
  5
50F
100
AcDbEntity
  8
RUNDUNGEN
100
AcDbPolyline
 62
9
  6
CONTINUOUS
 90
35
 70
0
 10
338.6883349818
 20
151.6757602488
 10
338.6826565193
 20
151.5186945753
 10
338.6685734695
 20
151.3719232546
 10
338.6457771223
 20
151.2358401581
 10
338.6151936075
 20
151.1105042616
 10
338.5775080701
 20
150.9956835423
 10
338.5331347554
 20
150.8917879063
 10
338.4824649669
 20
150.7988995078
 10
338.4262526753
 20
150.7171442527
 10
338.3650925632
 20
150.6466770548
 10
338.2998537993
 20
150.5871514105
 10
338.2314420565
 20
150.5384826008
 10
338.1603425049
 20
150.5000656227
 10
338.0873125249
 20
150.4714351342
 10
338.0124411578
 20
150.4523812466
 10
337.9360242814
 20
150.442487426
 10
337.8581987664
 20
150.4422731034
 10
337.7789099492
 20
150.451921278
 10
337.6990283099
 20
150.4724449766
 10
337.618872863
 20
150.504842134
 10
337.5400433428
 20
150.5499249671
 10
337.4633254613
 20
150.6097130727
 10
337.3914802995
 20
150.682219244
 10
337.3271416596
 20
150.7679852911
 10
337.2714770901
 20
150.8611455862
 10
337.2273852251
 20
150.9558261938
 10
337.1923066105
 20
151.0508158476
 10
337.1651009772
 20
151.1426830521
 10
337.1444094049
 20
151.2316052078
 10
337.12869651
 20
151.3167378788
 10
337.1173514138
 20
151.3978124323
 10
337.109402407
 20
151.4743677127
 10
337.1043965986
 20
151.5463083216
 10
337.1014600954
 20
151.6134497719
 10
337.1008841951
 20
151.6757602488
  0
LWPOLYLINE
  5
510
100
AcDbEntity
  8
RUNDUNGEN
100
AcDbPolyline
 62
9
  6
CONTINUOUS
 90
35
 70
0
 10
341.6883349818
 20
151.6757602488
 10
341.6826565193
 20
151.5186945753
 10
341.6685734695
 20
151.3719232546
 10
341.6457771223
 20
151.2358401581
 10
341.6151936075
 20
151.1105042616
 10
341.5775080701
 20
150.9956835423
 10
341.5331347554
 20
150.8917879063
 10
341.4824649669
 20
150.7988995078
 10
341.4262526753
 20
150.7171442527
 10
341.3650925632
 20
150.6466770548
 10
341.2998537993
 20
150.5871514105
 10
341.2314420565
 20
150.5384826008
 10
341.1603425049
 20
150.5000656227
 10
341.0873125249
 20
150.4714351342
 10
341.0124411578
 20
150.4523812466
 10
340.9360242814
 20
150.442487426
 10
340.8581987664
 20
150.4422731034
 10
340.7789099492
 20
150.451921278
 10
340.6990283099
 20
150.4724449766
 10
340.618872863
 20
150.504842134
 10
340.5400433428
 20
150.5499249671
 10
340.4633254613
 20
150.6097130727
 10
340.3914802995
 20
150.682219244
 10
340.3271416596
 20
150.7679852912
 10
340.2714770901
 20
150.8611455862
 10
340.2273852251
 20
150.9558261938
 10
340.1923066105
 20
151.0508158476
 10
340.1651009772
 20
151.1426830521
 10
340.1444094049
 20
151.2316052078
 10
340.12869651
 20
151.3167378788
 10
340.1173514138
 20
151.3978124323
 10
340.109402407
 20
151.4743677127
 10
340.1043965986
 20
151.5463083216
 10
340.1014600954
 20
151.6134497719
 10
340.1008841951
 20
151.6757602488
  0
LWPOLYLINE
  5
511
100
AcDbEntity
  8
RUNDUNGEN
100
AcDbPolyline
 62
9
  6
CONTINUOUS
 90
35
 70
0
 10
340.1008841951
 20
161.1757602488
 10
340.1065858903
 20
161.3331136064
 10
340.1207149977
 20
161.4801158853
 10
340.1435844535
 20
161.6163732937
 10
340.1742554493
 20
161.7418238307
 10
340.2120373606
 20
161.8566994402
 10
340.2564985718
 20
161.9605883465
 10
340.3072171796
 20
162.0533867404
 10
340.3634734236
 20
162.1350314384
 10
340.4246835068
 20
162.2054218349
 10
340.490017636
 20
162.2648943241
 10
340.5586235207
 20
162.3135595982
 10
340.6299848562
 20
162.3519669115
 10
340.7033405427
 20
162.3805413553
 10
340.7785726753
 20
162.3994795691
 10
340.8553562204
 20
162.409173105
 10
340.9335514642
 20
162.4090950305
 10
341.0131914649
 20
162.3990593441
 10
341.0934328733
 20
162.3780057568
 10
341.1739951882
 20
162.3448983006
 10
341.2532229223
 20
162.2988770616
 10
341.3303823276
 20
162.2376988676
 10
341.4024276852
 20
162.1638178129
 10
341.4663472015
 20
162.0771132865
 10
341.521305353
 20
161.9834873204
 10
341.5645673223
 20
161.8891193277
 10
341.5988191974
 20
161.7948697664
 10
341.625407753
 20
161.7038994658
 10
341.645616112
 20
161.6160054346
 10
341.660980125
 20
161.5319382266
 10
341.6720883844
 20
161.4518791781
 10
341.6798998619
 20
161.3761963846
 10
341.6848392695
 20
161.3049056347
 10
341.6877440222
 20
161.2380705393
 10
341.6883349818
 20
161.1757602488
  0
LWPOLYLINE
  5
512
100
AcDbEntity
  8
0
100
AcDbPolyline
 62
7
  6
CONTINUOUS
 90
7
 70
0
 10
358.6532109372
 20
154.8653406687
 10
358.6205474036
 20
154.8369662965
 10
358.5902682462
 20
154.8042408449
 10
358.5622725771
 20
154.7670776496
 10
358.5368630602
 20
154.7257367035
 10
358.5143423596
 20
154.6804779996
 10
358.4946095873
 20
154.6312148735
  0
LWPOLYLINE
  5
513
100
AcDbEntity
  8
0
100
AcDbPolyline
 62
7
  6
CONTINUOUS
 90
7
 70
0
 10
357.9643782286
 20
153.6699443981
 10
358.0030338268
 20
153.7010714244
 10
358.0391206991
 20
153.7364783552
 10
358.0727161874
 20
153.7760768646
 10
358.1035882658
 20
153.8201319299
 10
358.1315049084
 20
153.8689085279
 10
358.1565434572
 20
153.9223183332
  0
LWPOLYLINE
  5
514
100
AcDbEntity
  8
0
100
AcDbPolyline
 62
7
  6
CONTINUOUS
 90
7
 70
0
 10
357.227057016
 20
154.6085574632
 10
357.2395733898
 20
154.6175853346
 10
357.2525619738
 20
154.6263334691
 10
357.2660374028
 20
154.6347941845
 10
357.2799557723
 20
154.6429905279
 10
357.2942731778
 20
154.6509455463
 10
357.3090042542
 20
154.6586515575
  0
LWPOLYLINE
  5
515
100
AcDbEntity
  8
0
100
AcDbPolyline
 62
7
  6
CONTINUOUS
 90
7
 70
0
 10
357.2984928425
 20
153.7322020289
 10
357.3236288455
 20
153.7057085502
 10
357.3498767705
 20
153.6820221058
 10
357.3772173781
 20
153.6612043936
 10
357.4057083867
 20
153.6430703202
 10
357.435407515
 20
153.6274347923
 10
357.4662955234
 20
153.6143595076
  0
LINE
  5
516
100
AcDbEntity
  8
0
100
AcDbLine
 62
7
  6
CONTINUOUS
 10
346.6586095884
 20
158.1807602488
 11
346.8946095884
 21
159.4707602488
  0
LINE
  5
517
100
AcDbEntity
  8
0
100
AcDbLine
 62
7
  6
CONTINUOUS
 10
347.8766095884
 20
159.4707602488
 11
347.6406095884
 21
158.1807602488
  0
LINE
  5
518
100
AcDbEntity
  8
0
100
AcDbLine
 62
7
  6
CONTINUOUS
 10
345.2466095884
 20
158.1807602488
 11
345.3706095884
 21
158.7688484841
  0
LINE
  5
519
100
AcDbEntity
  8
0
100
AcDbLine
 62
7
  6
CONTINUOUS
 10
345.3966095884
 20
158.8921573076
 11
345.5186095884
 21
159.4707602488
  0
LINE
  5
51A
100
AcDbEntity
  8
0
100
AcDbLine
 62
7
  6
CONTINUOUS
 10
346.4326095884
 20
159.4707602488
 11
346.1606095884
 21
158.1807602488
  0
LWPOLYLINE
  5
51B
100
AcDbEntity
  8
0
100
AcDbPolyline
 62
7
  6
CONTINUOUS
 90
7
 70
0
 10
360.3487354386
 20
155.4128931527
 10
360.3201885954
 20
155.3833101414
 10
360.2939080349
 20
155.3498069475
 10
360.2698098299
 20
155.3122476407
 10
360.2481457619
 20
155.271040012
 10
360.2291676126
 20
155.2265918524
 10
360.2127914548
 20
155.1787672316
  0
LWPOLYLINE
  5
51C
100
AcDbEntity
  8
0
100
AcDbPolyline
 62
7
  6
CONTINUOUS
 90
7
 70
0
 10
360.5479257956
 20
155.2011585322
 10
360.561426688
 20
155.2146660866
 10
360.5767817985
 20
155.2257369749
 10
360.5940458817
 20
155.2343820309
 10
360.6130546742
 20
155.2405687535
 10
360.6336439126
 20
155.2442646416
 10
360.6558683515
 20
155.245480529
  0
LWPOLYLINE
  5
51D
100
AcDbEntity
  8
0
100
AcDbPolyline
 62
7
  6
CONTINUOUS
 90
7
 70
0
 10
359.131227921
 20
153.6409827342
 10
359.1576958378
 20
153.6628666602
 10
359.1821309051
 20
153.6867908419
 10
359.2045092743
 20
153.7126720497
 10
359.2249024913
 20
153.7407599726
 10
359.2433821016
 20
153.7713042994
 10
359.2599242569
 20
153.8042218005
  0
LINE
  5
51E
100
AcDbEntity
  8
0
100
AcDbLine
 62
7
  6
CONTINUOUS
 10
360.960432063
 20
159.4707602488
 11
361.9507591544
 21
158.7100588545
  0
LINE
  5
51F
100
AcDbEntity
  8
0
100
AcDbLine
 62
7
  6
CONTINUOUS
 10
361.576492715
 20
158.1807602488
 11
360.68769368
 21
158.9187602488
  0
LWPOLYLINE
  5
520
100
AcDbEntity
  8
0
100
AcDbPolyline
 62
7
  6
CONTINUOUS
 90
7
 70
0
 10
359.1718124024
 20
154.8376483609
 10
359.1566492732
 20
154.8528876433
 10
359.1399549369
 20
154.8672584241
 10
359.1216881294
 20
154.8807835939
 10
359.1019726431
 20
154.8933944805
 10
359.0809322705
 20
154.905022412
 10
359.0585257475
 20
154.9156902789
  0
LWPOLYLINE
  5
521
100
AcDbEntity
  8
0
100
AcDbPolyline
 62
7
  6
CONTINUOUS
 90
7
 70
0
 10
356.043264509
 20
154.6884234922
 10
356.0064804344
 20
154.7291859851
 10
355.9670468656
 20
154.7665470282
 10
355.925027653
 20
154.8004782685
 10
355.8802312451
 20
154.8310647646
 10
355.8324660902
 20
154.8583915751
 10
355.781796039
 20
154.8824303471
  0
LINE
  5
522
100
AcDbEntity
  8
0
100
AcDbLine
 62
7
  6
CONTINUOUS
 10
348.2170708642
 20
158.5325320482
 11
348.2126095884
 21
158.5827602488
  0
LINE
  5
523
100
AcDbEntity
  8
BEZUGSACHSEN
100
AcDbLine
 62
7
  6
CONTINUOUS
 10
348.5446095884
 20
158.2111173559
 11
348.5446095884
 21
154.6404031417
  0
LINE
  5
524
100
AcDbEntity
  8
0
100
AcDbLine
 62
7
  6
CONTINUOUS
 10
349.7946095884
 20
150.3757602488
 11
349.7946095884
 21
149.5257602488
  0
LINE
  5
525
100
AcDbEntity
  8
0
100
AcDbLine
 62
7
  6
CONTINUOUS
 10
349.7946095884
 20
162.4757602488
 11
349.7946095884
 21
163.3257602488
  0
LWPOLYLINE
  5
526
100
AcDbEntity
  8
0
100
AcDbPolyline
 62
7
  6
CONTINUOUS
 90
19
 70
0
 10
348.2126095884
 20
158.5827602488
 10
348.2177111351
 20
158.637480047
 10
348.232454615
 20
158.685962454
 10
348.2578170374
 20
158.7283254268
 10
348.2908673741
 20
158.7642150941
 10
348.3290946628
 20
158.7926176015
 10
348.3722157145
 20
158.8156308551
 10
348.4192276059
 20
158.8349256205
 10
348.4697785777
 20
158.8507694647
 10
348.5229497218
 20
158.8638142286
 10
348.5794395612
 20
158.874577856
 10
348.6398494108
 20
158.8838425886
 10
348.7035519872
 20
158.8914673733
 10
348.7699731968
 20
158.8975062549
 10
348.839554785
 20
158.9021561815
 10
348.9126489776
 20
158.9055990336
 10
348.9889502392
 20
158.9079340584
 10
349.068246927
 20
158.9093411144
 10
349.1506095884
 20
158.9097602488
  0
LINE
  5
527
100
AcDbEntity
  8
0
100
AcDbLine
 62
7
  6
CONTINUOUS
 10
349.9546095884
 20
158.4589955429
 11
350.0086095884
 21
158.8004661311
  0
LINE
  5
528
100
AcDbEntity
  8
0
100
AcDbLine
 62
7
  6
CONTINUOUS
 10
350.0352235419
 20
158.9687602488
 11
350.1146095884
 21
159.4707602488
  0
LINE
  5
529
100
AcDbEntity
  8
0
100
AcDbLine
 62
7
  6
CONTINUOUS
 10
351.0366095884
 20
159.4707602488
 11
350.8326095884
 21
158.1807602488
  0
LINE
  5
52A
100
AcDbEntity
  8
0
100
AcDbLine
 62
7
  6
CONTINUOUS
 10
351.1126095884
 20
158.1807602488
 11
351.1726095884
 21
158.4837602488
  0
LINE
  5
52B
100
AcDbEntity
  8
0
100
AcDbLine
 62
7
  6
CONTINUOUS
 10
351.8646095884
 20
158.4837602488
 11
352.060055133
 21
159.4707602488
  0
LWPOLYLINE
  5
52C
100
AcDbEntity
  8
0
100
AcDbPolyline
 62
7
  6
CONTINUOUS
 90
19
 70
0
 10
349.1886095884
 20
158.629730837
 10
349.1990267886
 20
158.6642196471
 10
349.2172733337
 20
158.6936555254
 10
349.2443644959
 20
158.7179458682
 10
349.2772544584
 20
158.7373684864
 10
349.3131997511
 20
158.7516185605
 10
349.3523086057
 20
158.7623513773
 10
349.3937465613
 20
158.7711039635
 10
349.4375982253
 20
158.7779262793
 10
349.4836308458
 20
158.7832775239
 10
349.5319620397
 20
158.7874670073
 10
349.5826201198
 20
158.7909537505
 10
349.6356402471
 20
158.7937478196
 10
349.6909963908
 20
158.7960102948
 10
349.7489004388
 20
158.7977471544
 10
349.8095319396
 20
158.7989948636
 10
349.87296188
 20
158.7998230421
 10
349.9393374509
 20
158.8003236864
 10
350.0086095884
 20
158.8004661311
  0
LWPOLYLINE
  5
52D
100
AcDbEntity
  8
0
100
AcDbPolyline
 62
7
  6
CONTINUOUS
 90
7
 70
0
 10
357.8536382636
 20
153.8987849614
 10
357.8320105403
 20
153.8668747431
 10
357.8071479478
 20
153.8407238241
 10
357.7789830494
 20
153.8203047872
 10
357.7477181556
 20
153.8056998846
 10
357.7135555771
 20
153.7969913688
 10
357.676427877
 20
153.7941518222
  0
LWPOLYLINE
  5
52E
100
AcDbEntity
  8
0
100
AcDbPolyline
 62
7
  6
CONTINUOUS
 90
7
 70
0
 10
356.0435305752
 20
153.3639182511
 10
356.0766786785
 20
153.4065359226
 10
356.1071699595
 20
153.4516427536
 10
356.135023551
 20
153.4991572942
 10
356.1601820545
 20
153.5493238942
 10
356.1825880711
 20
153.6023869033
 10
356.2022607338
 20
153.6582648715
  0
LWPOLYLINE
  5
52F
100
AcDbEntity
  8
0
100
AcDbPolyline
 62
7
  6
CONTINUOUS
 90
7
 70
0
 10
357.8337704323
 20
154.6198860213
 10
357.858424316
 20
154.5858856053
 10
357.8784840219
 20
154.5470832114
 10
357.8939314139
 20
154.5031411581
 10
357.9048208997
 20
154.4550724895
 10
357.9112068867
 20
154.4038902497
 10
357.9130712391
 20
154.3492567574
  0
LWPOLYLINE
  5
530
100
AcDbEntity
  8
0
100
AcDbPolyline
 62
7
  6
CONTINUOUS
 90
7
 70
0
 10
358.5512529567
 20
153.7777882488
 10
358.5714844276
 20
153.7469966502
 10
358.5932856878
 20
153.7187857684
 10
358.6166575852
 20
153.6932153176
 10
358.6415975758
 20
153.6701061547
 10
358.6681031156
 20
153.6492791364
 10
358.6961750527
 20
153.630793977
  0
LINE
  5
531
100
AcDbEntity
  8
0
100
AcDbLine
 62
7
  6
CONTINUOUS
 10
355.0544698597
 20
154.5859001194
 11
355.0368475319
 21
154.8867392709
  0
LINE
  5
532
100
AcDbEntity
  8
0
100
AcDbLine
 62
7
  6
CONTINUOUS
 10
355.0368475319
 20
153.1748511111
 11
355.0544698597
 21
153.471914128
  0
LINE
  5
533
100
AcDbEntity
  8
0
100
AcDbLine
 62
7
  6
CONTINUOUS
 10
353.5946095884
 20
158.1807602488
 11
353.7226095884
 21
158.8687602488
  0
LINE
  5
534
100
AcDbEntity
  8
0
100
AcDbLine
 62
7
  6
CONTINUOUS
 10
356.4326095884
 20
158.8687602488
 11
356.3046095884
 21
158.1807602488
  0
LINE
  5
535
100
AcDbEntity
  8
0
100
AcDbLine
 62
7
  6
CONTINUOUS
 10
354.52873433
 20
158.7588534274
 11
354.4206095884
 21
158.1807602488
  0
LINE
  5
536
100
AcDbEntity
  8
0
100
AcDbLine
 62
7
  6
CONTINUOUS
 10
355.4766095884
 20
158.1807602488
 11
355.5934300863
 21
158.8057499043
  0
LWPOLYLINE
  5
537
100
AcDbEntity
  8
0
100
AcDbPolyline
 62
7
  6
CONTINUOUS
 90
27
 70
0
 10
354.52873433
 20
158.7588534274
 10
354.5357017499
 20
158.7949487646
 10
354.5431047973
 20
158.8299718282
 10
354.5508619249
 20
158.8638823041
 10
354.5592177744
 20
158.8968011345
 10
354.56829824
 20
158.9288335143
 10
354.5783780164
 20
158.9599863716
 10
354.5896187312
 20
158.990366557
 10
354.6024854801
 20
159.0197794979
 10
354.6173349922
 20
159.04826407
 10
354.6346539952
 20
159.0752267782
 10
354.6551973986
 20
159.1003273903
 10
354.6785173867
 20
159.1228449928
 10
354.7046721673
 20
159.1418178779
 10
354.7328985794
 20
159.1576281967
 10
354.7626830221
 20
159.1701258977
 10
354.7933350228
 20
159.1799458814
 10
354.8238745649
 20
159.1875137183
 10
354.8546566787
 20
159.193307347
 10
354.8856142434
 20
159.1978974007
 10
354.917033696
 20
159.2014313664
 10
354.9490807913
 20
159.2042310694
 10
354.9820504552
 20
159.2063441277
 10
355.016192688
 20
159.2079175271
 10
355.0518080217
 20
159.2089749889
 10
355.0893283051
 20
159.209598319
 10
355.1286095884
 20
159.2097602488
  0
LINE
  5
538
100
AcDbEntity
  8
0
100
AcDbLine
 62
7
  6
CONTINUOUS
 10
352.900055133
 20
159.4707602488
 11
352.7046095884
 21
158.4837602488
  0
LINE
  5
539
100
AcDbEntity
  8
0
100
AcDbLine
 62
7
  6
CONTINUOUS
 10
353.3966095884
 20
158.4837602488
 11
353.3366095884
 21
158.1807602488
  0
LWPOLYLINE
  5
53A
100
AcDbEntity
  8
0
100
AcDbPolyline
 62
7
  6
CONTINUOUS
 90
7
 70
0
 10
356.2022607338
 20
153.6582648715
 10
356.2180271632
 20
153.7135070036
 10
356.2309589646
 20
153.771225353
 10
356.2410742381
 20
153.8314887118
 10
356.2483186835
 20
153.8940907036
 10
356.252638001
 20
153.9588249519
 10
356.2540502906
 20
154.0257602488
  0
LWPOLYLINE
  5
53B
100
AcDbEntity
  8
0
100
AcDbPolyline
 62
7
  6
CONTINUOUS
 90
7
 70
0
 10
355.8361479641
 20
153.6582078134
 10
355.8120748384
 20
153.6110432043
 10
355.785461302
 20
153.5683463345
 10
355.7562269575
 20
153.5300717788
 10
355.7246129968
 20
153.4963558124
 10
355.6908606117
 20
153.4673347101
 10
355.654889405
 20
153.442963047
  0
LWPOLYLINE
  5
53C
100
AcDbEntity
  8
0
100
AcDbPolyline
 62
7
  6
CONTINUOUS
 90
9
 70
0
 10
359.186917317
 20
153.9363895809
 10
359.1708423795
 20
153.9073501473
 10
359.1523925077
 20
153.8820727648
 10
359.1315331273
 20
153.8605052755
 10
359.1083679615
 20
153.8428041527
 10
359.0829475743
 20
153.8291346734
 10
359.0553968687
 20
153.8194182691
 10
359.0258753218
 20
153.8136285292
 10
358.9943297744
 20
153.8117742573
  0
LWPOLYLINE
  5
53D
100
AcDbEntity
  8
0
100
AcDbPolyline
 62
7
  6
CONTINUOUS
 90
7
 70
0
 10
358.15779811
 20
154.618854835
 10
358.1341547928
 20
154.667153743
 10
358.1064859251
 20
154.7119623738
 10
358.0749178273
 20
154.7531695117
 10
358.0390715382
 20
154.791108804
 10
357.9985680964
 20
154.826113898
 10
357.9535338224
 20
154.8580735779
  0
LWPOLYLINE
  5
53E
100
AcDbEntity
  8
0
100
AcDbPolyline
 62
7
  6
CONTINUOUS
 90
7
 70
0
 10
359.241043222
 20
154.7344315742
 10
359.2329266663
 20
154.7521223526
 10
359.2233942513
 20
154.7696350388
 10
359.2124018266
 20
154.786985664
 10
359.2000818431
 20
154.8041261344
 10
359.1865667518
 20
154.8210083563
 10
359.1718124024
 20
154.8376483609
  0
LWPOLYLINE
  5
53F
100
AcDbEntity
  8
0
100
AcDbPolyline
 62
7
  6
CONTINUOUS
 90
7
 70
0
 10
359.1856586099
 20
154.5921938156
 10
359.2051260767
 20
154.5463126128
 10
359.2206870678
 20
154.4968528328
 10
359.2322033473
 20
154.4436299819
 10
359.2400896229
 20
154.3871975411
 10
359.2447606025
 20
154.3281089915
 10
359.2460780502
 20
154.2661798393
  0
LWPOLYLINE
  5
540
100
AcDbEntity
  8
0
100
AcDbPolyline
 62
7
  6
CONTINUOUS
 90
7
 70
0
 10
355.8348892468
 20
154.3958302009
 10
355.8561343618
 20
154.3430684384
 10
355.8733530824
 20
154.2865655935
 10
355.8864893378
 20
154.2261581127
 10
355.8957113404
 20
154.1623366569
 10
355.9011873028
 20
154.0955918867
 10
355.9028611541
 20
154.0257602488
  0
LWPOLYLINE
  5
541
100
AcDbEntity
  8
0
100
AcDbPolyline
 62
7
  6
CONTINUOUS
 90
7
 70
0
 10
358.8098163971
 20
153.9227794985
 10
358.79225832
 20
153.9722503797
 10
358.7786770172
 20
154.0254966544
 10
358.7693958773
 20
154.0826747847
 10
358.7634447347
 20
154.1433153845
 10
358.7598534241
 20
154.2069490676
 10
358.758945334
 20
154.2737322961
  0
LWPOLYLINE
  5
542
100
AcDbEntity
  8
0
100
AcDbPolyline
 62
7
  6
CONTINUOUS
 90
7
 70
0
 10
356.2011830695
 20
154.3945715051
 10
356.1813391391
 20
154.4511675018
 10
356.1588631492
 20
154.5046312532
 10
356.1337159803
 20
154.5548840291
 10
356.1060149911
 20
154.6021620204
 10
356.0758775405
 20
154.6467014182
 10
356.043264509
 20
154.6884234922
  0
LWPOLYLINE
  5
543
100
AcDbEntity
  8
0
100
AcDbPolyline
 62
7
  6
CONTINUOUS
 90
7
 70
0
 10
357.1869501893
 20
153.9515463508
 10
357.2008837554
 20
153.9085438386
 10
357.2166594451
 20
153.8679848766
 10
357.2342579206
 20
153.8297433713
 10
357.253737195
 20
153.7941976034
 10
357.2751552816
 20
153.7617258538
 10
357.2984928425
 20
153.7322020289
  0
LWPOLYLINE
  5
544
100
AcDbEntity
  8
0
100
AcDbPolyline
 62
7
  6
CONTINUOUS
 90
6
 70
0
 10
359.5758683086
 20
153.5977882658
 10
359.5721527045
 20
153.6334321065
 10
359.5693661654
 20
153.6700095598
 10
359.5676157051
 20
153.7075228222
 10
359.5665802821
 20
153.7459653044
 10
359.565938855
 20
153.7853304171
  0
LINE
  5
545
100
AcDbEntity
  8
0
100
AcDbLine
 62
7
  6
CONTINUOUS
 10
357.227057016
 20
154.6085574632
 11
357.2119521022
 21
154.861564446
  0
LWPOLYLINE
  5
546
100
AcDbEntity
  8
0
100
AcDbPolyline
 62
7
  6
CONTINUOUS
 90
7
 70
0
 10
358.2227213264
 20
154.2812846993
 10
358.2207990394
 20
154.3440602626
 10
358.2152550553
 20
154.4042185773
 10
358.2060308764
 20
154.4617486756
 10
358.1933019957
 20
154.5166834609
 10
358.1772439061
 20
154.5690558367
 10
358.15779811
 20
154.618854835
  0
LWPOLYLINE
  5
547
100
AcDbEntity
  8
0
100
AcDbPolyline
 62
7
  6
CONTINUOUS
 90
7
 70
0
 10
356.2540502906
 20
154.0257602488
 10
356.2524927056
 20
154.0929136544
 10
356.2479825057
 20
154.1578525264
 10
356.2404717216
 20
154.2206325631
 10
356.2301042616
 20
154.2810866695
 10
356.217024034
 20
154.3390477507
 10
356.2011830695
 20
154.3945715051
  0
LWPOLYLINE
  5
548
100
AcDbEntity
  8
0
100
AcDbPolyline
 62
7
  6
CONTINUOUS
 90
7
 70
0
 10
358.4392249466
 20
154.2611448501
 10
358.440003668
 20
154.2165055206
 10
358.4423146201
 20
154.1721349513
 10
358.446155514
 20
154.1280663323
 10
358.4515332161
 20
154.0842000933
 10
358.4584545925
 20
154.040436664
 10
358.4669173544
 20
153.9968092345
  0
LWPOLYLINE
  5
549
100
AcDbEntity
  8
0
100
AcDbPolyline
 62
7
  6
CONTINUOUS
 90
7
 70
0
 10
357.1452389122
 20
154.2875784491
 10
357.1462213033
 20
154.2265655511
 10
357.149515473
 20
154.1674753727
 10
357.1550501555
 20
154.1102326329
 10
357.1630391481
 20
154.0550631746
 10
357.1736962479
 20
154.0021928409
 10
357.1869501893
 20
153.9515463508
  0
LWPOLYLINE
  5
54A
100
AcDbEntity
  8
0
100
AcDbPolyline
 62
7
  6
CONTINUOUS
 90
7
 70
0
 10
359.2674767137
 20
153.8042218005
 10
359.2676771389
 20
153.768467462
 10
359.268423785
 20
153.7332399539
 10
359.2696745268
 20
153.6985273987
 10
359.2715557403
 20
153.664365429
 10
359.2741938013
 20
153.6307896772
 10
359.2775465847
 20
153.5977882658
  0
LINE
  5
54B
100
AcDbEntity
  8
0
100
AcDbLine
 62
7
  6
CONTINUOUS
 10
357.1452389122
 20
154.2875784491
 11
357.1452389122
 21
154.3492567574
  0
LINE
  5
54C
100
AcDbEntity
  8
0
100
AcDbLine
 62
7
  6
CONTINUOUS
 10
359.2460780502
 20
154.7344315742
 11
359.2460780502
 21
155.482123891
  0
LWPOLYLINE
  5
54D
100
AcDbEntity
  8
0
100
AcDbPolyline
 62
7
  6
CONTINUOUS
 90
19
 70
0
 10
358.758945334
 20
154.2737322961
 10
358.7591652547
 20
154.3014184578
 10
358.7599795607
 20
154.3291097893
 10
358.7613518091
 20
154.3568213594
 10
358.7633913287
 20
154.3845079614
 10
358.7661531793
 20
154.4121548832
 10
358.7697637246
 20
154.4396857103
 10
358.7742981977
 20
154.4669965106
 10
358.7799650507
 20
154.4941551247
 10
358.7868355676
 20
154.5211655164
 10
358.7953964857
 20
154.5481153841
 10
358.8058904756
 20
154.5752493026
 10
358.8191210221
 20
154.6021006062
 10
358.8355479246
 20
154.6287140236
 10
358.8564449104
 20
154.6537999466
 10
358.8833055854
 20
154.6769007255
 10
358.9159301125
 20
154.6955652139
 10
358.954653777
 20
154.7068642535
 10
358.9993648172
 20
154.7117742305
  0
LWPOLYLINE
  5
54E
100
AcDbEntity
  8
0
100
AcDbPolyline
 62
7
  6
CONTINUOUS
 90
7
 70
0
 10
359.2460780502
 20
154.2661798393
 10
359.244803115
 20
154.2037018642
 10
359.2402519794
 20
154.1440387663
 10
359.2325726505
 20
154.0870121436
 10
359.2213211067
 20
154.0331572024
 10
359.2060533265
 20
153.9830091488
 10
359.186917317
 20
153.9363895809
  0
LWPOLYLINE
  5
54F
100
AcDbEntity
  8
0
100
AcDbPolyline
 62
7
  6
CONTINUOUS
 90
7
 70
0
 10
355.9028611541
 20
154.0257602488
 10
355.9012606665
 20
153.9564001776
 10
355.8959335052
 20
153.8901023363
 10
355.8869553054
 20
153.8266995658
 10
355.874099162
 20
153.7666933431
 10
355.8571381699
 20
153.7105851453
 10
355.8361479641
 20
153.6582078134
  0
LWPOLYLINE
  5
550
100
AcDbEntity
  8
0
100
AcDbPolyline
 62
7
  6
CONTINUOUS
 90
7
 70
0
 10
357.9130712391
 20
154.1478581582
 10
357.9114513929
 20
154.1003082829
 10
357.9064787161
 20
154.0550816161
 10
357.8981170487
 20
154.0120920372
 10
357.8864748707
 20
153.9715979077
 10
357.8716606624
 20
153.9338575893
 10
357.8536382636
 20
153.8987849614
  0
LWPOLYLINE
  5
551
100
AcDbEntity
  8
0
100
AcDbPolyline
 62
7
  6
CONTINUOUS
 90
41
 70
0
 10
356.4326095884
 20
158.8687602488
 10
356.4389306742
 20
158.9056159166
 10
356.4437381776
 20
158.9417338821
 10
356.4471115025
 20
158.9770579323
 10
356.4488124377
 20
159.0117567061
 10
356.448738734
 20
159.0460764644
 10
356.4465619098
 20
159.0797281278
 10
356.4420701929
 20
159.1124905963
 10
356.4348112047
 20
159.1444061917
 10
356.4242236784
 20
159.1756762431
 10
356.4104225056
 20
159.2056026281
 10
356.3931997038
 20
159.2335891177
 10
356.372962628
 20
159.2595313603
 10
356.349791041
 20
159.2831377331
 10
356.3244597356
 20
159.3043738201
 10
356.2977034329
 20
159.322969002
 10
356.2697221115
 20
159.3393402665
 10
356.2411004517
 20
159.3536742375
 10
356.2114190702
 20
159.366391387
 10
356.1805055218
 20
159.3779463406
 10
356.1482036727
 20
159.388423262
 10
356.114226956
 20
159.3980592572
 10
356.0787942258
 20
159.4068501256
 10
356.041934188
 20
159.4148672223
 10
356.0039307203
 20
159.4221209864
 10
355.9651511417
 20
159.4286109883
 10
355.9253738348
 20
159.4344411892
 10
355.8845931288
 20
159.4396976692
 10
355.8425285024
 20
159.444433641
 10
355.7989407733
 20
159.4487271719
 10
355.7537002531
 20
159.4525897785
 10
355.7066328017
 20
159.4560554771
 10
355.6576325921
 20
159.4591348361
 10
355.6066138455
 20
159.4618503039
 10
355.553342277
 20
159.4642002568
 10
355.4976508943
 20
159.4661902038
 10
355.4392520409
 20
159.4678211939
 10
355.3778361354
 20
159.4690978047
 10
355.3133019601
 20
159.4700149594
 10
355.2454195519
 20
159.4705686636
 10
355.1742655651
 20
159.4707602488
  0
LINE
  5
552
100
AcDbEntity
  8
0
100
AcDbLine
 62
7
  6
CONTINUOUS
 10
356.8413353164
 20
159.1338756606
 11
356.9002655651
 21
159.4707602488
  0
LINE
  5
553
100
AcDbEntity
  8
0
100
AcDbLine
 62
7
  6
CONTINUOUS
 10
356.7466095884
 20
158.1807602488
 11
356.8000258957
 21
158.486123472
  0
LINE
  5
554
100
AcDbEntity
  8
0
100
AcDbLine
 62
7
  6
CONTINUOUS
 10
357.1032509814
 20
158.6417602116
 11
357.1594242593
 21
158.9628841174
  0
LINE
  5
555
100
AcDbEntity
  8
0
100
AcDbLine
 62
7
  6
CONTINUOUS
 10
358.2560258957
 20
158.486123472
 11
358.2832509814
 21
158.6417602116
  0
LINE
  5
556
100
AcDbEntity
  8
0
100
AcDbLine
 62
7
  6
CONTINUOUS
 10
358.3394242593
 20
158.9628841174
 11
358.3693353164
 21
159.1338756606
  0
LINE
  5
557
100
AcDbEntity
  8
0
100
AcDbLine
 62
7
  6
CONTINUOUS
 10
359.2702655651
 20
159.4707602488
 11
359.0446095884
 21
158.1807602488
  0
LINE
  5
558
100
AcDbEntity
  8
0
100
AcDbLine
 62
7
  6
CONTINUOUS
 10
359.5203151896
 20
158.1807602488
 11
359.774432063
 21
159.4707602488
  0
LINE
  5
559
100
AcDbEntity
  8
0
100
AcDbLine
 62
7
  6
CONTINUOUS
 10
360.68769368
 20
158.9187602488
 11
360.5423151896
 21
158.1807602488
  0
LINE
  5
55A
100
AcDbEntity
  8
0
100
AcDbLine
 62
7
  6
CONTINUOUS
 10
360.2933508516
 20
154.6010050063
 11
360.0378264547
 21
153.5977882658
  0
LINE
  5
55B
100
AcDbEntity
  8
0
100
AcDbLine
 62
7
  6
CONTINUOUS
 10
359.7281759382
 20
153.5977882658
 11
360.2127914548
 21
155.1787672316
  0
LWPOLYLINE
  5
55C
100
AcDbEntity
  8
0
100
AcDbPolyline
 62
7
  6
CONTINUOUS
 90
7
 70
0
 10
358.4946095873
 20
154.6312148735
 10
358.4773571967
 20
154.5765311154
 10
358.4633585648
 20
154.5189418734
 10
358.4526559839
 20
154.4583462236
 10
358.4451225769
 20
154.3950469379
 10
358.440631467
 20
154.329346788
 10
358.4392249466
 20
154.2611448501
  0
LWPOLYLINE
  5
55D
100
AcDbEntity
  8
0
100
AcDbPolyline
 62
7
  6
CONTINUOUS
 90
7
 70
0
 10
360.47838583
 20
155.0516343733
 10
360.487516577
 20
155.0805176428
 10
360.4974877265
 20
155.1079543119
 10
360.5081649381
 20
155.134074159
 10
360.519951233
 20
155.1584878491
 10
360.5332496323
 20
155.1808060474
 10
360.5479257956
 20
155.2011585322
  0
LWPOLYLINE
  5
55E
100
AcDbEntity
  8
0
100
AcDbPolyline
 62
7
  6
CONTINUOUS
 90
7
 70
0
 10
358.1565434572
 20
153.9223183332
 10
358.1763544655
 20
153.9747752468
 10
358.192727554
 20
154.0302592384
 10
358.2057326842
 20
154.0888441382
 10
358.2151599717
 20
154.1503084555
 10
358.2207995319
 20
154.214430699
 10
358.2227213264
 20
154.2812846993
  0
LINE
  5
55F
100
AcDbEntity
  8
0
100
AcDbLine
 62
7
  6
CONTINUOUS
 10
360.4557284594
 20
154.9383476612
 11
360.896287942
 21
153.5977882658
  0
LINE
  5
560
100
AcDbEntity
  8
0
100
AcDbLine
 62
7
  6
CONTINUOUS
 10
360.5664976836
 20
153.5977882658
 11
360.2983858944
 21
154.6010050063
  0
LWPOLYLINE
  5
561
100
AcDbEntity
  8
0
100
AcDbPolyline
 62
7
  6
CONTINUOUS
 90
7
 70
0
 10
358.4669173544
 20
153.9968092345
 10
358.4767632978
 20
153.9558856803
 10
358.4883397802
 20
153.9167300389
 10
358.501690436
 20
153.8793422075
 10
358.5166843628
 20
153.8437224948
 10
358.5331906583
 20
153.8098712096
 10
358.5512529567
 20
153.7777882488
  0
LINE
  5
562
100
AcDbEntity
  8
0
100
AcDbLine
 62
7
  6
CONTINUOUS
 10
359.5657984377
 20
155.482123891
 11
359.565938855
 21
153.7853304171
  0
LINE
  5
563
100
AcDbEntity
  8
0
100
AcDbLine
 62
7
  6
CONTINUOUS
 10
360.9630012394
 20
153.1257602488
 11
360.9630012394
 21
153.3888372098
  0
LINE
  5
564
100
AcDbEntity
  8
0
100
AcDbLine
 62
7
  6
CONTINUOUS
 10
361.3620221556
 20
153.3888372098
 11
361.3620221556
 21
154.9257602488
  0
LINE
  5
565
100
AcDbEntity
  8
0
100
AcDbLine
 62
7
  6
CONTINUOUS
 10
361.6918123603
 20
154.9257602488
 11
361.6918123603
 21
153.3888372098
  0
LINE
  5
566
100
AcDbEntity
  8
0
100
AcDbLine
 62
7
  6
CONTINUOUS
 10
362.0946095888
 20
153.3888372098
 11
362.0946095888
 21
153.1257602488
  0
LINE
  5
567
100
AcDbEntity
  8
RUNDUNGEN
100
AcDbLine
 62
9
  6
CONTINUOUS
 10
363.3946095884
 20
163.6757602488
 11
363.3946095884
 21
149.1757602488
  0
LINE
  5
568
100
AcDbEntity
  8
0
100
AcDbLine
 62
7
  6
CONTINUOUS
 10
360.7955885888
 20
155.4645015096
 11
360.777966261
 21
155.2190469568
  0
LINE
  5
569
100
AcDbEntity
  8
0
100
AcDbLine
 62
7
  6
CONTINUOUS
 10
361.9507591544
 20
158.7100588545
 11
362.1006095884
 21
159.4707602488
  0
LINE
  5
56A
100
AcDbEntity
  8
0
100
AcDbLine
 62
7
  6
CONTINUOUS
 10
363.0946095884
 20
159.4707602488
 11
362.840492715
 21
158.1807602488
  0
LINE
  5
56B
100
AcDbEntity
  8
0
100
AcDbLine
 62
7
  6
CONTINUOUS
 10
360.47838583
 20
155.0516343733
 11
360.4557284594
 21
154.9383476612
  0
LINE
  5
56C
100
AcDbEntity
  8
RUNDUNGEN
100
AcDbLine
 62
7
  6
CONTINUOUS
 10
364.3946095884
 20
162.6757602488
 11
364.3946095884
 21
150.1757602488
  0
LINE
  5
56D
100
AcDbEntity
  8
0
100
AcDbLine
 62
7
  6
CONTINUOUS
 10
371.0446095884
 20
160.5657602488
 11
371.0446095884
 21
152.2857602488
  0
ARC
  5
56E
100
AcDbEntity
  8
RUNDUNGEN
100
AcDbCircle
 62
7
  6
CONTINUOUS
 10
89.2855913013
 20
207.529122998
 40
1.0
100
AcDbArc
 50
180.0
 51
270.0
  0
ARC
  5
56F
100
AcDbEntity
  8
RUNDUNGEN
100
AcDbCircle
 62
7
  6
CONTINUOUS
 10
89.2855913013
 20
212.529122998
 40
1.0
100
AcDbArc
 50
90.0
 51
180.0
  0
ARC
  5
570
100
AcDbEntity
  8
RUNDUNGEN
100
AcDbCircle
 62
7
  6
CONTINUOUS
 10
111.7855913013
 20
205.829122998
 40
1.0
100
AcDbArc
 50
48.5903778907
 51
131.4096221093
  0
ARC
  5
571
100
AcDbEntity
  8
RUNDUNGEN
100
AcDbCircle
 62
7
  6
CONTINUOUS
 10
114.7855913013
 20
205.829122998
 40
1.0
100
AcDbArc
 50
48.5903778907
 51
131.4096221093
  0
ARC
  5
572
100
AcDbEntity
  8
RUNDUNGEN
100
AcDbCircle
 62
7
  6
CONTINUOUS
 10
117.7855913013
 20
205.829122998
 40
1.0
100
AcDbArc
 50
48.5903778907
 51
131.4096221093
  0
ARC
  5
573
100
AcDbEntity
  8
RUNDUNGEN
100
AcDbCircle
 62
7
  6
CONTINUOUS
 10
113.991865908
 20
206.729122998
 40
0.2
100
AcDbArc
 50
269.9999999999
 51
311.4096221092
  0
ARC
  5
574
100
AcDbEntity
  8
RUNDUNGEN
100
AcDbCircle
 62
7
  6
CONTINUOUS
 10
112.5793166946
 20
206.729122998
 40
0.2
100
AcDbArc
 50
228.5903778907
 51
270.0
  0
ARC
  5
575
100
AcDbEntity
  8
RUNDUNGEN
100
AcDbCircle
 62
7
  6
CONTINUOUS
 10
110.991865908
 20
206.729122998
 40
0.2
100
AcDbArc
 50
269.9999999999
 51
311.4096221092
  0
ARC
  5
576
100
AcDbEntity
  8
RUNDUNGEN
100
AcDbCircle
 62
7
  6
CONTINUOUS
 10
118.5793166946
 20
206.729122998
 40
0.2
100
AcDbArc
 50
228.5903778907
 51
270.0
  0
ARC
  5
577
100
AcDbEntity
  8
RUNDUNGEN
100
AcDbCircle
 62
7
  6
CONTINUOUS
 10
116.991865908
 20
206.729122998
 40
0.2
100
AcDbArc
 50
269.9999999999
 51
311.4096221092
  0
ARC
  5
578
100
AcDbEntity
  8
RUNDUNGEN
100
AcDbCircle
 62
7
  6
CONTINUOUS
 10
115.5793166946
 20
206.729122998
 40
0.2
100
AcDbArc
 50
228.5903778907
 51
270.0
  0
ARC
  5
579
100
AcDbEntity
  8
RUNDUNGEN
100
AcDbCircle
 62
7
  6
CONTINUOUS
 10
118.7855913013
 20
207.529122998
 40
1.0
100
AcDbArc
 50
270.0
 51
360.0
  0
ARC
  5
57A
100
AcDbEntity
  8
RUNDUNGEN
100
AcDbCircle
 62
7
  6
CONTINUOUS
 10
128.2855913013
 20
207.029122998
 40
0.5
100
AcDbArc
 50
270.0
 51
360.0
  0
ARC
  5
57B
100
AcDbEntity
  8
RUNDUNGEN
100
AcDbCircle
 62
7
  6
CONTINUOUS
 10
113.991865908
 20
213.329122998
 40
0.2
100
AcDbArc
 50
48.5903778908
 51
90.0000000001
  0
ARC
  5
57C
100
AcDbEntity
  8
RUNDUNGEN
100
AcDbCircle
 62
7
  6
CONTINUOUS
 10
112.5793166946
 20
213.329122998
 40
0.2
100
AcDbArc
 50
90.0
 51
131.4096221093
  0
ARC
  5
57D
100
AcDbEntity
  8
RUNDUNGEN
100
AcDbCircle
 62
7
  6
CONTINUOUS
 10
110.991865908
 20
213.329122998
 40
0.2
100
AcDbArc
 50
48.5903778908
 51
90.0000000001
  0
ARC
  5
57E
100
AcDbEntity
  8
RUNDUNGEN
100
AcDbCircle
 62
7
  6
CONTINUOUS
 10
118.7855913013
 20
212.529122998
 40
1.0
100
AcDbArc
 50
0.0
 51
90.0
  0
ARC
  5
57F
100
AcDbEntity
  8
RUNDUNGEN
100
AcDbCircle
 62
7
  6
CONTINUOUS
 10
118.5793166946
 20
213.329122998
 40
0.2
100
AcDbArc
 50
90.0
 51
131.4096221093
  0
ARC
  5
580
100
AcDbEntity
  8
RUNDUNGEN
100
AcDbCircle
 62
7
  6
CONTINUOUS
 10
116.991865908
 20
213.329122998
 40
0.2
100
AcDbArc
 50
48.5903778908
 51
90.0000000001
  0
ARC
  5
581
100
AcDbEntity
  8
RUNDUNGEN
100
AcDbCircle
 62
7
  6
CONTINUOUS
 10
115.5793166946
 20
213.329122998
 40
0.2
100
AcDbArc
 50
90.0
 51
131.4096221093
  0
ARC
  5
582
100
AcDbEntity
  8
RUNDUNGEN
100
AcDbCircle
 62
7
  6
CONTINUOUS
 10
111.7855913013
 20
214.229122998
 40
1.0
100
AcDbArc
 50
228.5903778907
 51
311.4096221093
  0
ARC
  5
583
100
AcDbEntity
  8
RUNDUNGEN
100
AcDbCircle
 62
7
  6
CONTINUOUS
 10
114.7855913013
 20
214.229122998
 40
1.0
100
AcDbArc
 50
228.5903778907
 51
311.4096221093
  0
ARC
  5
584
100
AcDbEntity
  8
RUNDUNGEN
100
AcDbCircle
 62
7
  6
CONTINUOUS
 10
117.7855913013
 20
214.229122998
 40
1.0
100
AcDbArc
 50
228.5903778907
 51
311.4096221093
  0
ARC
  5
585
100
AcDbEntity
  8
RUNDUNGEN
100
AcDbCircle
 62
7
  6
CONTINUOUS
 10
128.2855913013
 20
213.029122998
 40
0.5
100
AcDbArc
 50
0.0
 51
90.0
  0
ARC
  5
586
100
AcDbEntity
  8
RUNDUNGEN
100
AcDbCircle
 62
7
  6
CONTINUOUS
 10
324.3946095884
 20
207.029122998
 40
0.5
100
AcDbArc
 50
180.0
 51
270.0
  0
ARC
  5
587
100
AcDbEntity
  8
RUNDUNGEN
100
AcDbCircle
 62
7
  6
CONTINUOUS
 10
340.8946095884
 20
205.829122998
 40
1.0
100
AcDbArc
 50
48.5903778907
 51
131.4096221093
  0
ARC
  5
588
100
AcDbEntity
  8
RUNDUNGEN
100
AcDbCircle
 62
7
  6
CONTINUOUS
 10
337.8946095884
 20
205.829122998
 40
1.0
100
AcDbArc
 50
48.5903778907
 51
131.4096221093
  0
ARC
  5
589
100
AcDbEntity
  8
RUNDUNGEN
100
AcDbCircle
 62
7
  6
CONTINUOUS
 10
334.8946095884
 20
205.829122998
 40
1.0
100
AcDbArc
 50
48.5903778907
 51
131.4096221093
  0
ARC
  5
58A
100
AcDbEntity
  8
RUNDUNGEN
100
AcDbCircle
 62
7
  6
CONTINUOUS
 10
334.1008841951
 20
206.729122998
 40
0.2
100
AcDbArc
 50
270.0
 51
311.4096221093
  0
ARC
  5
58B
100
AcDbEntity
  8
RUNDUNGEN
100
AcDbCircle
 62
7
  6
CONTINUOUS
 10
335.6883349818
 20
206.729122998
 40
0.2
100
AcDbArc
 50
228.5903778908
 51
270.0000000001
  0
ARC
  5
58C
100
AcDbEntity
  8
RUNDUNGEN
100
AcDbCircle
 62
7
  6
CONTINUOUS
 10
337.1008841951
 20
206.729122998
 40
0.2
100
AcDbArc
 50
270.0
 51
311.4096221093
  0
ARC
  5
58D
100
AcDbEntity
  8
RUNDUNGEN
100
AcDbCircle
 62
7
  6
CONTINUOUS
 10
333.8946095884
 20
207.529122998
 40
1.0
100
AcDbArc
 50
180.0
 51
270.0
  0
ARC
  5
58E
100
AcDbEntity
  8
RUNDUNGEN
100
AcDbCircle
 62
7
  6
CONTINUOUS
 10
338.6883349818
 20
206.729122998
 40
0.2
100
AcDbArc
 50
228.5903778908
 51
270.0000000001
  0
ARC
  5
58F
100
AcDbEntity
  8
RUNDUNGEN
100
AcDbCircle
 62
7
  6
CONTINUOUS
 10
340.1008841951
 20
206.729122998
 40
0.2
100
AcDbArc
 50
270.0
 51
311.4096221093
  0
ARC
  5
590
100
AcDbEntity
  8
RUNDUNGEN
100
AcDbCircle
 62
7
  6
CONTINUOUS
 10
341.6883349818
 20
206.729122998
 40
0.2
100
AcDbArc
 50
228.5903778908
 51
270.0000000001
  0
ARC
  5
591
100
AcDbEntity
  8
RUNDUNGEN
100
AcDbCircle
 62
7
  6
CONTINUOUS
 10
324.3946095884
 20
213.029122998
 40
0.5
100
AcDbArc
 50
90.0
 51
180.0
  0
ARC
  5
592
100
AcDbEntity
  8
RUNDUNGEN
100
AcDbCircle
 62
7
  6
CONTINUOUS
 10
333.8946095884
 20
212.529122998
 40
1.0
100
AcDbArc
 50
90.0
 51
180.0
  0
ARC
  5
593
100
AcDbEntity
  8
RUNDUNGEN
100
AcDbCircle
 62
7
  6
CONTINUOUS
 10
334.1008841951
 20
213.329122998
 40
0.2
100
AcDbArc
 50
48.5903778907
 51
90.0
  0
ARC
  5
594
100
AcDbEntity
  8
RUNDUNGEN
100
AcDbCircle
 62
7
  6
CONTINUOUS
 10
335.6883349818
 20
213.329122998
 40
0.2
100
AcDbArc
 50
89.9999999999
 51
131.4096221092
  0
ARC
  5
595
100
AcDbEntity
  8
RUNDUNGEN
100
AcDbCircle
 62
7
  6
CONTINUOUS
 10
337.1008841951
 20
213.329122998
 40
0.2
100
AcDbArc
 50
48.5903778907
 51
90.0
  0
ARC
  5
596
100
AcDbEntity
  8
RUNDUNGEN
100
AcDbCircle
 62
7
  6
CONTINUOUS
 10
338.6883349818
 20
213.329122998
 40
0.2
100
AcDbArc
 50
89.9999999999
 51
131.4096221092
  0
ARC
  5
597
100
AcDbEntity
  8
RUNDUNGEN
100
AcDbCircle
 62
7
  6
CONTINUOUS
 10
340.1008841951
 20
213.329122998
 40
0.2
100
AcDbArc
 50
48.5903778907
 51
90.0
  0
ARC
  5
598
100
AcDbEntity
  8
RUNDUNGEN
100
AcDbCircle
 62
7
  6
CONTINUOUS
 10
341.6883349818
 20
213.329122998
 40
0.2
100
AcDbArc
 50
89.9999999999
 51
131.4096221092
  0
ARC
  5
599
100
AcDbEntity
  8
RUNDUNGEN
100
AcDbCircle
 62
7
  6
CONTINUOUS
 10
340.8946095884
 20
214.229122998
 40
1.0
100
AcDbArc
 50
228.5903778907
 51
311.4096221093
  0
ARC
  5
59A
100
AcDbEntity
  8
RUNDUNGEN
100
AcDbCircle
 62
7
  6
CONTINUOUS
 10
337.8946095884
 20
214.229122998
 40
1.0
100
AcDbArc
 50
228.5903778907
 51
311.4096221093
  0
ARC
  5
59B
100
AcDbEntity
  8
RUNDUNGEN
100
AcDbCircle
 62
7
  6
CONTINUOUS
 10
334.8946095884
 20
214.229122998
 40
1.0
100
AcDbArc
 50
228.5903778907
 51
311.4096221093
  0
ARC
  5
59C
100
AcDbEntity
  8
RUNDUNGEN
100
AcDbCircle
 62
7
  6
CONTINUOUS
 10
363.3946095884
 20
207.529122998
 40
1.0
100
AcDbArc
 50
270.0
 51
360.0
  0
ARC
  5
59D
100
AcDbEntity
  8
RUNDUNGEN
100
AcDbCircle
 62
7
  6
CONTINUOUS
 10
363.3946095884
 20
212.529122998
 40
1.0
100
AcDbArc
 50
0.0
 51
90.0
  0
ARC
  5
59E
100
AcDbEntity
  8
RUNDUNGEN
100
AcDbCircle
 62
7
  6
CONTINUOUS
 10
118.7855913013
 20
162.6757602488
 40
1.0
100
AcDbArc
 50
0.0
 51
90.0
  0
ARC
  5
59F
100
AcDbEntity
  8
RUNDUNGEN
100
AcDbCircle
 62
7
  6
CONTINUOUS
 10
118.7855913013
 20
150.1757602488
 40
1.0
100
AcDbArc
 50
270.0
 51
360.0
  0
ARC
  5
5A0
100
AcDbEntity
  8
RUNDUNGEN
100
AcDbCircle
 62
7
  6
CONTINUOUS
 10
89.2855913013
 20
150.1757602488
 40
1.0
100
AcDbArc
 50
180.0
 51
270.0
  0
ARC
  5
5A1
100
AcDbEntity
  8
RUNDUNGEN
100
AcDbCircle
 62
7
  6
CONTINUOUS
 10
89.2855913013
 20
162.6757602488
 40
1.0
100
AcDbArc
 50
90.0
 51
180.0
  0
ARC
  5
5A2
100
AcDbEntity
  8
RUNDUNGEN
100
AcDbCircle
 62
7
  6
CONTINUOUS
 10
120.2855913013
 20
152.4257602488
 40
0.5
100
AcDbArc
 50
90.0
 51
180.0
  0
ARC
  5
5A3
100
AcDbEntity
  8
RUNDUNGEN
100
AcDbCircle
 62
7
  6
CONTINUOUS
 10
120.2855913013
 20
160.4257602488
 40
0.5
100
AcDbArc
 50
180.0
 51
270.0
  0
ARC
  5
5A4
100
AcDbEntity
  8
RUNDUNGEN
100
AcDbCircle
 62
7
  6
CONTINUOUS
 10
128.2855913013
 20
153.4257602488
 40
0.5
100
AcDbArc
 50
270.0
 51
360.0
  0
ARC
  5
5A5
100
AcDbEntity
  8
RUNDUNGEN
100
AcDbCircle
 62
7
  6
CONTINUOUS
 10
128.2855913013
 20
159.4257602488
 40
0.5
100
AcDbArc
 50
0.0
 51
90.0
  0
ARC
  5
5A6
100
AcDbEntity
  8
RUNDUNGEN
100
AcDbCircle
 62
7
  6
CONTINUOUS
 10
333.8946095884
 20
162.6757602488
 40
1.0
100
AcDbArc
 50
90.0
 51
180.0
  0
ARC
  5
5A7
100
AcDbEntity
  8
RUNDUNGEN
100
AcDbCircle
 62
7
  6
CONTINUOUS
 10
333.8946095884
 20
150.1757602488
 40
1.0
100
AcDbArc
 50
180.0
 51
270.0
  0
ARC
  5
5A8
100
AcDbEntity
  8
RUNDUNGEN
100
AcDbCircle
 62
7
  6
CONTINUOUS
 10
363.3946095884
 20
150.1757602488
 40
1.0
100
AcDbArc
 50
270.0
 51
360.0
  0
ARC
  5
5A9
100
AcDbEntity
  8
RUNDUNGEN
100
AcDbCircle
 62
7
  6
CONTINUOUS
 10
363.3946095884
 20
162.6757602488
 40
1.0
100
AcDbArc
 50
0.0
 51
90.0
  0
ARC
  5
5AA
100
AcDbEntity
  8
RUNDUNGEN
100
AcDbCircle
 62
7
  6
CONTINUOUS
 10
332.3946095884
 20
152.4257602488
 40
0.5
100
AcDbArc
 50
0.0
 51
90.0
  0
ARC
  5
5AB
100
AcDbEntity
  8
RUNDUNGEN
100
AcDbCircle
 62
7
  6
CONTINUOUS
 10
332.3946095884
 20
160.4257602488
 40
0.5
100
AcDbArc
 50
270.0
 51
360.0
  0
ARC
  5
5AC
100
AcDbEntity
  8
RUNDUNGEN
100
AcDbCircle
 62
7
  6
CONTINUOUS
 10
324.3946095884
 20
153.4257602488
 40
0.5
100
AcDbArc
 50
180.0
 51
270.0
  0
ARC
  5
5AD
100
AcDbEntity
  8
RUNDUNGEN
100
AcDbCircle
 62
7
  6
CONTINUOUS
 10
324.3946095884
 20
159.4257602488
 40
0.5
100
AcDbArc
 50
90.0
 51
180.0
  0
ENDSEC
  0
SECTION
  2
OBJECTS
  0
DICTIONARY
  5
C
100
AcDbDictionary
280
0
281
1
  3
ACAD_GROUP
350
D
  3
ACAD_MLINESTYLE
350
17
  3
ACAD_LAYOUT
350
1A
  3
ACAD_PLOTSETTINGS
350
19
  3
ACAD_PLOTSTYLENAME
350
E
  3
ACAD_TABLESTYLE
350
       5AE
  0
DICTIONARY
  5
D
102
{ACAD_REACTORS
330
C
102
}
100
AcDbDictionary
280
0
281
1
  0
ACDBDICTIONARYWDFLT
  5
E
102
{ACAD_REACTORS
330
C
102
}
100
AcDbDictionary
281
1
  3
Normal
350
F
100
AcDbDictionaryWithDefault
340
F
  0
DICTIONARY
  5
17
102
{ACAD_REACTORS
330
C
102
}
100
AcDbDictionary
280
0
281
1
  3
Standard
350
18
  0
DICTIONARY
  5
5AE
330
C
100
AcDbDictionary
281
1
  3
Standard
350
       5B1
  3
Standard1
350
       5B2
  0
DICTIONARY
  5
19
102
{ACAD_REACTORS
330
C
102
}
100
AcDbDictionary
281
1
  0
DICTIONARY
  5
1A
102
{ACAD_REACTORS
330
C
102
}
100
AcDbDictionary
281
1
  3
Model
350
5AF
  3
Layout1
350
5B0
  0
ACDBPLACEHOLDER
  5
F
102
{ACAD_REACTORS
330
E
102
}
  0
MLINESTYLE
  5
18
102
{ACAD_REACTORS
330
17
102
}
100
AcDbMlineStyle
  2
STANDARD
 70
0
  3

 62
256
 51
90.0
 52
90.0
 71
2
 49
0.5
 62
256
  6
BYLAYER
 49
-0.5
 62
256
  6
BYLAYER
  0
LAYOUT
  5
5AF
102
{ACAD_REACTORS
330
1A
102
}
100
AcDbPlotSettings
  1

  2
none_device
  4
ISO_A3_(420.00_x_297.00_MM)
  6

 40
0.0
 41
0.0
 42
0.0
 43
0.0
 44
420.0
 45
297.0
 46
0.0
 47
0.0
 48
0.0
 49
0.0
140
0.0
141
0.0
142
1.0
143
1.0
 70
1024
 72
1
 73
0
 74
0
  7

 75
0
147
1.0
148
0.0
149
0.0
100
AcDbLayout
  1
Model
 70
0
 71
0
 10
0.0
 20
0.0
 11
420.0
 21
297.0
 12
0.0
 22
0.0
 32
0.0
 14
0.0
 24
0.0
 34
0.0
 15
0.0
 25
0.0
 35
0.0
146
0.0
 13
0.0
 23
0.0
 33
0.0
 16
1.0
 26
0.0
 36
0.0
 17
0.0
 27
1.0
 37
0.0
 76
0
330
20F
345
0
346
0
  0
LAYOUT
  5
5B0
102
{ACAD_REACTORS
330
1A
102
}
100
AcDbPlotSettings
  1

  2
none_device
  4
ISO_A3_(420.00_x_297.00_MM)
  6

 40
0.0
 41
0.0
 42
0.0
 43
0.0
 44
420.0
 45
297.0
 46
0.0
 47
0.0
 48
0.0
 49
0.0
140
0.0
141
0.0
142
1.0
143
1.0
 70
0
 72
1
 73
0
 74
0
  7

 75
0
147
1.0
148
0.0
149
0.0
100
AcDbLayout
  1
Layout1
 70
0
 71
1
 10
0.0
 20
0.0
 11
420.0
 21
297.0
 12
0.0
 22
0.0
 32
0.0
 14
0.0
 24
0.0
 34
0.0
 15
0.0
 25
0.0
 35
0.0
146
0.0
 13
0.0
 23
0.0
 33
0.0
 16
1.0
 26
0.0
 36
0.0
 17
0.0
 27
1.0
 37
0.0
 76
0
330
210
345
0
346
0
  0
TABLESTYLE
  5
5B1
102
{ACAD_REACTORS
330
5AE
330
2E9
102
}
330
5AE
100
AcDbTableStyle
  3
Standard
 70
0
 71
0
 40
0.06
 41
0.06
280
1
281
1
  7
Standard
140
0.18
170
1
 62
0
 63
7
283
0
  7
Standard
140
0.18
170
1
 62
0
 63
7
283
0
  7
Standard
140
0.18
170
1
 62
0
 63
7
283
0
  0
TABLESTYLE
  5
5B2
102
{ACAD_REACTORS
330
5AE
102
}
330
5AE
100
AcDbTableStyle
  3
Standard1
 70
1
 71
0
 40
0.06
 41
0.06
280
1
281
1
  7
Standard
140
0.18
170
1
 62
0
 63
7
283
0
  7
Standard
140
0.18
170
1
 62
0
 63
7
283
0
  7
Standard
140
0.18
170
1
 62
0
 63
7
283
0
  0
ENDSEC
  0
EOF
