999
DXF file: 20003806.dxf
999
Pro/ENGINEER 2021184 by Parametric Technology Corporation
  0
SECTION
  2
HEADER
  9
$ACADVER
  1
AC1018
  9
$DWGCODEPAGE
  3
ANSI_1252
  9
$EXTMAX
 10
210.0
 20
297.0
 30
0.0
  9
$EXTMIN
 10
0.0
 20
0.0
 30
0.0
  9
$LIMMIN
 10
0.0
 20
0.0
  9
$LIMMAX
 10
210.0
 20
297.0
  9
$VIEWCTR
 10
105.0
 20
148.5
  9
$VIEWSIZE
 40
297.0
  9
$CLAYER
  8
0
  9
$LTSCALE
 40
19.36
  9
$CELTYPE
  6
BYLAYER
  9
$DIMSCALE
 40
1.0
  9
$DIMASZ
 40
3.5
  9
$DIMEXO
 40
1.0
  9
$DIMDLI
 40
13.376
  9
$DIMEXE
 40
1.5
  9
$DIMCEN
 40
3.168
  9
$DIMLFAC
 40
1.0
  9
$DIMBLK
  1
_FILLED
  9
$DIMALT
 70
0
  9
$DIMALTF
 40
0.0393700787
  9
$DIMTXT
 40
3.5
  9
$DIMTOL
 70
1
  9
$DIMLIM
 70
0
  9
$DIMTFAC
 40
1.0
  9
$DIMTP
 40
0.005
  9
$DIMTM
 40
0.005
  9
$DIMGAP
 40
0.625
  9
$DIMDSEP
 70
46
  9
$AUNITS
 70
0
  9
$PDMODE
 70
3
  9
$PDSIZE
 40
0.3125
  9
$HANDSEED
  5
4F1
  9
$TILEMODE
 70
1
  9
$MEASUREMENT
 70
1
  9
$INSUNITS
 70
4
  0
ENDSEC
  0
SECTION
  2
CLASSES
  0
CLASS
  1
ACDBDICTIONARYWDFLT
  2
AcDbDictionaryWithDefault
  3
AutoCAD 2000
 90
0
 91
1
280
0
281
0
  0
CLASS
  1
ACDBPLACEHOLDER
  2
AcDbPlaceHolder
  3
AutoCAD 2000
 90
0
 91
1
280
0
281
0
  0
CLASS
  1
LAYOUT
  2
AcDbLayout
  3
AutoCAD 2000
 90
0
 91
0
280
0
281
0
  0
CLASS
  1
TABLESTYLE
  2
AcDbTableStyle
  3
ObjectDBX Classes
 90
2047
 91
1
280
0
281
0
  0
CLASS
  1
ACAD_TABLE
  2
AcDbTable
  3
ObjectDBX Classes
 90
1025
 91
1
280
0
281
1
  0
ENDSEC
  0
SECTION
  2
TABLES
  0
TABLE
  2
VPORT
  5
8
100
AcDbSymbolTable
 70
2
  0
VPORT
  5
1F4
100
AcDbSymbolTableRecord
100
AcDbViewportTableRecord
  2
*ACTIVE
 70
0
 10
0.0
 20
0.0
 11
1.0
 21
1.0
 12
105.0
 22
148.5
 13
0.0
 23
0.0
 14
1.0
 24
1.0
 15
0.0
 25
0.0
 16
0.0
 26
0.0
 36
1.0
 17
0.0
 27
0.0
 37
0.0
 40
297.0
 41
0.7070707071
 42
50.0
 43
0.0
 44
0.0
 50
0.0
 51
0.0
 71
0
 72
100
 73
1
 74
1
 75
0
 76
0
 77
0
 78
0
  0
ENDTAB
  0
TABLE
  2
LTYPE
  5
5
100
AcDbSymbolTable
 70
6
  0
LTYPE
  5
14
100
AcDbSymbolTableRecord
100
AcDbLinetypeTableRecord
  2
BYBLOCK
 70
0
  3

 72
65
 73
0
 40
0.0
  0
LTYPE
  5
15
100
AcDbSymbolTableRecord
100
AcDbLinetypeTableRecord
  2
BYLAYER
 70
0
  3

 72
65
 73
0
 40
0.0
  0
LTYPE
  5
16
100
AcDbSymbolTableRecord
100
AcDbLinetypeTableRecord
  2
CONTINUOUS
 70
64
  3
Solid line
 72
65
 73
0
 40
0.0
  0
LTYPE
  5
1F5
100
AcDbSymbolTableRecord
100
AcDbLinetypeTableRecord
  2
CENTER
 70
64
  3
____ _ ____ _ ____ _ ____ _ ____ _ ____ _ ____
 72
65
 73
4
 40
0.6
 49
0.375
 74
0
 49
-0.075
 74
0
 49
0.075
 74
0
 49
-0.075
 74
0
  0
LTYPE
  5
1F6
100
AcDbSymbolTableRecord
100
AcDbLinetypeTableRecord
  2
HIDDEN
 70
64
  3
- - - - - - - - - - - - - - - - - - - -
 72
65
 73
2
 40
0.2
 49
0.1
 74
0
 49
-0.1
 74
0
  0
LTYPE
  5
1F7
100
AcDbSymbolTableRecord
100
AcDbLinetypeTableRecord
  2
PHANTOM
 70
64
  3
_____ _ _ _____ _ _ _____ _ _ _____
 72
65
 73
6
 40
0.8
 49
0.45
 74
0
 49
-0.05
 74
0
 49
0.1
 74
0
 49
-0.05
 74
0
 49
0.1
 74
0
 49
-0.05
 74
0
  0
LTYPE
  5
1F8
100
AcDbSymbolTableRecord
100
AcDbLinetypeTableRecord
  2
DOT
 70
64
  3
. . . . . . . . . . . . . . . . . . . .
 72
65
 73
2
 40
0.2
 49
0.1
 74
0
 49
-0.1
 74
0
  0
LTYPE
  5
1F9
100
AcDbSymbolTableRecord
100
AcDbLinetypeTableRecord
  2
DASHED
 70
64
  3
- - - - - - - - - - - - - - - - - - - -
 72
65
 73
2
 40
0.2
 49
0.1
 74
0
 49
-0.1
 74
0
  0
ENDTAB
  0
TABLE
  2
LAYER
  5
2
100
AcDbSymbolTable
 70
36
  0
LAYER
  5
10
100
AcDbSymbolTableRecord
100
AcDbLayerTableRecord
  2
0
 70
0
 62
7
  6
CONTINUOUS
370
-3
390
F
  0
LAYER
  5
1FA
100
AcDbSymbolTableRecord
100
AcDbLayerTableRecord
  2
DEFAULT_1
 70
0
 62
7
  6
CENTER
370
-3
390
F
  0
LAYER
  5
1FB
100
AcDbSymbolTableRecord
100
AcDbLayerTableRecord
  2
DEFAULT_2
 70
0
 62
8
  6
HIDDEN
370
-3
390
F
  0
LAYER
  5
1FC
100
AcDbSymbolTableRecord
100
AcDbLayerTableRecord
  2
DEFAULT_3
 70
0
 62
7
  6
PHANTOM
370
-3
390
F
  0
LAYER
  5
1FD
100
AcDbSymbolTableRecord
100
AcDbLayerTableRecord
  2
3D_NOTIZEN
 70
0
 62
7
  6
CONTINUOUS
370
-3
390
F
  0
LAYER
  5
1FE
100
AcDbSymbolTableRecord
100
AcDbLayerTableRecord
  2
AUSFORMSCHRAEGEN
 70
0
 62
7
  6
CONTINUOUS
370
-3
390
F
  0
LAYER
  5
1FF
100
AcDbSymbolTableRecord
100
AcDbLayerTableRecord
  2
BEZUGSACHSEN
 70
0
 62
7
  6
CONTINUOUS
370
-3
390
F
  0
LAYER
  5
200
100
AcDbSymbolTableRecord
100
AcDbLayerTableRecord
  2
BEZUGSEBENEN
 70
0
 62
7
  6
CONTINUOUS
370
-3
390
F
  0
LAYER
  5
201
100
AcDbSymbolTableRecord
100
AcDbLayerTableRecord
  2
BEZUGSPUNKTE
 70
0
 62
7
  6
CONTINUOUS
370
-3
390
F
  0
LAYER
  5
202
100
AcDbSymbolTableRecord
100
AcDbLayerTableRecord
  2
FASEN
 70
0
 62
7
  6
CONTINUOUS
370
-3
390
F
  0
LAYER
  5
203
100
AcDbSymbolTableRecord
100
AcDbLayerTableRecord
  2
FLAECHEN
 70
0
 62
7
  6
CONTINUOUS
370
-3
390
F
  0
LAYER
  5
204
100
AcDbSymbolTableRecord
100
AcDbLayerTableRecord
  2
FLAECHENVERBINDUNGEN
 70
0
 62
7
  6
CONTINUOUS
370
-3
390
F
  0
LAYER
  5
205
100
AcDbSymbolTableRecord
100
AcDbLayerTableRecord
  2
HILFEN
 70
0
 62
7
  6
CONTINUOUS
370
-3
390
F
  0
LAYER
  5
206
100
AcDbSymbolTableRecord
100
AcDbLayerTableRecord
  2
KURVEN
 70
0
 62
7
  6
CONTINUOUS
370
-3
390
F
  0
LAYER
  5
207
100
AcDbSymbolTableRecord
100
AcDbLayerTableRecord
  2
PLAZIERUNG
 70
0
 62
7
  6
CONTINUOUS
370
-3
390
F
  0
LAYER
  5
208
100
AcDbSymbolTableRecord
100
AcDbLayerTableRecord
  2
RUNDUNGEN
 70
0
 62
7
  6
CONTINUOUS
370
-3
390
F
  0
LAYER
  5
209
100
AcDbSymbolTableRecord
100
AcDbLayerTableRecord
  2
TEIL_STARTBEZUEGE
 70
0
 62
7
  6
CONTINUOUS
370
-3
390
F
  0
LAYER
  5
20A
100
AcDbSymbolTableRecord
100
AcDbLayerTableRecord
  2
XSEC_DATUMS
 70
0
 62
7
  6
CONTINUOUS
370
-3
390
F
  0
LAYER
  5
20B
100
AcDbSymbolTableRecord
100
AcDbLayerTableRecord
  2
ZEICHNUNGSBEMASSUNGEN
 70
0
 62
7
  6
CONTINUOUS
370
-3
390
F
  0
ENDTAB
  0
TABLE
  2
STYLE
  5
3
100
AcDbSymbolTable
 70
1
  0
STYLE
  5
11
100
AcDbSymbolTableRecord
100
AcDbTextStyleTableRecord
  2
STANDARD
 70
0
 40
0.0
 41
0.7
 50
0.0
 71
0
 42
0.2
  3
txt
  4

  0
STYLE
  5
20C
100
AcDbSymbolTableRecord
100
AcDbTextStyleTableRecord
  2
TEXTSTYLE_1
 70
0
 40
0.0
 41
0.8
 50
0.0
 71
0
 42
0.2
  3
gdt
  4

  0
ENDTAB
  0
TABLE
  2
VIEW
  5
6
100
AcDbSymbolTable
 70
0
  0
ENDTAB
  0
TABLE
  2
UCS
  5
7
100
AcDbSymbolTable
 70
0
  0
ENDTAB
  0
TABLE
  2
APPID
  5
9
100
AcDbSymbolTable
 70
1
  0
APPID
  5
20D
100
AcDbSymbolTableRecord
100
AcDbRegAppTableRecord
  2
ACAD
 70
0
  0
ENDTAB
  0
TABLE
  2
BLOCK_RECORD
  5
1
100
AcDbSymbolTable
 70
0
  0
BLOCK_RECORD
  5
20E
100
AcDbSymbolTableRecord
100
AcDbBlockTableRecord
  2
*Model_Space
  0
BLOCK_RECORD
  5
20F
100
AcDbSymbolTableRecord
100
AcDbBlockTableRecord
  2
*Paper_Space
  0
BLOCK_RECORD
  5
210
100
AcDbSymbolTableRecord
100
AcDbBlockTableRecord
  2
_FILLED
  0
BLOCK_RECORD
  5
211
100
AcDbSymbolTableRecord
100
AcDbBlockTableRecord
  2
*D0
  0
BLOCK_RECORD
  5
212
100
AcDbSymbolTableRecord
100
AcDbBlockTableRecord
  2
*D1
  0
BLOCK_RECORD
  5
213
100
AcDbSymbolTableRecord
100
AcDbBlockTableRecord
  2
NEUTRIK_BL1
  0
BLOCK_RECORD
  5
214
100
AcDbSymbolTableRecord
100
AcDbBlockTableRecord
  2
PROJEKTION_BL0
  0
BLOCK_RECORD
  5
215
100
AcDbSymbolTableRecord
100
AcDbBlockTableRecord
  2
*T1
  0
ENDTAB
  0
TABLE
  2
DIMSTYLE
  5
A
100
AcDbSymbolTable
 70
1
100
AcDbDimStyleTable
 71
0
  0
DIMSTYLE
105
216
100
AcDbSymbolTableRecord
100
AcDbDimStyleTableRecord
  2
STANDARD
 70
0
  3

  4

 40
1.0
 41
3.5
 42
1.0
 43
0.38
 44
1.5
 45
0.0
 46
0.0
 47
0.005
 48
0.005
140
3.5
141
0.09
142
0.0
143
25.4
144
1.0
145
0.0
146
1.0
147
0.625
 71
1
 72
0
 73
0
 74
0
 75
0
 76
0
 77
1
 78
8
 79
2
170
0
171
2
172
0
173
0
174
0
175
0
176
0
177
0
178
5
270
2
179
3
271
3
272
3
273
2
274
2
275
0
280
0
281
0
282
0
283
1
284
8
285
0
286
0
287
3
288
0
340
11
278
46
341
210
342
210
343
210
344
210
  0
DIMSTYLE
105
217
100
AcDbSymbolTableRecord
100
AcDbDimStyleTableRecord
  2
DIMSTYLE_1
 70
0
  3

  4

 40
1.0
 41
3.5
 42
1.0
 43
0.38
 44
1.5
 45
0.0
 46
0.0
 47
0.2
 48
0.2
140
3.5
141
0.09
142
0.0
143
25.4
144
1.0
145
0.0
146
1.0
147
0.875
 71
0
 72
0
 73
0
 74
0
 75
0
 76
0
 77
1
 78
8
 79
2
170
0
171
2
172
0
173
0
174
0
175
0
176
0
177
0
178
5
270
2
179
3
271
0
272
0
273
2
274
2
275
0
280
0
281
0
282
0
283
1
284
8
285
0
286
0
287
3
288
0
340
11
278
46
341
210
342
210
343
210
344
210
  0
DIMSTYLE
105
218
100
AcDbSymbolTableRecord
100
AcDbDimStyleTableRecord
  2
DIMSTYLE_2
 70
0
  3

  4

 40
1.0
 41
3.5
 42
1.0
 43
0.38
 44
1.5
 45
0.0
 46
0.0
 47
0.3
 48
0.3
140
3.5
141
0.09
142
0.0
143
25.4
144
1.0
145
0.0
146
1.0
147
0.875
 71
0
 72
0
 73
0
 74
0
 75
0
 76
0
 77
1
 78
8
 79
2
170
0
171
2
172
0
173
0
174
0
175
0
176
0
177
0
178
5
270
2
179
3
271
3
272
3
273
2
274
2
275
0
280
0
281
0
282
0
283
1
284
8
285
0
286
0
287
3
288
0
340
11
278
46
341
210
342
210
343
210
344
210
  0
ENDTAB
  0
ENDSEC
  0
SECTION
  2
BLOCKS
  0
BLOCK
  5
20
100
AcDbEntity
  8
0
100
AcDbBlockBegin
  2
*Model_Space
 70
0
 10
0.0
 20
0.0
 30
0.0
  3
*Model_Space
  1

  0
ENDBLK
  5
21
100
AcDbEntity
  8
0
100
AcDbBlockEnd
  0
BLOCK
  5
1C
100
AcDbEntity
  8
0
100
AcDbBlockBegin
  2
*Paper_Space
 70
0
 10
0.0
 20
0.0
 30
0.0
  3
*Paper_Space
  1

  0
ENDBLK
  5
1D
100
AcDbEntity
  8
0
100
AcDbBlockEnd
  0
BLOCK
  5
219
100
AcDbEntity
  8
0
100
AcDbBlockBegin
 62
2
  6
CONTINUOUS
  2
NEUTRIK_BL1
 70
64
 10
84.2614052729
 20
13.9059825579
  3
NEUTRIK_BL1
  1

  0
LINE
  5
21A
100
AcDbEntity
  8
0
100
AcDbLine
 62
2
  6
CONTINUOUS
 10
70.1379638322
 20
12.7323024573
 11
67.6375133573
 21
14.2413197264
  0
LINE
  5
21B
100
AcDbEntity
  8
0
100
AcDbLine
 62
2
  6
CONTINUOUS
 10
67.7853350897
 20
15.0796622093
 11
70.2857865647
 21
13.5706449401
  0
LINE
  5
21C
100
AcDbEntity
  8
0
100
AcDbLine
 62
2
  6
CONTINUOUS
 10
100.2344693664
 20
12.7323024573
 11
98.6365542581
 21
13.6544797884
  0
LINE
  5
21D
100
AcDbEntity
  8
0
100
AcDbLine
 62
2
  6
CONTINUOUS
 10
89.9030070633
 20
13.5706449401
 11
91.1805964841
 21
12.7323555316
  0
LINE
  5
21E
100
AcDbEntity
  8
0
100
AcDbLine
 62
2
  6
CONTINUOUS
 10
93.1085552622
 20
12.7323024573
 11
91.8311955738
 21
13.5706449401
  0
LINE
  5
21F
100
AcDbEntity
  8
0
100
AcDbLine
 62
2
  6
CONTINUOUS
 10
100.4390189962
 20
13.9898161816
 11
102.3303255735
 21
12.7323024573
  0
LINE
  5
220
100
AcDbEntity
  8
0
100
AcDbLine
 62
2
  6
CONTINUOUS
 10
65.7785817214
 20
12.7323024573
 11
66.1924839723
 21
15.0796622093
  0
LINE
  5
221
100
AcDbEntity
  8
0
100
AcDbLine
 62
2
  6
CONTINUOUS
 10
67.6375133573
 20
14.2413197264
 11
67.3714328388
 21
12.7323024573
  0
LINE
  5
222
100
AcDbEntity
  8
0
100
AcDbLine
 62
2
  6
CONTINUOUS
 10
70.2857865647
 20
13.5706449401
 11
70.5518660831
 21
15.0796622093
  0
LINE
  5
223
100
AcDbEntity
  8
0
100
AcDbLine
 62
2
  6
CONTINUOUS
 10
72.1447182005
 20
15.0796622093
 11
71.7308149496
 21
12.7323024573
  0
LINE
  5
224
100
AcDbEntity
  8
0
100
AcDbLine
 62
2
  6
CONTINUOUS
 10
72.9883286739
 20
12.7323024573
 11
73.4022319248
 21
15.0796622093
  0
LINE
  5
225
100
AcDbEntity
  8
0
100
AcDbLine
 62
2
  6
CONTINUOUS
 10
74.8225553545
 20
14.5766561196
 11
74.7486444882
 21
14.1574848781
  0
LINE
  5
226
100
AcDbEntity
  8
0
100
AcDbLine
 62
2
  6
CONTINUOUS
 10
74.6599506487
 20
13.6544797884
 11
74.5860397825
 21
13.235308547
  0
LINE
  5
227
100
AcDbEntity
  8
0
100
AcDbLine
 62
2
  6
CONTINUOUS
 10
76.9283355436
 20
14.1574848781
 11
76.8396417041
 21
13.6544797884
  0
LINE
  5
228
100
AcDbEntity
  8
0
100
AcDbLine
 62
2
  6
CONTINUOUS
 10
77.5939453391
 20
15.0796622093
 11
77.5052524996
 21
14.5766561196
  0
LINE
  5
229
100
AcDbEntity
  8
0
100
AcDbLine
 62
2
  6
CONTINUOUS
 10
77.2687359276
 20
13.235308547
 11
77.1800430881
 21
12.7323024573
  0
LINE
  5
22A
100
AcDbEntity
  8
0
100
AcDbLine
 62
2
  6
CONTINUOUS
 10
78.1624693102
 20
13.5494429785
 11
78.4322888219
 21
15.0796622093
  0
LINE
  5
22B
100
AcDbEntity
  8
0
100
AcDbLine
 62
2
  6
CONTINUOUS
 10
79.941305091
 20
15.0796622093
 11
79.6954805359
 21
13.6855177323
  0
LINE
  5
22C
100
AcDbEntity
  8
0
100
AcDbLine
 62
2
  6
CONTINUOUS
 10
81.5258722234
 20
13.6063368756
 11
81.7856597533
 21
15.0796622093
  0
LINE
  5
22D
100
AcDbEntity
  8
0
100
AcDbLine
 62
2
  6
CONTINUOUS
 10
83.2946770224
 20
15.0796622093
 11
82.9980905592
 21
13.3976402532
  0
LINE
  5
22E
100
AcDbEntity
  8
0
100
AcDbLine
 62
2
  6
CONTINUOUS
 10
83.7780411477
 20
14.4928222713
 11
83.8815169604
 21
15.0796622093
  0
LINE
  5
22F
100
AcDbEntity
  8
0
100
AcDbLine
 62
2
  6
CONTINUOUS
 10
84.6412935854
 20
12.7323024573
 11
84.9517210237
 21
14.4928222713
  0
LINE
  5
230
100
AcDbEntity
  8
0
100
AcDbLine
 62
2
  6
CONTINUOUS
 10
86.6284059894
 20
14.4928222713
 11
86.3179795511
 21
12.7323024573
  0
LINE
  5
231
100
AcDbEntity
  8
0
100
AcDbLine
 62
2
  6
CONTINUOUS
 10
87.9055616781
 20
15.0796622093
 11
87.8020858653
 21
14.4928222713
  0
LINE
  5
232
100
AcDbEntity
  8
0
100
AcDbLine
 62
2
  6
CONTINUOUS
 10
88.4924016161
 20
15.0796622093
 11
88.0784993651
 21
12.7323024573
  0
LINE
  5
233
100
AcDbEntity
  8
0
100
AcDbLine
 62
2
  6
CONTINUOUS
 10
89.7551843308
 20
12.7323024573
 11
89.9030070633
 21
13.5706449401
  0
LINE
  5
234
100
AcDbEntity
  8
0
100
AcDbLine
 62
2
  6
CONTINUOUS
 10
89.9916999028
 20
14.0736510299
 11
90.0951757155
 21
14.6604909678
  0
LINE
  5
235
100
AcDbEntity
  8
0
100
AcDbLine
 62
2
  6
CONTINUOUS
 10
93.7792300485
 20
12.7323024573
 11
94.1931322994
 21
15.0796622093
  0
LINE
  5
236
100
AcDbEntity
  8
0
100
AcDbLine
 62
2
  6
CONTINUOUS
 10
95.8698182651
 20
15.0796622093
 11
95.4559150142
 21
12.7323024573
  0
LINE
  5
237
100
AcDbEntity
  8
0
100
AcDbLine
 62
2
  6
CONTINUOUS
 10
96.7972635867
 20
12.7323024573
 11
97.2111668377
 21
15.0796622093
  0
LINE
  5
238
100
AcDbEntity
  8
0
100
AcDbLine
 62
2
  6
CONTINUOUS
 10
98.8878518034
 20
15.0796622093
 11
98.6956831511
 21
13.9898161816
  0
LINE
  5
239
100
AcDbEntity
  8
0
100
AcDbLine
 62
2
  6
CONTINUOUS
 10
98.6365542581
 20
13.6544797884
 11
98.4739495524
 21
12.7323024573
  0
LINE
  5
23A
100
AcDbEntity
  8
0
100
AcDbLine
 62
2
  6
CONTINUOUS
 10
102.3303255735
 20
12.7323024573
 11
100.2344693664
 21
12.7323024573
  0
LINE
  5
23B
100
AcDbEntity
  8
0
100
AcDbLine
 62
2
  6
CONTINUOUS
 10
65.7785817214
 20
12.7323024573
 11
67.3714328388
 21
12.7323024573
  0
LINE
  5
23C
100
AcDbEntity
  8
0
100
AcDbLine
 62
2
  6
CONTINUOUS
 10
98.4739495524
 20
12.7323024573
 11
96.7972635867
 21
12.7323024573
  0
LINE
  5
23D
100
AcDbEntity
  8
0
100
AcDbLine
 62
2
  6
CONTINUOUS
 10
95.4559150142
 20
12.7323024573
 11
93.7792300485
 21
12.7323024573
  0
LINE
  5
23E
100
AcDbEntity
  8
0
100
AcDbLine
 62
2
  6
CONTINUOUS
 10
86.3179795511
 20
12.7323024573
 11
84.6412935854
 21
12.7323024573
  0
LINE
  5
23F
100
AcDbEntity
  8
0
100
AcDbLine
 62
2
  6
CONTINUOUS
 10
88.0784993651
 20
12.7323024573
 11
89.7551843308
 21
12.7323024573
  0
LINE
  5
240
100
AcDbEntity
  8
0
100
AcDbLine
 62
2
  6
CONTINUOUS
 10
77.1800430881
 20
12.7323024573
 11
72.9883286739
 21
12.7323024573
  0
LINE
  5
241
100
AcDbEntity
  8
0
100
AcDbLine
 62
2
  6
CONTINUOUS
 10
91.1803667516
 20
12.7323024573
 11
93.1085552622
 21
12.7323024573
  0
LINE
  5
242
100
AcDbEntity
  8
0
100
AcDbLine
 62
2
  6
CONTINUOUS
 10
71.7308149496
 20
12.7323024573
 11
70.1379638322
 21
12.7323024573
  0
LINE
  5
243
100
AcDbEntity
  8
0
100
AcDbLine
 62
2
  6
CONTINUOUS
 10
74.5860397825
 20
13.235308547
 11
77.2687359276
 21
13.235308547
  0
LINE
  5
244
100
AcDbEntity
  8
0
100
AcDbLine
 62
2
  6
CONTINUOUS
 10
76.8396417041
 20
13.6544797884
 11
74.6599506487
 21
13.6544797884
  0
LINE
  5
245
100
AcDbEntity
  8
0
100
AcDbLine
 62
2
  6
CONTINUOUS
 10
91.0528599824
 20
14.0736510299
 11
89.9916999028
 21
14.0736510299
  0
LINE
  5
246
100
AcDbEntity
  8
0
100
AcDbLine
 62
2
  6
CONTINUOUS
 10
74.7486444882
 20
14.1574848781
 11
76.9283355436
 21
14.1574848781
  0
LINE
  5
247
100
AcDbEntity
  8
0
100
AcDbLine
 62
2
  6
CONTINUOUS
 10
87.8020858653
 20
14.4928222713
 11
86.6284059894
 21
14.4928222713
  0
LINE
  5
248
100
AcDbEntity
  8
0
100
AcDbLine
 62
2
  6
CONTINUOUS
 10
84.9517210237
 20
14.4928222713
 11
83.7780411477
 21
14.4928222713
  0
LINE
  5
249
100
AcDbEntity
  8
0
100
AcDbLine
 62
2
  6
CONTINUOUS
 10
77.5052524996
 20
14.5766561196
 11
74.8225553545
 21
14.5766561196
  0
LINE
  5
24A
100
AcDbEntity
  8
0
100
AcDbLine
 62
2
  6
CONTINUOUS
 10
90.0951757155
 20
14.6604909678
 11
91.349287446
 21
14.6604909678
  0
LINE
  5
24B
100
AcDbEntity
  8
0
100
AcDbLine
 62
2
  6
CONTINUOUS
 10
66.1924839723
 20
15.0796622093
 11
67.7853350897
 21
15.0796622093
  0
LINE
  5
24C
100
AcDbEntity
  8
0
100
AcDbLine
 62
2
  6
CONTINUOUS
 10
70.5518660831
 20
15.0796622093
 11
72.1447182005
 21
15.0796622093
  0
LINE
  5
24D
100
AcDbEntity
  8
0
100
AcDbLine
 62
2
  6
CONTINUOUS
 10
73.4022319248
 20
15.0796622093
 11
77.5939453391
 21
15.0796622093
  0
LINE
  5
24E
100
AcDbEntity
  8
0
100
AcDbLine
 62
2
  6
CONTINUOUS
 10
91.5942700026
 20
15.0796622093
 11
88.4924016161
 21
15.0796622093
  0
LINE
  5
24F
100
AcDbEntity
  8
0
100
AcDbLine
 62
2
  6
CONTINUOUS
 10
78.4322888219
 20
15.0796622093
 11
79.941305091
 21
15.0796622093
  0
LINE
  5
250
100
AcDbEntity
  8
0
100
AcDbLine
 62
2
  6
CONTINUOUS
 10
81.7856597533
 20
15.0796622093
 11
83.2946770224
 21
15.0796622093
  0
LINE
  5
251
100
AcDbEntity
  8
0
100
AcDbLine
 62
2
  6
CONTINUOUS
 10
83.8815169604
 20
15.0796622093
 11
87.9055616781
 21
15.0796622093
  0
LINE
  5
252
100
AcDbEntity
  8
0
100
AcDbLine
 62
2
  6
CONTINUOUS
 10
94.1931322994
 20
15.0796622093
 11
95.8698182651
 21
15.0796622093
  0
LINE
  5
253
100
AcDbEntity
  8
0
100
AcDbLine
 62
2
  6
CONTINUOUS
 10
97.2111668377
 20
15.0796622093
 11
98.8878518034
 21
15.0796622093
  0
LINE
  5
254
100
AcDbEntity
  8
0
100
AcDbLine
 62
2
  6
CONTINUOUS
 10
100.6311886484
 20
15.0796622093
 11
102.7442288245
 21
15.0796622093
  0
LINE
  5
255
100
AcDbEntity
  8
0
100
AcDbLine
 62
2
  6
CONTINUOUS
 10
98.6956831511
 20
13.9898161816
 11
100.6311886484
 21
15.0796622093
  0
LINE
  5
256
100
AcDbEntity
  8
0
100
AcDbLine
 62
2
  6
CONTINUOUS
 10
102.7442288245
 20
15.0796622093
 11
100.4390189962
 21
13.9898161816
  0
ARC
  5
257
100
AcDbEntity
  8
0
100
AcDbCircle
 62
2
  6
CONTINUOUS
 10
80.0257229383
 20
13.6272868376
 40
0.335336967
100
AcDbArc
 50
169.9999581174
 51
257.3876854477
  0
ARC
  5
258
100
AcDbEntity
  8
0
100
AcDbCircle
 62
2
  6
CONTINUOUS
 10
80.5382730107
 20
15.9180046921
 40
2.6826964808
100
AcDbArc
 50
257.3877479741
 51
286.262665946
  0
ARC
  5
259
100
AcDbEntity
  8
0
100
AcDbCircle
 62
2
  6
CONTINUOUS
 10
81.1956298211
 20
13.6645677702
 40
0.3353371135
100
AcDbArc
 50
286.2627744417
 51
349.9999581174
  0
ARC
  5
25A
100
AcDbEntity
  8
0
100
AcDbCircle
 62
2
  6
CONTINUOUS
 10
82.5027264556
 20
13.4849860952
 40
0.5030061094
100
AcDbArc
 50
284.4613069912
 51
350.0000240953
  0
ARC
  5
25B
100
AcDbEntity
  8
0
100
AcDbCircle
 62
2
  6
CONTINUOUS
 10
80.534785017
 20
21.1157302858
 40
8.3834278607
100
AcDbArc
 50
256.2209051549
 51
284.4612653568
  0
ARC
  5
25C
100
AcDbEntity
  8
0
100
AcDbCircle
 62
2
  6
CONTINUOUS
 10
78.6578334137
 20
13.4620971366
 40
0.503005856
100
AcDbArc
 50
170.0000240953
 51
256.2208762229
  0
ARC
  5
25D
100
AcDbEntity
  8
0
100
AcDbCircle
 62
2
  6
CONTINUOUS
 10
92.1295980338
 20
14.8914155499
 40
1.3167024847
100
AcDbArc
 50
270.8139664646
 51
287.332045501
  0
ARC
  5
25E
100
AcDbEntity
  8
0
100
AcDbCircle
 62
2
  6
CONTINUOUS
 10
92.2164248767
 20
14.6131950534
 40
1.025248295
100
AcDbArc
 50
287.332041554
 51
306.9952583027
  0
ARC
  5
25F
100
AcDbEntity
  8
0
100
AcDbCircle
 62
2
  6
CONTINUOUS
 10
92.349403636
 20
14.4366953729
 40
0.8042604703
100
AcDbArc
 50
306.9952804959
 51
331.1991469186
  0
ARC
  5
260
100
AcDbEntity
  8
0
100
AcDbCircle
 62
2
  6
CONTINUOUS
 10
92.553331267
 20
14.3245815757
 40
0.5715468569
100
AcDbArc
 50
331.1991187457
 51
28.8007934081
  0
ARC
  5
261
100
AcDbEntity
  8
0
100
AcDbCircle
 62
2
  6
CONTINUOUS
 10
92.349403636
 20
14.2124667786
 40
0.8042612359
100
AcDbArc
 50
28.8008530814
 51
53.0047195041
  0
ARC
  5
262
100
AcDbEntity
  8
0
100
AcDbCircle
 62
2
  6
CONTINUOUS
 10
92.2164248767
 20
14.0359670981
 40
1.0252479986
100
AcDbArc
 50
53.0047416973
 51
72.667958446
  0
ARC
  5
263
100
AcDbEntity
  8
0
100
AcDbCircle
 62
2
  6
CONTINUOUS
 10
92.1295980338
 20
13.7577466015
 40
1.3167024858
100
AcDbArc
 50
72.667954499
 51
88.2637233921
  0
ARC
  5
264
100
AcDbEntity
  8
0
100
AcDbCircle
 62
2
  6
CONTINUOUS
 10
91.758714705
 20
2.8981372542
 40
12.1826353158
100
AcDbArc
 50
88.0677150838
 51
90.7734183662
  0
ARC
  5
265
100
AcDbEntity
  8
0
100
AcDbCircle
 62
2
  6
CONTINUOUS
 10
90.4285891121
 20
131.4269296551
 40
117.8646306221
100
AcDbArc
 50
270.6818443076
 51
270.8360085966
  0
ARC
  5
266
100
AcDbEntity
  8
0
100
AcDbCircle
 62
2
  6
CONTINUOUS
 10
91.3068585227
 20
14.139344911
 40
0.5228699142
100
AcDbArc
 50
74.2117758502
 51
85.3455498836
  0
ARC
  5
267
100
AcDbEntity
  8
0
100
AcDbCircle
 62
2
  6
CONTINUOUS
 10
91.3562044334
 20
14.3138695951
 40
0.3415029724
100
AcDbArc
 50
49.80595642
 51
74.2116374161
  0
ARC
  5
268
100
AcDbEntity
  8
0
100
AcDbCircle
 62
2
  6
CONTINUOUS
 10
91.4665242338
 20
14.4444433588
 40
0.1705654939
100
AcDbArc
 50
340.193968067
 51
49.8058745946
  0
ARC
  5
269
100
AcDbEntity
  8
0
100
AcDbCircle
 62
2
  6
CONTINUOUS
 10
91.3056975248
 20
14.502363254
 40
0.3415041793
100
AcDbArc
 50
315.7883508031
 51
340.1940327095
  0
ARC
  5
26A
100
AcDbEntity
  8
0
100
AcDbCircle
 62
2
  6
CONTINUOUS
 10
91.1757007601
 20
14.6288320251
 40
0.5228695114
100
AcDbArc
 50
298.8638229053
 51
315.7882717965
  0
ARC
  5
26B
100
AcDbEntity
  8
0
100
AcDbCircle
 62
2
  6
CONTINUOUS
 10
91.0528599824
 20
14.8516896218
 40
0.777340892
100
AcDbArc
 50
285.0000006491
 51
298.8638426666
  0
ARC
  5
26C
100
AcDbEntity
  8
0
100
AcDbCircle
 62
2
  6
CONTINUOUS
 10
91.0501609873
 20
14.8516916218
 40
0.7780452733
100
AcDbArc
 50
270.1987562222
 51
285.191946156
  0
ENDBLK
  5
26D
100
AcDbEntity
  8
0
  6
BYBLOCK
 62
0
100
AcDbBlockEnd
  0
BLOCK
  5
26E
100
AcDbEntity
  8
0
100
AcDbBlockBegin
 62
2
  6
CONTINUOUS
  2
PROJEKTION_BL0
 70
64
 10
90.4716081857
 20
44.8002049924
  3
PROJEKTION_BL0
  1

  0
LINE
  5
26F
100
AcDbEntity
  8
DEFAULT_1
100
AcDbLine
 62
2
  6
CENTER
 10
93.2850441197
 20
42.5502049924
 11
93.2850441197
 21
47.0502049924
  0
LINE
  5
270
100
AcDbEntity
  8
DEFAULT_1
100
AcDbLine
 62
2
  6
CENTER
 10
91.0350441197
 20
44.8002049924
 11
95.5350441197
 21
44.8002049924
  0
LINE
  5
271
100
AcDbEntity
  8
DEFAULT_1
100
AcDbLine
 62
2
  6
CENTER
 10
85.4081722517
 20
44.8213569706
 11
90.410698356
 21
44.8213569706
  0
LINE
  5
272
100
AcDbEntity
  8
0
100
AcDbLine
 62
2
  6
CONTINUOUS
 10
93.2850441197
 20
44.8002049924
 11
93.2850441197
 21
44.823308923
  0
LINE
  5
273
100
AcDbEntity
  8
0
100
AcDbLine
 62
2
  6
CONTINUOUS
 10
90.1206661469
 20
42.8314549924
 11
90.1206661469
 21
46.7689549924
  0
CIRCLE
  5
274
100
AcDbEntity
  8
0
100
AcDbCircle
 62
2
  6
CONTINUOUS
 10
93.2850441197
 20
44.8002049924
 40
1.125
  0
LINE
  5
275
100
AcDbEntity
  8
0
100
AcDbLine
 62
2
  6
CONTINUOUS
 10
85.8312881741
 20
43.6752049924
 11
85.8312881741
 21
45.9252049924
  0
CIRCLE
  5
276
100
AcDbEntity
  8
0
100
AcDbCircle
 62
2
  6
CONTINUOUS
 10
93.2850441197
 20
44.8002049924
 40
1.96875
  0
LINE
  5
277
100
AcDbEntity
  8
0
100
AcDbLine
 62
2
  6
CONTINUOUS
 10
85.8312881741
 20
45.9252049924
 11
90.1206661469
 21
46.7689549924
  0
LINE
  5
278
100
AcDbEntity
  8
0
100
AcDbLine
 62
2
  6
CONTINUOUS
 10
85.8312881741
 20
43.6752049924
 11
90.1206661469
 21
42.8314549924
  0
ENDBLK
  5
279
100
AcDbEntity
  8
0
  6
BYBLOCK
 62
0
100
AcDbBlockEnd
  0
BLOCK
  5
27A
100
AcDbEntity
  8
0
100
AcDbBlockBegin
  2
_FILLED
 70
64
 10
0.0
 20
0.0
  3
_FILLED
  1

  0
SOLID
  5
27B
100
AcDbEntity
  8
0
  6
BYBLOCK
 62
0
100
AcDbTrace
 10
0.0
 20
0.0
 11
-1.0
 21
0.125
 12
-1.0
 22
-0.125
 13
-1.0
 23
-0.125
  0
ENDBLK
  5
27C
100
AcDbEntity
  8
0
  6
BYBLOCK
 62
0
100
AcDbBlockEnd
  0
BLOCK
  5
27D
100
AcDbEntity
  8
ZEICHNUNGSBEMASSUNGEN
100
AcDbBlockBegin
 62
2
  6
CONTINUOUS
  2
*D0
 70
65
 10
0.0
 20
0.0
  3
*D0
  1

  0
MTEXT
  5
27E
100
AcDbEntity
  8
ZEICHNUNGSBEMASSUNGEN
100
AcDbMText
 62
5
  6
CONTINUOUS
  7
STANDARD
 71
2
 72
1
 10
49.7706950557
 20
223.0768715848
 30
0.0
 11
0.8660226935
 21
0.5000046943
 31
0.0
 73
2
 44
0.9
  1
SW27
 40
3.5
 41
19.5
  0
LINE
  5
27F
100
AcDbEntity
  8
ZEICHNUNGSBEMASSUNGEN
100
AcDbLine
 62
2
  6
CONTINUOUS
 10
32.5286592025
 20
225.8408342977
 11
40.9736151375
 21
211.2139246528
  0
LINE
  5
280
100
AcDbEntity
  8
ZEICHNUNGSBEMASSUNGEN
100
AcDbLine
 62
2
  6
CONTINUOUS
 10
55.9978741968
 20
239.390961513
 11
64.4428301318
 21
224.7640518681
  0
LINE
  5
281
100
AcDbEntity
  8
ZEICHNUNGSBEMASSUNGEN
100
AcDbLine
 62
2
  6
CONTINUOUS
 10
40.2236080961
 20
212.5129586931
 11
51.9582155932
 21
219.2880223007
  0
LINE
  5
282
100
AcDbEntity
  8
ZEICHNUNGSBEMASSUNGEN
100
AcDbLine
 62
2
  6
CONTINUOUS
 10
63.6928230904
 20
226.0630859084
 11
51.9582155932
 21
219.2880223007
  0
INSERT
  5
283
100
AcDbEntity
  8
ZEICHNUNGSBEMASSUNGEN
100
AcDbBlockReference
 62
2
  6
CONTINUOUS
  2
_FILLED
 10
40.2236080961
 20
212.5129586931
 41
3.5
 42
3.5
 43
3.5
 50
210.0003105723
  0
INSERT
  5
284
100
AcDbEntity
  8
ZEICHNUNGSBEMASSUNGEN
100
AcDbBlockReference
 62
2
  6
CONTINUOUS
  2
_FILLED
 10
63.6928230904
 20
226.0630859084
 41
3.5
 42
3.5
 43
3.5
 50
30.0003105723
  0
ENDBLK
  5
285
100
AcDbEntity
  8
0
  6
BYBLOCK
 62
0
100
AcDbBlockEnd
  0
BLOCK
  5
286
100
AcDbEntity
  8
0
100
AcDbBlockBegin
 62
2
  6
CONTINUOUS
  2
*D1
 70
65
 10
0.0
 20
0.0
  3
*D1
  1

  0
MTEXT
  5
287
100
AcDbEntity
  8
0
100
AcDbMText
 62
5
  6
CONTINUOUS
  7
STANDARD
 71
2
 72
1
 10
105.0
 20
267.925040797
 30
0.0
 11
1.0
 21
0.0
 31
0.0
 73
2
 44
0.9
  1
60
 40
3.5
 41
8.25
  0
LINE
  5
288
100
AcDbEntity
  8
0
100
AcDbLine
 62
2
  6
CONTINUOUS
 10
75.0
 20
253.9298885257
 11
75.0
 21
265.050040797
  0
LINE
  5
289
100
AcDbEntity
  8
0
100
AcDbLine
 62
2
  6
CONTINUOUS
 10
135.0
 20
253.9298885257
 11
135.0
 21
265.050040797
  0
LINE
  5
28A
100
AcDbEntity
  8
0
100
AcDbLine
 62
2
  6
CONTINUOUS
 10
75.0
 20
263.550040797
 11
105.0
 21
263.550040797
  0
LINE
  5
28B
100
AcDbEntity
  8
0
100
AcDbLine
 62
2
  6
CONTINUOUS
 10
135.0
 20
263.550040797
 11
105.0
 21
263.550040797
  0
INSERT
  5
28C
100
AcDbEntity
  8
0
100
AcDbBlockReference
 62
2
  6
CONTINUOUS
  2
_FILLED
 10
75.0
 20
263.550040797
 41
3.5
 42
3.5
 43
3.5
 50
180.0
  0
INSERT
  5
28D
100
AcDbEntity
  8
0
100
AcDbBlockReference
 62
2
  6
CONTINUOUS
  2
_FILLED
 10
135.0
 20
263.550040797
 41
3.5
 42
3.5
 43
3.5
  0
ENDBLK
  5
28E
100
AcDbEntity
  8
0
  6
BYBLOCK
 62
0
100
AcDbBlockEnd
  0
BLOCK
  5
28F
100
AcDbEntity
  8
0
100
AcDbBlockBegin
  2
*T1
 70
1
 10
0.0
 20
0.0
  3
*T1
  1

  0
LINE
  5
290
100
AcDbEntity
  8
0
100
AcDbLine
 62
7
  6
CONTINUOUS
 10
0.0
 20
0.0
 11
138.6
 21
0.0
  0
LINE
  5
291
100
AcDbEntity
  8
0
100
AcDbLine
 62
7
  6
CONTINUOUS
 10
0.0
 20
0.0
 11
0.0
 21
-40.0
  0
LINE
  5
292
100
AcDbEntity
  8
0
100
AcDbLine
 62
7
  6
CONTINUOUS
 10
0.0
 20
-8.0
 11
138.6
 21
-8.0
  0
LINE
  5
293
100
AcDbEntity
  8
0
100
AcDbLine
 62
7
  6
CONTINUOUS
 10
0.0
 20
-14.0
 11
138.6
 21
-14.0
  0
LINE
  5
294
100
AcDbEntity
  8
0
100
AcDbLine
 62
7
  6
CONTINUOUS
 10
69.3
 20
-20.0
 11
138.6
 21
-20.0
  0
LINE
  5
295
100
AcDbEntity
  8
0
100
AcDbLine
 62
7
  6
CONTINUOUS
 10
69.3
 20
-26.0
 11
138.6
 21
-26.0
  0
LINE
  5
296
100
AcDbEntity
  8
0
100
AcDbLine
 62
7
  6
CONTINUOUS
 10
0.0
 20
-32.0
 11
138.6
 21
-32.0
  0
LINE
  5
297
100
AcDbEntity
  8
0
100
AcDbLine
 62
7
  6
CONTINUOUS
 10
0.0
 20
-40.0
 11
138.6
 21
-40.0
  0
LINE
  5
298
100
AcDbEntity
  8
0
100
AcDbLine
 62
7
  6
CONTINUOUS
 10
23.1
 20
0.0
 11
23.1
 21
-14.0
  0
LINE
  5
299
100
AcDbEntity
  8
0
100
AcDbLine
 62
7
  6
CONTINUOUS
 10
46.2
 20
0.0
 11
46.2
 21
-8.0
  0
LINE
  5
29A
100
AcDbEntity
  8
0
100
AcDbLine
 62
7
  6
CONTINUOUS
 10
46.2
 20
-32.0
 11
46.2
 21
-40.0
  0
LINE
  5
29B
100
AcDbEntity
  8
0
100
AcDbLine
 62
7
  6
CONTINUOUS
 10
69.3
 20
0.0
 11
69.3
 21
-40.0
  0
LINE
  5
29C
100
AcDbEntity
  8
0
100
AcDbLine
 62
7
  6
CONTINUOUS
 10
92.4
 20
0.0
 11
92.4
 21
-32.0
  0
LINE
  5
29D
100
AcDbEntity
  8
0
100
AcDbLine
 62
7
  6
CONTINUOUS
 10
115.5
 20
-8.0
 11
115.5
 21
-26.0
  0
LINE
  5
29E
100
AcDbEntity
  8
0
100
AcDbLine
 62
7
  6
CONTINUOUS
 10
115.5
 20
-32.0
 11
115.5
 21
-40.0
  0
LINE
  5
29F
100
AcDbEntity
  8
0
100
AcDbLine
 62
7
  6
CONTINUOUS
 10
138.6
 20
0.0
 11
138.6
 21
-40.0
  0
MTEXT
  5
2A0
100
AcDbEntity
  8
3D_NOTIZEN
100
AcDbMText
 62
5
  6
CONTINUOUS
  7
STANDARD
 71
1
 72
1
 10
1.05
 20
-0.7764571353
 30
0.0
 11
1.0
 21
0.0
 31
0.0
 73
2
 44
0.9
  1
\Q15.0;Sheet Number
 40
1.5
 41
26.9285714286
  0
MTEXT
  5
2A1
100
AcDbEntity
  8
3D_NOTIZEN
100
AcDbMText
 62
5
  6
CONTINUOUS
  7
STANDARD
 71
1
 72
1
 10
24.15
 20
-0.7764571353
 30
0.0
 11
1.0
 21
0.0
 31
0.0
 73
2
 44
0.9
  1
\Q15.0;Projection
 40
1.5
 41
20.1428571429
  0
MTEXT
  5
2A2
100
AcDbEntity
  8
3D_NOTIZEN
100
AcDbMText
 62
5
  6
CONTINUOUS
  7
STANDARD
 71
1
 72
1
 10
47.25
 20
-0.7764571353
 30
0.0
 11
1.0
 21
0.0
 31
0.0
 73
2
 44
0.9
  1
\Q15.0;Scale
 40
1.5
 41
10.6428571429
  0
MTEXT
  5
2A3
100
AcDbEntity
  8
3D_NOTIZEN
100
AcDbMText
 62
5
  6
CONTINUOUS
  7
STANDARD
 71
1
 72
1
 10
70.35
 20
-0.7764571353
 30
0.0
 11
1.0
 21
0.0
 31
0.0
 73
2
 44
0.9
  1
\Q15.0;Format
 40
1.5
 41
13.4285714286
  0
MTEXT
  5
2A4
100
AcDbEntity
  8
3D_NOTIZEN
100
AcDbMText
 62
5
  6
CONTINUOUS
  7
STANDARD
 71
1
 72
1
 10
93.45
 20
-0.7764571353
 30
0.0
 11
1.0
 21
0.0
 31
0.0
 73
2
 44
0.9
  1
\Q15.0;Tolerancing
 40
1.5
 41
22.9285714286
  0
MTEXT
  5
2A5
100
AcDbEntity
  8
3D_NOTIZEN
100
AcDbMText
 62
5
  6
CONTINUOUS
  7
STANDARD
 71
1
 72
1
 10
1.05
 20
-4.5352761804
 30
0.0
 11
1.0
 21
0.0
 31
0.0
 73
2
 44
0.9
  1
\Q15.0;1/1
 40
2.0
 41
8.380952381
  0
MTEXT
  5
2A6
100
AcDbEntity
  8
3D_NOTIZEN
100
AcDbMText
 62
5
  6
CONTINUOUS
  7
STANDARD
 71
1
 72
1
 10
47.25
 20
-4.5352761804
 30
0.0
 11
1.0
 21
0.0
 31
0.0
 73
2
 44
0.9
  1
\Q15.0;2:1
 40
2.0
 41
7.619047619
  0
MTEXT
  5
2A7
100
AcDbEntity
  8
3D_NOTIZEN
100
AcDbMText
 62
5
  6
CONTINUOUS
  7
STANDARD
 71
1
 72
1
 10
70.35
 20
-4.5352761804
 30
0.0
 11
1.0
 21
0.0
 31
0.0
 73
2
 44
0.9
  1
\Q15.0;A4
 40
2.0
 41
7.3333333333
  0
MTEXT
  5
2A8
100
AcDbEntity
  8
3D_NOTIZEN
100
AcDbMText
 62
5
  6
CONTINUOUS
  7
STANDARD
 71
1
 72
1
 10
93.45
 20
-4.5352761804
 30
0.0
 11
1.0
 21
0.0
 31
0.0
 73
2
 44
0.9
  1
\Q15.0;ISO 2768-mK
 40
2.0
 41
35.0476190476
  0
MTEXT
  5
2A9
100
AcDbEntity
  8
3D_NOTIZEN
100
AcDbMText
 62
5
  6
CONTINUOUS
  7
STANDARD
 71
1
 72
1
 10
1.05
 20
-10.2764571353
 30
0.0
 11
1.0
 21
0.0
 31
0.0
 73
2
 44
0.9
  1
\Q15.0;ECN Number
 40
1.5
 41
23.4285714286
  0
MTEXT
  5
2AA
100
AcDbEntity
  8
3D_NOTIZEN
100
AcDbMText
 62
5
  6
CONTINUOUS
  7
STANDARD
 71
1
 72
1
 10
24.15
 20
-10.0352761804
 30
0.0
 11
1.0
 21
0.0
 31
0.0
 73
2
 44
0.9
  1
\Q15.0;-
 40
2.0
 41
3.619047619
  0
MTEXT
  5
2AB
100
AcDbEntity
  8
3D_NOTIZEN
100
AcDbMText
 62
5
  6
CONTINUOUS
  7
STANDARD
 71
1
 72
1
 10
70.35
 20
-10.2764571353
 30
0.0
 11
1.0
 21
0.0
 31
0.0
 73
2
 44
0.9
  1
\Q15.0;Created
 40
1.5
 41
15.2857142857
  0
MTEXT
  5
2AC
100
AcDbEntity
  8
3D_NOTIZEN
100
AcDbMText
 62
5
  6
CONTINUOUS
  7
STANDARD
 71
1
 72
1
 10
93.45
 20
-10.0352761804
 30
0.0
 11
1.0
 21
0.0
 31
0.0
 73
2
 44
0.9
  1
\Q15.0;16.11.2021
 40
2.0
 41
27.0476190476
  0
MTEXT
  5
2AD
100
AcDbEntity
  8
3D_NOTIZEN
100
AcDbMText
 62
5
  6
CONTINUOUS
  7
STANDARD
 71
1
 72
1
 10
116.55
 20
-10.0352761804
 30
0.0
 11
1.0
 21
0.0
 31
0.0
 73
2
 44
0.9
  1
\Q15.0;Zechmann K.
 40
2.0
 41
33.0476190476
  0
MTEXT
  5
2AE
100
AcDbEntity
  8
3D_NOTIZEN
100
AcDbMText
 62
5
  6
CONTINUOUS
  7
STANDARD
 71
1
 72
1
 10
1.05
 20
-14.7764571353
 30
0.0
 11
1.0
 21
0.0
 31
0.0
 73
2
 44
0.9
  1
\Q15.0;Description
 40
1.5
 41
22.7142857143
  0
MTEXT
  5
2AF
100
AcDbEntity
  8
3D_NOTIZEN
100
AcDbMText
 62
5
  6
CONTINUOUS
  7
STANDARD
 71
1
 72
1
 10
70.35
 20
-16.2764571353
 30
0.0
 11
1.0
 21
0.0
 31
0.0
 73
2
 44
0.9
  1
\Q15.0;Modified
 40
1.5
 41
16.5714285714
  0
MTEXT
  5
2B0
100
AcDbEntity
  8
3D_NOTIZEN
100
AcDbMText
 62
5
  6
CONTINUOUS
  7
STANDARD
 71
1
 72
1
 10
93.45
 20
-16.0352761804
 30
0.0
 11
1.0
 21
0.0
 31
0.0
 73
2
 44
0.9
  1
\Q15.0;n.a.
 40
2.0
 41
11.0476190476
  0
MTEXT
  5
2B1
100
AcDbEntity
  8
3D_NOTIZEN
100
AcDbMText
 62
5
  6
CONTINUOUS
  7
STANDARD
 71
1
 72
1
 10
116.55
 20
-16.0352761804
 30
0.0
 11
1.0
 21
0.0
 31
0.0
 73
2
 44
0.9
  1
\Q15.0;n.a.
 40
2.0
 41
11.0476190476
  0
MTEXT
  5
2B2
100
AcDbEntity
  8
3D_NOTIZEN
100
AcDbMText
 62
5
  6
CONTINUOUS
  7
STANDARD
 71
1
 72
1
 10
1.05
 20
-23.0529142706
 30
0.0
 11
1.0
 21
0.0
 31
0.0
 73
2
 44
0.9
  1
\Q15.0;ST-HTLACA
 40
3.0
 41
44.2857142857
  0
MTEXT
  5
2B3
100
AcDbEntity
  8
3D_NOTIZEN
100
AcDbMText
 62
5
  6
CONTINUOUS
  7
STANDARD
 71
1
 72
1
 10
70.35
 20
-22.2764571353
 30
0.0
 11
1.0
 21
0.0
 31
0.0
 73
2
 44
0.9
  1
\Q15.0;Approved
 40
1.5
 41
17.9285714286
  0
MTEXT
  5
2B4
100
AcDbEntity
  8
3D_NOTIZEN
100
AcDbMText
 62
5
  6
CONTINUOUS
  7
STANDARD
 71
1
 72
1
 10
93.45
 20
-22.0352761804
 30
0.0
 11
1.0
 21
0.0
 31
0.0
 73
2
 44
0.9
  1
\Q15.0;n.a.
 40
2.0
 41
11.0476190476
  0
MTEXT
  5
2B5
100
AcDbEntity
  8
3D_NOTIZEN
100
AcDbMText
 62
5
  6
CONTINUOUS
  7
STANDARD
 71
1
 72
1
 10
116.55
 20
-22.0352761804
 30
0.0
 11
1.0
 21
0.0
 31
0.0
 73
2
 44
0.9
  1
\Q15.0;n.a.
 40
2.0
 41
11.0476190476
  0
MTEXT
  5
2B6
100
AcDbEntity
  8
3D_NOTIZEN
100
AcDbMText
 62
5
  6
CONTINUOUS
  7
STANDARD
 71
1
 72
1
 10
70.35
 20
-28.2764571353
 30
0.0
 11
1.0
 21
0.0
 31
0.0
 73
2
 44
0.9
  1
\Q15.0;Status
 40
1.5
 41
12.7857142857
  0
MTEXT
  5
2B7
100
AcDbEntity
  8
3D_NOTIZEN
100
AcDbMText
 62
5
  6
CONTINUOUS
  7
STANDARD
 71
1
 72
1
 10
93.45
 20
-28.0352761804
 30
0.0
 11
1.0
 21
0.0
 31
0.0
 73
2
 44
0.9
  1
\Q15.0;Under Review
 40
2.0
 41
36.0
  0
MTEXT
  5
2B8
100
AcDbEntity
  8
3D_NOTIZEN
100
AcDbMText
 62
5
  6
CONTINUOUS
  7
STANDARD
 71
1
 72
1
 10
47.25
 20
-32.7764571353
 30
0.0
 11
1.0
 21
0.0
 31
0.0
 73
2
 44
0.9
  1
\Q15.0;3D Model ID
 40
1.5
 41
25.2857142857
  0
MTEXT
  5
2B9
100
AcDbEntity
  8
3D_NOTIZEN
100
AcDbMText
 62
5
  6
CONTINUOUS
  7
STANDARD
 71
1
 72
1
 10
70.35
 20
-32.7764571353
 30
0.0
 11
1.0
 21
0.0
 31
0.0
 73
2
 44
0.9
  1
\Q15.0;Document ID
 40
1.5
 41
25.2857142857
  0
MTEXT
  5
2BA
100
AcDbEntity
  8
3D_NOTIZEN
100
AcDbMText
 62
5
  6
CONTINUOUS
  7
STANDARD
 71
1
 72
1
 10
116.55
 20
-32.7764571353
 30
0.0
 11
1.0
 21
0.0
 31
0.0
 73
2
 44
0.9
  1
\Q15.0;Revision
 40
1.5
 41
16.7857142857
  0
MTEXT
  5
2BB
100
AcDbEntity
  8
3D_NOTIZEN
100
AcDbMText
 62
5
  6
CONTINUOUS
  7
STANDARD
 71
1
 72
1
 10
47.25
 20
-36.5352761804
 30
0.0
 11
1.0
 21
0.0
 31
0.0
 73
2
 44
0.9
  1
\Q15.0;30009328
 40
2.0
 41
25.3333333333
  0
MTEXT
  5
2BC
100
AcDbEntity
  8
3D_NOTIZEN
100
AcDbMText
 62
5
  6
CONTINUOUS
  7
STANDARD
 71
1
 72
1
 10
70.35
 20
-36.0529142706
 30
0.0
 11
1.0
 21
0.0
 31
0.0
 73
2
 44
0.9
  1
\Q15.0;20003806
 40
3.0
 41
38.4285714286
  0
MTEXT
  5
2BD
100
AcDbEntity
  8
3D_NOTIZEN
100
AcDbMText
 62
5
  6
CONTINUOUS
  7
STANDARD
 71
1
 72
1
 10
116.55
 20
-36.0529142706
 30
0.0
 11
1.0
 21
0.0
 31
0.0
 73
2
 44
0.9
  1
\Q15.0;-
 40
3.0
 41
5.4285714286
  0
ENDBLK
  5
2BE
100
AcDbEntity
  8
0
  6
BYBLOCK
 62
0
100
AcDbBlockEnd
  0
ENDSEC
  0
SECTION
  2
ENTITIES
  0
MTEXT
  5
2BF
100
AcDbEntity
  8
0
100
AcDbMText
 62
5
  6
CONTINUOUS
  7
STANDARD
 71
1
 72
1
 10
202.3
 20
10.6200152467
 30
0.0
 11
0.0
 21
1.0
 31
0.0
 73
2
 44
0.9
  1
\Q15.0;Copyright © Neutrik AG / Im alten Riet 143 / 9494 Schaan / Liechtenstein
 40
1.7
 41
130.3171428571
  0
MTEXT
  5
2C0
100
AcDbEntity
  8
0
100
AcDbMText
 62
5
  6
CONTINUOUS
  7
STANDARD
 71
1
 72
1
 10
202.3
 20
109.1200152467
 30
0.0
 11
0.0
 21
1.0
 31
0.0
 73
2
 44
0.9
  1
\Q15.0;Refer to protection notice ISO 16016.
 40
1.7
 41
65.0857142857
  0
INSERT
  5
2C1
100
AcDbEntity
  8
0
100
AcDbBlockReference
 62
2
  6
CONTINUOUS
  2
PROJEKTION_BL0
 10
90.4716081857
 20
44.8002049924
  0
INSERT
  5
2C2
100
AcDbEntity
  8
0
100
AcDbBlockReference
 62
2
  6
CONTINUOUS
  2
NEUTRIK_BL1
 10
84.2614052729
 20
13.9059825579
  0
DIMENSION
  5
2C3
100
AcDbEntity
  8
ZEICHNUNGSBEMASSUNGEN
100
AcDbDimension
 62
2
  6
CONTINUOUS
  2
*D0
 10
63.6928230904
 20
226.0630859084
 11
51.9582155932
 21
219.2880223007
 70
160
 71
2
 72
2
 41
0.9
 42
27.1
  1
SW<>
  3
DIMSTYLE_1
100
AcDbAlignedDimension
 13
32.0286545082
 23
226.7068569913
 14
55.4978695025
 24
240.2569842066
 50
30.0003105723
100
AcDbRotatedDimension
  0
DIMENSION
  5
2C4
100
AcDbEntity
  8
0
100
AcDbDimension
 62
2
  6
CONTINUOUS
  2
*D1
 10
135.0
 20
263.550040797
 11
104.4999995117
 21
263.550040797
 70
160
 71
2
 72
2
 41
0.9
 42
60.0
  3
DIMSTYLE_2
100
AcDbAlignedDimension
 13
75.0
 23
252.9298885257
 14
135.0
 24
252.9298885257
100
AcDbRotatedDimension
  0
ACAD_TABLE
  5
2C5
100
AcDbEntity
  8
0
 62
2
  6
CONTINUOUS
100
AcDbBlockReference
  2
*T1
 10
61.4
 20
50.0
 30
0.0
100
AcDbTable
342
       4EF
343
215
 11
1.0
 21
0.0
 31
0.0
 90
22
 91
11
 92
6
 93
16
 94
0
 95
0
 96
0
 41
0.0
141
3.0
141
5.0
141
6.0
141
3.0
141
3.0
141
3.0
141
3.0
141
3.0
141
3.0
141
3.0
141
5.0
142
23.1
142
23.1
142
23.1
142
23.1
142
23.1
142
23.1
171
1
172
0
173
0
174
0
175
1
176
1
177
41
178
0
145
0.0
  1
\Q15.0;Sheet Number
170
4
140
1.5
 64
5
171
1
172
0
173
0
174
0
175
1
176
1
177
41
178
0
145
0.0
  1
\Q15.0;Projection
170
4
140
1.5
 64
5
171
1
172
0
173
0
174
0
175
1
176
1
177
41
178
0
145
0.0
  1
\Q15.0;Scale
170
4
140
1.5
 64
5
171
1
172
0
173
0
174
0
175
1
176
1
177
41
178
0
145
0.0
  1
\Q15.0;Format
170
4
140
1.5
 64
5
171
1
172
0
173
0
174
0
175
2
176
1
177
41
178
0
145
0.0
  1
\Q15.0;Tolerancing
170
4
140
1.5
 64
5
171
1
172
0
173
1
174
0
175
1
176
1
177
1
178
0
145
0.0
170
1
171
1
172
0
173
0
174
0
175
1
176
1
177
41
178
0
145
0.0
  1
\Q15.0;1/1
170
4
140
2.0
 64
5
171
1
172
0
173
0
174
0
175
1
176
1
177
33
178
0
145
0.0
  1
 
170
1
140
3.0
171
1
172
0
173
0
174
0
175
1
176
1
177
41
178
0
145
0.0
  1
\Q15.0;2:1
170
4
140
2.0
 64
5
171
1
172
0
173
0
174
0
175
1
176
1
177
41
178
0
145
0.0
  1
\Q15.0;A4
170
4
140
2.0
 64
5
171
1
172
0
173
0
174
0
175
2
176
1
177
41
178
0
145
0.0
  1
\Q15.0;ISO 2768-mK
170
4
140
2.0
 64
5
171
1
172
0
173
1
174
0
175
1
176
1
177
1
178
0
145
0.0
170
1
171
1
172
0
173
0
174
0
175
1
176
1
177
41
178
0
145
0.0
  1
\Q15.0;ECN Number
170
4
140
1.5
 64
5
171
1
172
0
173
0
174
0
175
2
176
1
177
41
178
0
145
0.0
  1
\Q15.0;-
170
4
140
2.0
 64
5
171
1
172
0
173
1
174
0
175
1
176
1
177
1
178
0
145
0.0
170
1
171
1
172
0
173
0
174
0
175
1
176
1
177
41
178
0
145
0.0
  1
\Q15.0;Created
170
4
140
1.5
 64
5
171
1
172
0
173
0
174
0
175
1
176
1
177
41
178
0
145
0.0
  1
\Q15.0;16.11.2021
170
4
140
2.0
 64
5
171
1
172
0
173
0
174
0
175
1
176
1
177
41
178
0
145
0.0
  1
\Q15.0;Zechmann K.
170
4
140
2.0
 64
5
171
1
172
0
173
0
174
0
175
3
176
1
177
41
178
0
145
0.0
  1
\Q15.0;Description
170
4
140
1.5
 64
5
171
1
172
0
173
1
174
0
175
1
176
1
177
1
178
0
145
0.0
170
1
171
1
172
0
173
1
174
0
175
1
176
1
177
1
178
0
145
0.0
170
1
171
1
172
0
173
0
174
0
175
1
176
2
177
41
178
0
145
0.0
  1
\Q15.0;Modified
170
4
140
1.5
 64
5
171
1
172
0
173
0
174
0
175
1
176
2
177
41
178
0
145
0.0
  1
\Q15.0;n.a.
170
4
140
2.0
 64
5
171
1
172
0
173
0
174
0
175
1
176
2
177
41
178
0
145
0.0
  1
\Q15.0;n.a.
170
4
140
2.0
 64
5
171
1
172
0
173
0
174
0
175
3
176
5
177
41
178
0
145
0.0
  1
\Q15.0;ST-HTLACA
170
4
140
3.0
 64
5
171
1
172
0
173
1
174
0
175
1
176
1
177
1
178
0
145
0.0
170
1
171
1
172
0
173
1
174
0
175
1
176
1
177
1
178
0
145
0.0
170
1
171
1
172
0
173
1
174
0
175
1
176
1
177
1
178
0
145
0.0
170
1
171
1
172
0
173
1
174
0
175
1
176
1
177
1
178
0
145
0.0
170
1
171
1
172
0
173
1
174
0
175
1
176
1
177
1
178
0
145
0.0
170
1
171
1
172
0
173
1
174
0
175
1
176
1
177
1
178
0
145
0.0
170
1
171
1
172
0
173
1
174
0
175
1
176
1
177
1
178
0
145
0.0
170
1
171
1
172
0
173
1
174
0
175
1
176
1
177
1
178
0
145
0.0
170
1
171
1
172
0
173
0
174
0
175
1
176
2
177
41
178
0
145
0.0
  1
\Q15.0;Approved
170
4
140
1.5
 64
5
171
1
172
0
173
0
174
0
175
1
176
2
177
41
178
0
145
0.0
  1
\Q15.0;n.a.
170
4
140
2.0
 64
5
171
1
172
0
173
0
174
0
175
1
176
2
177
41
178
0
145
0.0
  1
\Q15.0;n.a.
170
4
140
2.0
 64
5
171
1
172
0
173
1
174
0
175
1
176
1
177
1
178
0
145
0.0
170
1
171
1
172
0
173
1
174
0
175
1
176
1
177
1
178
0
145
0.0
170
1
171
1
172
0
173
1
174
0
175
1
176
1
177
1
178
0
145
0.0
170
1
171
1
172
0
173
1
174
0
175
1
176
1
177
1
178
0
145
0.0
170
1
171
1
172
0
173
1
174
0
175
1
176
1
177
1
178
0
145
0.0
170
1
171
1
172
0
173
1
174
0
175
1
176
1
177
1
178
0
145
0.0
170
1
171
1
172
0
173
1
174
0
175
1
176
1
177
1
178
0
145
0.0
170
1
171
1
172
0
173
1
174
0
175
1
176
1
177
1
178
0
145
0.0
170
1
171
1
172
0
173
1
174
0
175
1
176
1
177
1
178
0
145
0.0
170
1
171
1
172
0
173
0
174
0
175
1
176
2
177
41
178
0
145
0.0
  1
\Q15.0;Status
170
4
140
1.5
 64
5
171
1
172
0
173
0
174
0
175
2
176
2
177
41
178
0
145
0.0
  1
\Q15.0;Under Review
170
4
140
2.0
 64
5
171
1
172
0
173
1
174
0
175
1
176
1
177
1
178
0
145
0.0
170
1
171
1
172
0
173
1
174
0
175
1
176
1
177
1
178
0
145
0.0
170
1
171
1
172
0
173
1
174
0
175
1
176
1
177
1
178
0
145
0.0
170
1
171
1
172
0
173
1
174
0
175
1
176
1
177
1
178
0
145
0.0
170
1
171
1
172
0
173
1
174
0
175
1
176
1
177
1
178
0
145
0.0
170
1
171
1
172
0
173
1
174
0
175
1
176
1
177
1
178
0
145
0.0
170
1
171
1
172
0
173
1
174
0
175
1
176
1
177
1
178
0
145
0.0
170
1
171
1
172
0
173
0
174
0
175
2
176
2
177
33
178
0
145
0.0
  1
 
170
1
140
3.0
171
1
172
0
173
1
174
0
175
1
176
1
177
1
178
0
145
0.0
170
1
171
1
172
0
173
0
174
0
175
1
176
1
177
41
178
0
145
0.0
  1
\Q15.0;3D Model ID
170
4
140
1.5
 64
5
171
1
172
0
173
0
174
0
175
2
176
1
177
41
178
0
145
0.0
  1
\Q15.0;Document ID
170
4
140
1.5
 64
5
171
1
172
0
173
1
174
0
175
1
176
1
177
1
178
0
145
0.0
170
1
171
1
172
0
173
0
174
0
175
1
176
1
177
41
178
0
145
0.0
  1
\Q15.0;Revision
170
4
140
1.5
 64
5
171
1
172
0
173
1
174
0
175
1
176
1
177
1
178
0
145
0.0
170
1
171
1
172
0
173
1
174
0
175
1
176
1
177
1
178
0
145
0.0
170
1
171
1
172
0
173
0
174
0
175
1
176
1
177
41
178
0
145
0.0
  1
\Q15.0;30009328
170
4
140
2.0
 64
5
171
1
172
0
173
0
174
0
175
2
176
1
177
41
178
0
145
0.0
  1
\Q15.0;20003806
170
4
140
3.0
 64
5
171
1
172
0
173
1
174
0
175
1
176
1
177
1
178
0
145
0.0
170
1
171
1
172
0
173
0
174
0
175
1
176
1
177
41
178
0
145
0.0
  1
\Q15.0;-
170
4
140
3.0
 64
5
  0
MTEXT
  5
2C6
100
AcDbEntity
  8
3D_NOTIZEN
100
AcDbMText
 62
5
  6
CONTINUOUS
  7
STANDARD
 71
3
 72
1
 10
108.5478066087
 20
220.4011515508
 30
0.0
 11
1.0
 21
0.0
 31
0.0
 73
2
 44
0.9
  1
1:1
 40
3.5
 41
7.875
  0
LINE
  5
2C7
100
AcDbEntity
  8
0
100
AcDbLine
 62
7
  6
CONTINUOUS
 10
0.0
 20
0.0
 11
210.0
 21
0.0
  0
LINE
  5
2C8
100
AcDbEntity
  8
0
100
AcDbLine
 62
7
  6
CONTINUOUS
 10
12.5
 20
10.0
 11
200.0
 21
10.0
  0
LINE
  5
2C9
100
AcDbEntity
  8
0
100
AcDbLine
 62
7
  6
CONTINUOUS
 10
-0.0
 20
-0.0
 11
0.0
 21
297.0
  0
LINE
  5
2CA
100
AcDbEntity
  8
0
100
AcDbLine
 62
7
  6
CONTINUOUS
 10
12.5
 20
10.0
 11
12.5
 21
287.0
  0
LINE
  5
2CB
100
AcDbEntity
  8
0
100
AcDbLine
 62
7
  6
CONTINUOUS
 10
200.0
 20
10.0
 11
200.0
 21
287.0
  0
LINE
  5
2CC
100
AcDbEntity
  8
0
100
AcDbLine
 62
7
  6
CONTINUOUS
 10
210.0
 20
0.0
 11
210.0
 21
297.0
  0
LINE
  5
2CD
100
AcDbEntity
  8
0
100
AcDbLine
 62
7
  6
CONTINUOUS
 10
12.5
 20
287.0
 11
200.0
 21
287.0
  0
LINE
  5
2CE
100
AcDbEntity
  8
0
100
AcDbLine
 62
7
  6
CONTINUOUS
 10
0.0
 20
297.0
 11
210.0
 21
297.0
  0
LINE
  5
2CF
100
AcDbEntity
  8
FASEN
100
AcDbLine
 62
7
  6
CONTINUOUS
 10
32.0285103975
 20
253.2930565904
 11
24.5021277124
 21
240.2568161939
  0
LINE
  5
2D0
100
AcDbEntity
  8
FASEN
100
AcDbLine
 62
7
  6
CONTINUOUS
 10
32.4736201
 20
226.449959203
 11
47.5265267958
 21
226.4500407974
  0
LINE
  5
2D1
100
AcDbEntity
  8
FASEN
100
AcDbLine
 62
7
  6
CONTINUOUS
 10
24.5021304975
 20
239.7430157934
 11
32.0286545082
 21
226.7068569913
  0
LINE
  5
2D2
100
AcDbEntity
  8
FASEN
100
AcDbLine
 62
7
  6
CONTINUOUS
 10
32.3961863046
 20
252.9298885257
 11
25.0004799193
 21
240.119988953
  0
LINE
  5
2D3
100
AcDbEntity
  8
FASEN
100
AcDbLine
 62
7
  6
CONTINUOUS
 10
32.6042949164
 20
226.9499599113
 11
47.3958465589
 21
226.9500400891
  0
LINE
  5
2D4
100
AcDbEntity
  8
FASEN
100
AcDbLine
 62
7
  6
CONTINUOUS
 10
25.000481221
 20
239.879848437
 11
32.3963264782
 21
227.070029042
  0
LINE
  5
2D5
100
AcDbEntity
  8
FASEN
100
AcDbLine
 62
9
  6
CONTINUOUS
 10
30.506350807
 20
237.975
 11
30.506350807
 21
238.575
  0
LINE
  5
2D6
100
AcDbEntity
  8
FASEN
100
AcDbLine
 62
9
  6
CONTINUOUS
 10
30.506350807
 20
241.425
 11
30.506350807
 21
242.025
  0
LINE
  5
2D7
100
AcDbEntity
  8
FASEN
100
AcDbLine
 62
9
  6
CONTINUOUS
 10
37.975
 20
230.506350807
 11
38.575
 21
230.506350807
  0
LINE
  5
2D8
100
AcDbEntity
  8
FASEN
100
AcDbLine
 62
9
  6
CONTINUOUS
 10
41.425
 20
230.506350807
 11
42.025
 21
230.506350807
  0
LINE
  5
2D9
100
AcDbEntity
  8
FASEN
100
AcDbLine
 62
9
  6
CONTINUOUS
 10
31.1281695801
 20
237.975
 11
31.1281695801
 21
238.575
  0
LINE
  5
2DA
100
AcDbEntity
  8
FASEN
100
AcDbLine
 62
9
  6
CONTINUOUS
 10
31.1281695801
 20
241.425
 11
31.1281695801
 21
242.025
  0
LINE
  5
2DB
100
AcDbEntity
  8
FASEN
100
AcDbLine
 62
9
  6
CONTINUOUS
 10
37.975
 20
231.1281695801
 11
38.575
 21
231.1281695801
  0
LINE
  5
2DC
100
AcDbEntity
  8
FASEN
100
AcDbLine
 62
9
  6
CONTINUOUS
 10
41.425
 20
231.1281695801
 11
42.025
 21
231.1281695801
  0
LINE
  5
2DD
100
AcDbEntity
  8
FASEN
100
AcDbLine
 62
7
  6
CONTINUOUS
 10
37.025
 20
248.5999636627
 11
37.025
 21
249.301579167
  0
LINE
  5
2DE
100
AcDbEntity
  8
FASEN
100
AcDbLine
 62
7
  6
CONTINUOUS
 10
37.325
 20
248.5999636627
 11
37.325
 21
249.301579167
  0
LINE
  5
2DF
100
AcDbEntity
  8
FASEN
100
AcDbLine
 62
7
  6
CONTINUOUS
 10
32.4736201
 20
226.449959203
 11
32.6042949164
 21
226.9499599113
  0
LINE
  5
2E0
100
AcDbEntity
  8
FASEN
100
AcDbLine
 62
7
  6
CONTINUOUS
 10
47.9713454918
 20
253.2931430087
 11
47.6036735218
 21
252.929970958
  0
LINE
  5
2E1
100
AcDbEntity
  8
FASEN
100
AcDbLine
 62
7
  6
CONTINUOUS
 10
55.4978695025
 20
240.2569842066
 11
54.999518779
 21
240.120151563
  0
LINE
  5
2E2
100
AcDbEntity
  8
FASEN
100
AcDbLine
 62
7
  6
CONTINUOUS
 10
24.5021277124
 20
240.2568161939
 11
25.0004799193
 21
240.119988953
  0
LINE
  5
2E3
100
AcDbEntity
  8
FASEN
100
AcDbLine
 62
7
  6
CONTINUOUS
 10
47.9714896025
 20
226.7069434096
 11
47.6038136954
 21
227.0701114743
  0
LINE
  5
2E4
100
AcDbEntity
  8
FASEN
100
AcDbLine
 62
7
  6
CONTINUOUS
 10
32.4734732042
 20
253.5499592026
 11
32.6041534411
 21
253.0499599109
  0
LINE
  5
2E5
100
AcDbEntity
  8
FASEN
100
AcDbLine
 62
7
  6
CONTINUOUS
 10
37.625
 20
248.5999636627
 11
37.625
 21
249.301579167
  0
LINE
  5
2E6
100
AcDbEntity
  8
FASEN
100
AcDbLine
 62
7
  6
CONTINUOUS
 10
37.975
 20
230.506350807
 11
37.975
 21
231.1281695801
  0
LINE
  5
2E7
100
AcDbEntity
  8
FASEN
100
AcDbLine
 62
7
  6
CONTINUOUS
 10
38.275
 20
230.506350807
 11
38.275
 21
231.1281695801
  0
LINE
  5
2E8
100
AcDbEntity
  8
FASEN
100
AcDbLine
 62
7
  6
CONTINUOUS
 10
38.575
 20
230.506350807
 11
38.575
 21
231.1281695801
  0
LINE
  5
2E9
100
AcDbEntity
  8
FASEN
100
AcDbLine
 62
7
  6
CONTINUOUS
 10
49.493649193
 20
237.975
 11
48.8718304199
 21
237.975
  0
LINE
  5
2EA
100
AcDbEntity
  8
FASEN
100
AcDbLine
 62
7
  6
CONTINUOUS
 10
31.1281695801
 20
237.975
 11
30.506350807
 21
237.975
  0
LINE
  5
2EB
100
AcDbEntity
  8
FASEN
100
AcDbLine
 62
7
  6
CONTINUOUS
 10
49.493649193
 20
238.275
 11
48.8718304199
 21
238.275
  0
LINE
  5
2EC
100
AcDbEntity
  8
FASEN
100
AcDbLine
 62
7
  6
CONTINUOUS
 10
31.1281695801
 20
238.275
 11
30.506350807
 21
238.275
  0
LINE
  5
2ED
100
AcDbEntity
  8
FASEN
100
AcDbLine
 62
7
  6
CONTINUOUS
 10
49.493649193
 20
238.575
 11
48.8718304199
 21
238.575
  0
LINE
  5
2EE
100
AcDbEntity
  8
FASEN
100
AcDbLine
 62
7
  6
CONTINUOUS
 10
31.1281695801
 20
238.575
 11
30.506350807
 21
238.575
  0
LINE
  5
2EF
100
AcDbEntity
  8
DEFAULT_1
100
AcDbLine
 62
7
  6
CENTER
 10
40.0
 20
240.0
 11
40.0
 21
221.5
  0
LINE
  5
2F0
100
AcDbEntity
  8
DEFAULT_1
100
AcDbLine
 62
7
  6
CENTER
 10
40.0
 20
240.0
 11
40.0
 21
258.5
  0
LINE
  5
2F1
100
AcDbEntity
  8
FASEN
100
AcDbLine
 62
9
  6
CONTINUOUS
 10
38.575
 20
230.506350807
 11
38.4859375237
 21
229.9129977296
  0
LINE
  5
2F2
100
AcDbEntity
  8
FASEN
100
AcDbLine
 62
9
  6
CONTINUOUS
 10
37.9750000717
 20
231.1281695646
 11
38.1085165504
 21
231.7131254175
  0
LINE
  5
2F3
100
AcDbEntity
  8
FASEN
100
AcDbLine
 62
9
  6
CONTINUOUS
 10
42.5234366769
 20
249.882928027
 11
42.375
 21
249.301579167
  0
LINE
  5
2F4
100
AcDbEntity
  8
FASEN
100
AcDbLine
 62
9
  6
CONTINUOUS
 10
42.7788460535
 20
248.0329331249
 11
42.974999891
 21
248.599963699
  0
LINE
  5
2F5
100
AcDbEntity
  8
FASEN
100
AcDbLine
 62
9
  6
CONTINUOUS
 10
31.1281695801
 20
237.975
 11
31.7131255521
 21
238.1085157943
  0
LINE
  5
2F6
100
AcDbEntity
  8
FASEN
100
AcDbLine
 62
9
  6
CONTINUOUS
 10
48.2868744479
 20
241.8914842057
 11
48.8718304199
 21
242.025
  0
LINE
  5
2F7
100
AcDbEntity
  8
FASEN
100
AcDbLine
 62
9
  6
CONTINUOUS
 10
29.912997733
 20
238.4859374964
 11
30.5063508074
 21
238.5749999973
  0
LINE
  5
2F8
100
AcDbEntity
  8
FASEN
100
AcDbLine
 62
9
  6
CONTINUOUS
 10
49.4936491926
 20
241.4250000027
 11
50.087002267
 21
241.5140625036
  0
LINE
  5
2F9
100
AcDbEntity
  8
DEFAULT_1
100
AcDbLine
 62
7
  6
CENTER
 10
40.0
 20
240.0
 11
21.5
 21
240.0
  0
LINE
  5
2FA
100
AcDbEntity
  8
DEFAULT_1
100
AcDbLine
 62
7
  6
CENTER
 10
40.0
 20
240.0
 11
58.5
 21
240.0
  0
LINE
  5
2FB
100
AcDbEntity
  8
FASEN
100
AcDbLine
 62
9
  6
CONTINUOUS
 10
29.9129977296
 20
241.5140624763
 11
30.506350807
 21
241.425
  0
LINE
  5
2FC
100
AcDbEntity
  8
FASEN
100
AcDbLine
 62
9
  6
CONTINUOUS
 10
49.493649193
 20
238.575
 11
50.0870022704
 21
238.4859375237
  0
LINE
  5
2FD
100
AcDbEntity
  8
FASEN
100
AcDbLine
 62
9
  6
CONTINUOUS
 10
31.1281695558
 20
242.0249998877
 11
31.7131254096
 21
241.8914834131
  0
LINE
  5
2FE
100
AcDbEntity
  8
FASEN
100
AcDbLine
 62
9
  6
CONTINUOUS
 10
48.2868745825
 20
238.1085165504
 11
48.8718304354
 21
237.9750000717
  0
LINE
  5
2FF
100
AcDbEntity
  8
FASEN
100
AcDbLine
 62
9
  6
CONTINUOUS
 10
37.2211538469
 20
248.0329330918
 11
37.025
 21
248.5999636627
  0
LINE
  5
300
100
AcDbEntity
  8
FASEN
100
AcDbLine
 62
9
  6
CONTINUOUS
 10
37.6249999313
 20
249.3015791487
 11
37.4765624937
 21
249.8829278633
  0
LINE
  5
301
100
AcDbEntity
  8
FASEN
100
AcDbLine
 62
9
  6
CONTINUOUS
 10
41.8914842057
 20
231.7131255521
 11
42.025
 21
231.1281695801
  0
LINE
  5
302
100
AcDbEntity
  8
FASEN
100
AcDbLine
 62
9
  6
CONTINUOUS
 10
41.5140625036
 20
229.912997733
 11
41.4250000027
 21
230.5063508074
  0
LINE
  5
303
100
AcDbEntity
  8
FASEN
100
AcDbLine
 62
7
  6
CONTINUOUS
 10
41.425
 20
231.1281695801
 11
41.425
 21
230.506350807
  0
LINE
  5
304
100
AcDbEntity
  8
FASEN
100
AcDbLine
 62
7
  6
CONTINUOUS
 10
30.506350807
 20
241.425
 11
31.1281695801
 21
241.425
  0
LINE
  5
305
100
AcDbEntity
  8
FASEN
100
AcDbLine
 62
7
  6
CONTINUOUS
 10
48.8718304199
 20
241.425
 11
49.493649193
 21
241.425
  0
LINE
  5
306
100
AcDbEntity
  8
FASEN
100
AcDbLine
 62
7
  6
CONTINUOUS
 10
41.725
 20
231.1281695801
 11
41.725
 21
230.506350807
  0
LINE
  5
307
100
AcDbEntity
  8
FASEN
100
AcDbLine
 62
7
  6
CONTINUOUS
 10
42.025
 20
231.1281695801
 11
42.025
 21
230.506350807
  0
LINE
  5
308
100
AcDbEntity
  8
FASEN
100
AcDbLine
 62
7
  6
CONTINUOUS
 10
42.375
 20
249.301579167
 11
42.375
 21
248.5999636627
  0
LINE
  5
309
100
AcDbEntity
  8
FASEN
100
AcDbLine
 62
7
  6
CONTINUOUS
 10
42.675
 20
249.301579167
 11
42.675
 21
248.5999636627
  0
LINE
  5
30A
100
AcDbEntity
  8
FASEN
100
AcDbLine
 62
7
  6
CONTINUOUS
 10
30.506350807
 20
241.725
 11
31.1281695801
 21
241.725
  0
LINE
  5
30B
100
AcDbEntity
  8
FASEN
100
AcDbLine
 62
7
  6
CONTINUOUS
 10
48.8718304199
 20
241.725
 11
49.493649193
 21
241.725
  0
LINE
  5
30C
100
AcDbEntity
  8
FASEN
100
AcDbLine
 62
7
  6
CONTINUOUS
 10
30.506350807
 20
242.025
 11
31.1281695801
 21
242.025
  0
LINE
  5
30D
100
AcDbEntity
  8
FASEN
100
AcDbLine
 62
7
  6
CONTINUOUS
 10
48.8718304199
 20
242.025
 11
49.493649193
 21
242.025
  0
LINE
  5
30E
100
AcDbEntity
  8
FASEN
100
AcDbLine
 62
7
  6
CONTINUOUS
 10
42.975
 20
249.301579167
 11
42.975
 21
248.5999636627
  0
LINE
  5
30F
100
AcDbEntity
  8
FASEN
100
AcDbLine
 62
7
  6
CONTINUOUS
 10
47.5263799
 20
253.550040797
 11
47.3957050836
 21
253.0500400887
  0
LINE
  5
310
100
AcDbEntity
  8
FASEN
100
AcDbLine
 62
7
  6
CONTINUOUS
 10
32.0286545082
 20
226.7068569913
 11
32.3963264782
 21
227.070029042
  0
LINE
  5
311
100
AcDbEntity
  8
FASEN
100
AcDbLine
 62
7
  6
CONTINUOUS
 10
24.5021304975
 20
239.7430157934
 11
25.000481221
 21
239.879848437
  0
LINE
  5
312
100
AcDbEntity
  8
FASEN
100
AcDbLine
 62
7
  6
CONTINUOUS
 10
55.4978722876
 20
239.7431838061
 11
54.9995200807
 21
239.880011047
  0
LINE
  5
313
100
AcDbEntity
  8
FASEN
100
AcDbLine
 62
7
  6
CONTINUOUS
 10
32.0285103975
 20
253.2930565904
 11
32.3961863046
 21
252.9298885257
  0
LINE
  5
314
100
AcDbEntity
  8
FASEN
100
AcDbLine
 62
7
  6
CONTINUOUS
 10
47.5265267958
 20
226.4500407974
 11
47.3958465589
 21
226.9500400891
  0
LINE
  5
315
100
AcDbEntity
  8
FASEN
100
AcDbLine
 62
9
  6
CONTINUOUS
 10
48.8718304199
 20
237.975
 11
48.8718304199
 21
238.575
  0
LINE
  5
316
100
AcDbEntity
  8
FASEN
100
AcDbLine
 62
9
  6
CONTINUOUS
 10
48.8718304199
 20
241.425
 11
48.8718304199
 21
242.025
  0
LINE
  5
317
100
AcDbEntity
  8
FASEN
100
AcDbLine
 62
9
  6
CONTINUOUS
 10
49.493649193
 20
237.975
 11
49.493649193
 21
238.575
  0
LINE
  5
318
100
AcDbEntity
  8
FASEN
100
AcDbLine
 62
9
  6
CONTINUOUS
 10
49.493649193
 20
241.425
 11
49.493649193
 21
242.025
  0
LINE
  5
319
100
AcDbEntity
  8
FASEN
100
AcDbLine
 62
9
  6
CONTINUOUS
 10
37.025
 20
248.5999636627
 11
37.625
 21
248.5999636627
  0
LINE
  5
31A
100
AcDbEntity
  8
FASEN
100
AcDbLine
 62
9
  6
CONTINUOUS
 10
42.375
 20
248.5999636627
 11
42.975
 21
248.5999636627
  0
LINE
  5
31B
100
AcDbEntity
  8
FASEN
100
AcDbLine
 62
9
  6
CONTINUOUS
 10
37.025
 20
249.301579167
 11
37.625
 21
249.301579167
  0
LINE
  5
31C
100
AcDbEntity
  8
FASEN
100
AcDbLine
 62
9
  6
CONTINUOUS
 10
42.375
 20
249.301579167
 11
42.975
 21
249.301579167
  0
LINE
  5
31D
100
AcDbEntity
  8
FASEN
100
AcDbLine
 62
7
  6
CONTINUOUS
 10
47.6038136954
 20
227.0701114743
 11
54.9995200807
 21
239.880011047
  0
LINE
  5
31E
100
AcDbEntity
  8
FASEN
100
AcDbLine
 62
7
  6
CONTINUOUS
 10
47.9714896025
 20
226.7069434096
 11
55.4978722876
 21
239.7431838061
  0
LINE
  5
31F
100
AcDbEntity
  8
FASEN
100
AcDbLine
 62
7
  6
CONTINUOUS
 10
47.3957050836
 20
253.0500400887
 11
32.6041534411
 21
253.0499599109
  0
LINE
  5
320
100
AcDbEntity
  8
FASEN
100
AcDbLine
 62
7
  6
CONTINUOUS
 10
47.5263799
 20
253.550040797
 11
32.4734732042
 21
253.5499592026
  0
LINE
  5
321
100
AcDbEntity
  8
FASEN
100
AcDbLine
 62
7
  6
CONTINUOUS
 10
54.999518779
 20
240.120151563
 11
47.6036735218
 21
252.929970958
  0
LINE
  5
322
100
AcDbEntity
  8
FASEN
100
AcDbLine
 62
7
  6
CONTINUOUS
 10
55.4978695025
 20
240.2569842066
 11
47.9713454918
 21
253.2931430087
  0
LINE
  5
323
100
AcDbEntity
  8
FASEN
100
AcDbLine
 62
7
  6
CONTINUOUS
 10
75.5
 20
253.5499592026
 11
75.0
 21
253.0499599109
  0
LINE
  5
324
100
AcDbEntity
  8
FASEN
100
AcDbLine
 62
7
  6
CONTINUOUS
 10
75.5
 20
226.449959203
 11
75.0
 21
226.9499599113
  0
LINE
  5
325
100
AcDbEntity
  8
FASEN
100
AcDbLine
 62
7
  6
CONTINUOUS
 10
75.0
 20
226.9499599113
 11
75.0
 21
253.0499599109
  0
LINE
  5
326
100
AcDbEntity
  8
FASEN
100
AcDbLine
 62
7
  6
CONTINUOUS
 10
75.5
 20
226.449959203
 11
75.5
 21
253.5499592026
  0
LINE
  5
327
100
AcDbEntity
  8
FASEN
100
AcDbLine
 62
7
  6
CONTINUOUS
 10
75.5
 20
253.2930565904
 11
75.0
 21
252.9298885257
  0
LINE
  5
328
100
AcDbEntity
  8
FASEN
100
AcDbLine
 62
7
  6
CONTINUOUS
 10
75.5
 20
226.7068569913
 11
75.0
 21
227.070029042
  0
LINE
  5
329
100
AcDbEntity
  8
FASEN
100
AcDbLine
 62
7
  6
CONTINUOUS
 10
134.5
 20
226.449959203
 11
75.5
 21
226.449959203
  0
LINE
  5
32A
100
AcDbEntity
  8
FASEN
100
AcDbLine
 62
7
  6
CONTINUOUS
 10
134.5
 20
226.7068569913
 11
75.5
 21
226.7068569913
  0
LINE
  5
32B
100
AcDbEntity
  8
FASEN
100
AcDbLine
 62
7
  6
CONTINUOUS
 10
134.5
 20
239.7430157934
 11
135.0
 21
239.879848437
  0
LINE
  5
32C
100
AcDbEntity
  8
FASEN
100
AcDbLine
 62
7
  6
CONTINUOUS
 10
75.5
 20
239.7430157934
 11
75.0
 21
239.879848437
  0
LINE
  5
32D
100
AcDbEntity
  8
FASEN
100
AcDbLine
 62
7
  6
CONTINUOUS
 10
134.5
 20
239.7430157934
 11
75.5
 21
239.7430157934
  0
LINE
  5
32E
100
AcDbEntity
  8
DEFAULT_1
100
AcDbLine
 62
7
  6
CENTER
 10
72.0
 20
240.0
 11
138.0
 21
240.0
  0
LINE
  5
32F
100
AcDbEntity
  8
FASEN
100
AcDbLine
 62
7
  6
CONTINUOUS
 10
134.5
 20
240.2568161939
 11
75.5
 21
240.2568161939
  0
LINE
  5
330
100
AcDbEntity
  8
FASEN
100
AcDbLine
 62
7
  6
CONTINUOUS
 10
75.5
 20
240.2568161939
 11
75.0
 21
240.119988953
  0
LINE
  5
331
100
AcDbEntity
  8
FASEN
100
AcDbLine
 62
7
  6
CONTINUOUS
 10
134.5
 20
240.2568161939
 11
135.0
 21
240.119988953
  0
LINE
  5
332
100
AcDbEntity
  8
FASEN
100
AcDbLine
 62
7
  6
CONTINUOUS
 10
134.5
 20
253.2930565904
 11
75.5
 21
253.2930565904
  0
LINE
  5
333
100
AcDbEntity
  8
FASEN
100
AcDbLine
 62
7
  6
CONTINUOUS
 10
134.5
 20
253.5499592026
 11
75.5
 21
253.5499592026
  0
LINE
  5
334
100
AcDbEntity
  8
FASEN
100
AcDbLine
 62
7
  6
CONTINUOUS
 10
134.5
 20
226.7068569913
 11
135.0
 21
227.070029042
  0
LINE
  5
335
100
AcDbEntity
  8
FASEN
100
AcDbLine
 62
7
  6
CONTINUOUS
 10
134.5
 20
253.2930565904
 11
135.0
 21
252.9298885257
  0
LINE
  5
336
100
AcDbEntity
  8
FASEN
100
AcDbLine
 62
7
  6
CONTINUOUS
 10
134.5
 20
226.449959203
 11
134.5
 21
253.5499592026
  0
LINE
  5
337
100
AcDbEntity
  8
FASEN
100
AcDbLine
 62
7
  6
CONTINUOUS
 10
135.0
 20
226.9499599113
 11
135.0
 21
253.0499599109
  0
LINE
  5
338
100
AcDbEntity
  8
FASEN
100
AcDbLine
 62
7
  6
CONTINUOUS
 10
134.5
 20
226.449959203
 11
135.0
 21
226.9499599113
  0
LINE
  5
339
100
AcDbEntity
  8
FASEN
100
AcDbLine
 62
7
  6
CONTINUOUS
 10
134.5
 20
253.5499592026
 11
135.0
 21
253.0499599109
  0
LINE
  5
33A
100
AcDbEntity
  8
FASEN
100
AcDbLine
 62
7
  6
CONTINUOUS
 10
162.0286545082
 20
253.2931430087
 11
154.5021304975
 21
240.2569842066
  0
LINE
  5
33B
100
AcDbEntity
  8
FASEN
100
AcDbLine
 62
7
  6
CONTINUOUS
 10
162.4734732042
 20
226.4500407974
 11
177.5263799
 21
226.449959203
  0
LINE
  5
33C
100
AcDbEntity
  8
FASEN
100
AcDbLine
 62
7
  6
CONTINUOUS
 10
154.5021277124
 20
239.7431838061
 11
162.0285103975
 21
226.7069434096
  0
LINE
  5
33D
100
AcDbEntity
  8
FASEN
100
AcDbLine
 62
7
  6
CONTINUOUS
 10
162.3963264782
 20
252.929970958
 11
155.000481221
 21
240.120151563
  0
LINE
  5
33E
100
AcDbEntity
  8
FASEN
100
AcDbLine
 62
7
  6
CONTINUOUS
 10
162.6041534411
 20
226.9500400891
 11
177.3957050836
 21
226.9499599113
  0
LINE
  5
33F
100
AcDbEntity
  8
FASEN
100
AcDbLine
 62
7
  6
CONTINUOUS
 10
155.0004799193
 20
239.880011047
 11
162.3961863046
 21
227.0701114743
  0
LINE
  5
340
100
AcDbEntity
  8
FASEN
100
AcDbLine
 62
9
  6
CONTINUOUS
 10
160.5337441404
 20
241.4
 11
160.5337441404
 21
241.1
  0
LINE
  5
341
100
AcDbEntity
  8
FASEN
100
AcDbLine
 62
9
  6
CONTINUOUS
 10
160.5337441404
 20
238.6
 11
160.5337441404
 21
238.9
  0
LINE
  5
342
100
AcDbEntity
  8
RUNDUNGEN
100
AcDbLine
 62
9
  6
CONTINUOUS
 10
160.5337441404
 20
238.9
 11
160.5337441404
 21
239.2
  0
LINE
  5
343
100
AcDbEntity
  8
RUNDUNGEN
100
AcDbLine
 62
9
  6
CONTINUOUS
 10
160.5337441404
 20
240.8
 11
160.5337441404
 21
241.1
  0
LINE
  5
344
100
AcDbEntity
  8
FASEN
100
AcDbLine
 62
9
  6
CONTINUOUS
 10
171.4
 20
230.5337441404
 11
171.1
 21
230.5337441404
  0
LINE
  5
345
100
AcDbEntity
  8
RUNDUNGEN
100
AcDbLine
 62
9
  6
CONTINUOUS
 10
171.1
 20
230.5337441404
 11
170.8
 21
230.5337441404
  0
LINE
  5
346
100
AcDbEntity
  8
RUNDUNGEN
100
AcDbLine
 62
9
  6
CONTINUOUS
 10
169.2
 20
230.5337441404
 11
168.9
 21
230.5337441404
  0
LINE
  5
347
100
AcDbEntity
  8
FASEN
100
AcDbLine
 62
9
  6
CONTINUOUS
 10
168.6
 20
230.5337441404
 11
168.9
 21
230.5337441404
  0
LINE
  5
348
100
AcDbEntity
  8
FASEN
100
AcDbLine
 62
9
  6
CONTINUOUS
 10
161.0589430155
 20
241.4
 11
161.0589430155
 21
241.1
  0
LINE
  5
349
100
AcDbEntity
  8
FASEN
100
AcDbLine
 62
9
  6
CONTINUOUS
 10
161.0589430155
 20
238.6
 11
161.0589430155
 21
238.9
  0
LWPOLYLINE
  5
34A
100
AcDbEntity
  8
RUNDUNGEN
100
AcDbPolyline
 62
9
  6
CONTINUOUS
 90
9
 70
0
 10
161.0576814072
 20
241.0962855571
 10
161.0487396442
 20
241.0667577446
 10
161.0414391911
 20
241.0416038949
 10
161.032782906
 20
241.0106458405
 10
161.0232675013
 20
240.9746427989
 10
161.0133719613
 20
240.934464005
 10
161.0034901693
 20
240.8912082652
 10
160.9942448628
 20
240.8460229218
 10
160.9854284628
 20
240.8
  0
LINE
  5
34B
100
AcDbEntity
  8
RUNDUNGEN
100
AcDbLine
 62
9
  6
CONTINUOUS
 10
161.0589430155
 20
241.1
 11
161.0576814072
 21
241.0962855571
  0
LWPOLYLINE
  5
34C
100
AcDbEntity
  8
RUNDUNGEN
100
AcDbPolyline
 62
9
  6
CONTINUOUS
 90
11
 70
0
 10
167.75
 20
248.7658428003
 10
167.7031393002
 20
248.74085885
 10
167.6571970638
 20
248.7160761648
 10
167.6132522629
 20
248.6910494683
 10
167.5727100834
 20
248.6671145894
 10
167.5368167895
 20
248.6452379254
 10
167.506319633
 20
248.626082494
 10
167.4818833968
 20
248.6105072728
 10
167.4641699851
 20
248.5988907796
 10
167.4535313905
 20
248.5919809637
 10
167.45
 20
248.5895285086
  0
LINE
  5
34D
100
AcDbEntity
  8
RUNDUNGEN
100
AcDbLine
 62
9
  6
CONTINUOUS
 10
170.9688579412
 20
231.0217938181
 11
171.0382458427
 21
231.0404879635
  0
LWPOLYLINE
  5
34E
100
AcDbEntity
  8
RUNDUNGEN
100
AcDbPolyline
 62
9
  6
CONTINUOUS
 90
9
 70
0
 10
170.8
 20
230.9854271348
 10
170.8192226188
 20
230.988923567
 10
170.8392140527
 20
230.9927322195
 10
170.8598401433
 20
230.9968547558
 10
170.8810531966
 20
231.0012861857
 10
170.9027630401
 20
231.0060382133
 10
170.9247794118
 20
231.0110624199
 10
170.9469029062
 20
231.0163087235
 10
170.9688579412
 20
231.0217938181
  0
LINE
  5
34F
100
AcDbEntity
  8
FASEN
100
AcDbLine
 62
9
  6
CONTINUOUS
 10
171.4
 20
231.0589430155
 11
171.1
 21
231.0589430155
  0
LINE
  5
350
100
AcDbEntity
  8
FASEN
100
AcDbLine
 62
9
  6
CONTINUOUS
 10
168.6
 20
231.0589430155
 11
168.9
 21
231.0589430155
  0
LWPOLYLINE
  5
351
100
AcDbEntity
  8
RUNDUNGEN
100
AcDbPolyline
 62
9
  6
CONTINUOUS
 90
9
 70
0
 10
168.9037550964
 20
231.0576589133
 10
168.9333973958
 20
231.0486987645
 10
168.9585402272
 20
231.0413979974
 10
168.9895088297
 20
231.0327404046
 10
169.0255469914
 20
231.0232191151
 10
169.0658548645
 20
231.0132970654
 10
169.1091991864
 20
231.0034008301
 10
169.1542651798
 20
230.9941839067
 10
169.2
 20
230.9854284628
  0
LINE
  5
352
100
AcDbEntity
  8
RUNDUNGEN
100
AcDbLine
 62
9
  6
CONTINUOUS
 10
168.9
 20
231.0589430155
 11
168.9037550964
 21
231.0576589133
  0
LWPOLYLINE
  5
353
100
AcDbEntity
  8
RUNDUNGEN
100
AcDbPolyline
 62
9
  6
CONTINUOUS
 90
11
 70
0
 10
160.9854284628
 20
239.2
 10
160.9942038749
 20
239.1541711543
 10
161.0034252678
 20
239.1090881271
 10
161.0133042318
 20
239.0658231264
 10
161.0232059961
 20
239.0255973753
 10
161.0327255059
 20
238.9895604977
 10
161.0413852031
 20
238.9585855171
 10
161.0486815436
 20
238.9334670566
 10
161.0542874312
 20
238.9150170084
 10
161.0576460538
 20
238.9037773456
 10
161.0589430155
 20
238.9
  0
LINE
  5
354
100
AcDbEntity
  8
FASEN
100
AcDbLine
 62
7
  6
CONTINUOUS
 10
167.15
 20
249.229707471
 11
167.15
 21
248.5895285086
  0
LINE
  5
355
100
AcDbEntity
  8
FASEN
100
AcDbLine
 62
7
  6
CONTINUOUS
 10
162.4734732042
 20
226.4500407974
 11
162.6041534411
 21
226.9500400891
  0
LINE
  5
356
100
AcDbEntity
  8
FASEN
100
AcDbLine
 62
7
  6
CONTINUOUS
 10
177.9714896025
 20
253.2930565904
 11
177.6038136954
 21
252.9298885257
  0
LINE
  5
357
100
AcDbEntity
  8
FASEN
100
AcDbLine
 62
7
  6
CONTINUOUS
 10
185.4978722876
 20
240.2568161939
 11
184.9995200807
 21
240.119988953
  0
LINE
  5
358
100
AcDbEntity
  8
FASEN
100
AcDbLine
 62
7
  6
CONTINUOUS
 10
154.5021304975
 20
240.2569842066
 11
155.000481221
 21
240.120151563
  0
LINE
  5
359
100
AcDbEntity
  8
FASEN
100
AcDbLine
 62
7
  6
CONTINUOUS
 10
177.9713454918
 20
226.7068569913
 11
177.6036735218
 21
227.070029042
  0
LINE
  5
35A
100
AcDbEntity
  8
FASEN
100
AcDbLine
 62
7
  6
CONTINUOUS
 10
162.4736201
 20
253.550040797
 11
162.6042949164
 21
253.0500400887
  0
LINE
  5
35B
100
AcDbEntity
  8
RUNDUNGEN
100
AcDbLine
 62
7
  6
CONTINUOUS
 10
167.45
 20
248.5895285086
 11
167.45
 21
249.229707471
  0
LINE
  5
35C
100
AcDbEntity
  8
RUNDUNGEN
100
AcDbLine
 62
9
  6
CONTINUOUS
 10
167.75
 20
248.7658428003
 11
167.75
 21
249.229707471
  0
LINE
  5
35D
100
AcDbEntity
  8
FASEN
100
AcDbLine
 62
7
  6
CONTINUOUS
 10
168.6
 20
231.0589430155
 11
168.6
 21
230.5337441404
  0
LWPOLYLINE
  5
35E
100
AcDbEntity
  8
RUNDUNGEN
100
AcDbPolyline
 62
9
  6
CONTINUOUS
 90
4
 70
0
 10
172.3210526316
 20
249.5211719174
 10
172.3188088391
 20
249.5158078807
 10
172.3156123196
 20
249.4988552561
 10
172.2769488708
 20
249.3402542241
  0
LINE
  5
35F
100
AcDbEntity
  8
FASEN
100
AcDbLine
 62
7
  6
CONTINUOUS
 10
160.5337441404
 20
238.6
 11
161.0589430155
 21
238.6
  0
LINE
  5
360
100
AcDbEntity
  8
FASEN
100
AcDbLine
 62
7
  6
CONTINUOUS
 10
178.9410569845
 20
238.6
 11
179.4662558596
 21
238.6
  0
LWPOLYLINE
  5
361
100
AcDbEntity
  8
RUNDUNGEN
100
AcDbPolyline
 62
9
  6
CONTINUOUS
 90
5
 70
0
 10
160.2348097448
 20
240.8252631579
 10
160.2404631174
 20
240.8238291124
 10
160.2577480377
 20
240.8233246265
 10
160.2856353774
 20
240.8208604978
 10
160.3692186673
 20
240.8140693203
  0
LINE
  5
362
100
AcDbEntity
  8
RUNDUNGEN
100
AcDbLine
 62
9
  6
CONTINUOUS
 10
170.7734806628
 20
231.2842540386
 11
170.8
 21
230.9854284628
  0
LINE
  5
363
100
AcDbEntity
  8
RUNDUNGEN
100
AcDbLine
 62
9
  6
CONTINUOUS
 10
170.8
 20
230.5337441404
 11
170.8252631579
 21
230.2348097448
  0
LINE
  5
364
100
AcDbEntity
  8
FASEN
100
AcDbLine
 62
9
  6
CONTINUOUS
 10
170.8505262798
 20
229.9358753502
 11
170.8252631399
 21
230.2348097453
  0
LINE
  5
365
100
AcDbEntity
  8
RUNDUNGEN
100
AcDbLine
 62
7
  6
CONTINUOUS
 10
168.9
 20
230.5337441404
 11
168.9
 21
231.0589430155
  0
LINE
  5
366
100
AcDbEntity
  8
RUNDUNGEN
100
AcDbLine
 62
9
  6
CONTINUOUS
 10
169.2
 20
230.5337441404
 11
169.2
 21
230.9854284628
  0
LINE
  5
367
100
AcDbEntity
  8
DEFAULT_1
100
AcDbLine
 62
7
  6
CENTER
 10
170.0
 20
240.0
 11
170.0
 21
221.5
  0
LINE
  5
368
100
AcDbEntity
  8
DEFAULT_1
100
AcDbLine
 62
7
  6
CENTER
 10
170.0
 20
240.0
 11
170.0
 21
258.5
  0
LINE
  5
369
100
AcDbEntity
  8
FASEN
100
AcDbLine
 62
9
  6
CONTINUOUS
 10
169.1494736841
 20
229.9358753492
 11
169.174736842
 21
230.2348097448
  0
LWPOLYLINE
  5
36A
100
AcDbEntity
  8
RUNDUNGEN
100
AcDbPolyline
 62
9
  6
CONTINUOUS
 90
4
 70
0
 10
169.1859306797
 20
230.3692186673
 10
169.1904575513
 20
230.4208300639
 10
169.1943083857
 20
230.4758415478
 10
169.2
 20
230.5337441404
  0
LINE
  5
36B
100
AcDbEntity
  8
RUNDUNGEN
100
AcDbLine
 62
9
  6
CONTINUOUS
 10
169.2
 20
230.9854284628
 11
169.226519337
 21
231.2842540386
  0
LINE
  5
36C
100
AcDbEntity
  8
FASEN
100
AcDbLine
 62
9
  6
CONTINUOUS
 10
168.6
 20
231.0589430155
 11
168.6464088508
 21
231.3553316431
  0
LINE
  5
36D
100
AcDbEntity
  8
FASEN
100
AcDbLine
 62
9
  6
CONTINUOUS
 10
172.3921053229
 20
249.8126363489
 11
172.3210526896
 21
249.5211719029
  0
LINE
  5
36E
100
AcDbEntity
  8
RUNDUNGEN
100
AcDbLine
 62
9
  6
CONTINUOUS
 10
172.25
 20
248.7658428003
 11
172.1754143646
 21
248.475262376
  0
LINE
  5
36F
100
AcDbEntity
  8
FASEN
100
AcDbLine
 62
9
  6
CONTINUOUS
 10
172.85
 20
248.5895285086
 11
172.7555248739
 21
248.3047927531
  0
LINE
  5
370
100
AcDbEntity
  8
FASEN
100
AcDbLine
 62
9
  6
CONTINUOUS
 10
178.9410569842
 20
241.400000002
 11
178.6446683548
 21
241.3535911622
  0
LINE
  5
371
100
AcDbEntity
  8
FASEN
100
AcDbLine
 62
9
  6
CONTINUOUS
 10
161.0589430155
 20
238.6
 11
161.3553316448
 21
238.6464088398
  0
LINE
  5
372
100
AcDbEntity
  8
RUNDUNGEN
100
AcDbLine
 62
9
  6
CONTINUOUS
 10
161.2842540386
 20
239.226519337
 11
160.9854284628
 21
239.2
  0
LINE
  5
373
100
AcDbEntity
  8
RUNDUNGEN
100
AcDbLine
 62
9
  6
CONTINUOUS
 10
178.7157459614
 20
240.773480663
 11
179.0145715372
 21
240.8
  0
LINE
  5
374
100
AcDbEntity
  8
FASEN
100
AcDbLine
 62
9
  6
CONTINUOUS
 10
159.9358753502
 20
239.1494737202
 11
160.2348097453
 21
239.1747368601
  0
LINE
  5
375
100
AcDbEntity
  8
RUNDUNGEN
100
AcDbLine
 62
9
  6
CONTINUOUS
 10
160.5337441404
 20
239.2
 11
160.2348097448
 21
239.1747368421
  0
LINE
  5
376
100
AcDbEntity
  8
RUNDUNGEN
100
AcDbLine
 62
9
  6
CONTINUOUS
 10
179.4662558596
 20
240.8
 11
179.7651902552
 21
240.8252631579
  0
LINE
  5
377
100
AcDbEntity
  8
FASEN
100
AcDbLine
 62
9
  6
CONTINUOUS
 10
180.0641246498
 20
240.8505262798
 11
179.7651902547
 21
240.8252631399
  0
LINE
  5
378
100
AcDbEntity
  8
RUNDUNGEN
100
AcDbLine
 62
7
  6
CONTINUOUS
 10
179.4662558596
 20
238.9
 11
178.9410569845
 21
238.9
  0
LINE
  5
379
100
AcDbEntity
  8
RUNDUNGEN
100
AcDbLine
 62
7
  6
CONTINUOUS
 10
161.0589430155
 20
238.9
 11
160.5337441404
 21
238.9
  0
LINE
  5
37A
100
AcDbEntity
  8
RUNDUNGEN
100
AcDbLine
 62
9
  6
CONTINUOUS
 10
179.4662558596
 20
239.2
 11
179.0145715372
 21
239.2
  0
LINE
  5
37B
100
AcDbEntity
  8
RUNDUNGEN
100
AcDbLine
 62
9
  6
CONTINUOUS
 10
160.9854284628
 20
239.2
 11
160.5337441404
 21
239.2
  0
LINE
  5
37C
100
AcDbEntity
  8
DEFAULT_1
100
AcDbLine
 62
7
  6
CENTER
 10
170.0
 20
240.0
 11
151.5
 21
240.0
  0
LINE
  5
37D
100
AcDbEntity
  8
DEFAULT_1
100
AcDbLine
 62
7
  6
CENTER
 10
170.0
 20
240.0
 11
188.5
 21
240.0
  0
LINE
  5
37E
100
AcDbEntity
  8
FASEN
100
AcDbLine
 62
9
  6
CONTINUOUS
 10
180.0641246508
 20
239.1494736841
 11
179.7651902552
 21
239.174736842
  0
LINE
  5
37F
100
AcDbEntity
  8
FASEN
100
AcDbLine
 62
9
  6
CONTINUOUS
 10
159.9358753492
 20
240.8505263159
 11
160.2348097448
 21
240.825263158
  0
LWPOLYLINE
  5
380
100
AcDbEntity
  8
RUNDUNGEN
100
AcDbPolyline
 62
9
  6
CONTINUOUS
 90
4
 70
0
 10
160.3692186673
 20
240.8140693203
 10
160.4208300639
 20
240.8095424487
 10
160.4758415478
 20
240.8056916143
 10
160.5337441404
 20
240.8
  0
LWPOLYLINE
  5
381
100
AcDbEntity
  8
RUNDUNGEN
100
AcDbPolyline
 62
9
  6
CONTINUOUS
 90
4
 70
0
 10
179.6307813327
 20
239.1859306797
 10
179.5791699361
 20
239.1904575513
 10
179.5241584522
 20
239.1943083857
 10
179.4662558596
 20
239.2
  0
LINE
  5
382
100
AcDbEntity
  8
RUNDUNGEN
100
AcDbLine
 62
9
  6
CONTINUOUS
 10
179.0145715372
 20
239.1999999999
 11
178.7157459614
 21
239.2265193369
  0
LINE
  5
383
100
AcDbEntity
  8
RUNDUNGEN
100
AcDbLine
 62
9
  6
CONTINUOUS
 10
160.9854284628
 20
240.8
 11
161.2842540386
 21
240.773480663
  0
LINE
  5
384
100
AcDbEntity
  8
FASEN
100
AcDbLine
 62
9
  6
CONTINUOUS
 10
161.0589430155
 20
241.4
 11
161.3553316431
 21
241.3535911492
  0
LINE
  5
385
100
AcDbEntity
  8
FASEN
100
AcDbLine
 62
9
  6
CONTINUOUS
 10
178.9410569845
 20
238.6
 11
178.6446683569
 21
238.6464088508
  0
LINE
  5
386
100
AcDbEntity
  8
FASEN
100
AcDbLine
 62
9
  6
CONTINUOUS
 10
167.1499999997
 20
248.5895285085
 11
167.2444751378
 21
248.3047927568
  0
LINE
  5
387
100
AcDbEntity
  8
RUNDUNGEN
100
AcDbLine
 62
9
  6
CONTINUOUS
 10
167.8245856354
 20
248.475262376
 11
167.75
 21
248.7658428003
  0
LINE
  5
388
100
AcDbEntity
  8
FASEN
100
AcDbLine
 62
9
  6
CONTINUOUS
 10
167.6078955044
 20
249.8126365077
 11
167.6789477522
 21
249.5211719894
  0
LINE
  5
389
100
AcDbEntity
  8
RUNDUNGEN
100
AcDbLine
 62
9
  6
CONTINUOUS
 10
167.75
 20
249.229707471
 11
167.6789473684
 21
249.5211719174
  0
LINE
  5
38A
100
AcDbEntity
  8
FASEN
100
AcDbLine
 62
9
  6
CONTINUOUS
 10
171.3999999571
 20
231.0589430113
 11
171.3535911188
 21
231.3553316408
  0
LINE
  5
38B
100
AcDbEntity
  8
RUNDUNGEN
100
AcDbLine
 62
9
  6
CONTINUOUS
 10
170.8
 20
230.9854284628
 11
170.8
 21
230.5337441404
  0
LINE
  5
38C
100
AcDbEntity
  8
RUNDUNGEN
100
AcDbLine
 62
7
  6
CONTINUOUS
 10
171.1
 20
231.0589430155
 11
171.1
 21
230.5337441404
  0
LINE
  5
38D
100
AcDbEntity
  8
FASEN
100
AcDbLine
 62
7
  6
CONTINUOUS
 10
171.4
 20
230.5337441404
 11
171.4
 21
231.0589430155
  0
LWPOLYLINE
  5
38E
100
AcDbEntity
  8
RUNDUNGEN
100
AcDbPolyline
 62
9
  6
CONTINUOUS
 90
3
 70
0
 10
172.2769488708
 20
249.3402542241
 10
172.2647829904
 20
249.2858051928
 10
172.25
 20
249.229707471
  0
LINE
  5
38F
100
AcDbEntity
  8
RUNDUNGEN
100
AcDbLine
 62
9
  6
CONTINUOUS
 10
160.5337441404
 20
240.8
 11
160.9854284628
 21
240.8
  0
LINE
  5
390
100
AcDbEntity
  8
RUNDUNGEN
100
AcDbLine
 62
9
  6
CONTINUOUS
 10
179.0145715372
 20
240.8
 11
179.4662558596
 21
240.8
  0
LINE
  5
391
100
AcDbEntity
  8
RUNDUNGEN
100
AcDbLine
 62
7
  6
CONTINUOUS
 10
160.5337441404
 20
241.1
 11
161.0589430155
 21
241.1
  0
LINE
  5
392
100
AcDbEntity
  8
RUNDUNGEN
100
AcDbLine
 62
7
  6
CONTINUOUS
 10
178.9410569845
 20
241.1
 11
179.4662558596
 21
241.1
  0
LINE
  5
393
100
AcDbEntity
  8
FASEN
100
AcDbLine
 62
7
  6
CONTINUOUS
 10
179.4662558596
 20
241.4
 11
178.9410569845
 21
241.4
  0
LINE
  5
394
100
AcDbEntity
  8
FASEN
100
AcDbLine
 62
7
  6
CONTINUOUS
 10
161.0589430155
 20
241.4
 11
160.5337441404
 21
241.4
  0
LINE
  5
395
100
AcDbEntity
  8
RUNDUNGEN
100
AcDbLine
 62
9
  6
CONTINUOUS
 10
172.25
 20
249.229707471
 11
172.25
 21
248.7658428003
  0
LINE
  5
396
100
AcDbEntity
  8
RUNDUNGEN
100
AcDbLine
 62
7
  6
CONTINUOUS
 10
172.55
 20
249.229707471
 11
172.55
 21
248.5895285086
  0
LINE
  5
397
100
AcDbEntity
  8
FASEN
100
AcDbLine
 62
7
  6
CONTINUOUS
 10
172.85
 20
248.5895285086
 11
172.85
 21
249.229707471
  0
LWPOLYLINE
  5
398
100
AcDbEntity
  8
RUNDUNGEN
100
AcDbPolyline
 62
9
  6
CONTINUOUS
 90
5
 70
0
 10
169.1747368421
 20
230.2348097448
 10
169.1761708876
 20
230.2404631174
 10
169.1766753735
 20
230.2577480377
 10
169.1791395022
 20
230.2856353774
 10
169.1859306797
 20
230.3692186673
  0
LWPOLYLINE
  5
399
100
AcDbEntity
  8
RUNDUNGEN
100
AcDbPolyline
 62
9
  6
CONTINUOUS
 90
5
 70
0
 10
179.7651902552
 20
239.1747368421
 10
179.7595368826
 20
239.1761708876
 10
179.7422519623
 20
239.1766753735
 10
179.7143646226
 20
239.1791395022
 10
179.6307813327
 20
239.1859306797
  0
LINE
  5
39A
100
AcDbEntity
  8
FASEN
100
AcDbLine
 62
7
  6
CONTINUOUS
 10
177.5265267958
 20
253.5499592026
 11
177.3958465589
 21
253.0499599109
  0
LINE
  5
39B
100
AcDbEntity
  8
FASEN
100
AcDbLine
 62
7
  6
CONTINUOUS
 10
162.0285103975
 20
226.7069434096
 11
162.3961863046
 21
227.0701114743
  0
LINE
  5
39C
100
AcDbEntity
  8
FASEN
100
AcDbLine
 62
7
  6
CONTINUOUS
 10
154.5021277124
 20
239.7431838061
 11
155.0004799193
 21
239.880011047
  0
LINE
  5
39D
100
AcDbEntity
  8
FASEN
100
AcDbLine
 62
7
  6
CONTINUOUS
 10
185.4978695025
 20
239.7430157934
 11
184.999518779
 21
239.879848437
  0
LINE
  5
39E
100
AcDbEntity
  8
FASEN
100
AcDbLine
 62
7
  6
CONTINUOUS
 10
162.0286545082
 20
253.2931430087
 11
162.3963264782
 21
252.929970958
  0
LINE
  5
39F
100
AcDbEntity
  8
FASEN
100
AcDbLine
 62
7
  6
CONTINUOUS
 10
177.5263799
 20
226.449959203
 11
177.3957050836
 21
226.9499599113
  0
LINE
  5
3A0
100
AcDbEntity
  8
FASEN
100
AcDbLine
 62
9
  6
CONTINUOUS
 10
178.9410569845
 20
241.4
 11
178.9410569845
 21
241.1
  0
LINE
  5
3A1
100
AcDbEntity
  8
FASEN
100
AcDbLine
 62
9
  6
CONTINUOUS
 10
178.9410569845
 20
238.6
 11
178.9410569845
 21
238.9
  0
LINE
  5
3A2
100
AcDbEntity
  8
FASEN
100
AcDbLine
 62
9
  6
CONTINUOUS
 10
179.4662558596
 20
241.4
 11
179.4662558596
 21
241.1
  0
LINE
  5
3A3
100
AcDbEntity
  8
RUNDUNGEN
100
AcDbLine
 62
9
  6
CONTINUOUS
 10
179.4662558596
 20
241.1
 11
179.4662558596
 21
240.8
  0
LINE
  5
3A4
100
AcDbEntity
  8
RUNDUNGEN
100
AcDbLine
 62
9
  6
CONTINUOUS
 10
179.4662558596
 20
239.2
 11
179.4662558596
 21
238.9
  0
LINE
  5
3A5
100
AcDbEntity
  8
FASEN
100
AcDbLine
 62
9
  6
CONTINUOUS
 10
179.4662558596
 20
238.6
 11
179.4662558596
 21
238.9
  0
LWPOLYLINE
  5
3A6
100
AcDbEntity
  8
RUNDUNGEN
100
AcDbPolyline
 62
9
  6
CONTINUOUS
 90
7
 70
0
 10
178.9782004812
 20
239.0311430764
 10
178.9852130652
 20
239.0592587655
 10
178.9918445799
 20
239.0877900913
 10
178.9980944578
 20
239.1160761151
 10
179.0039644016
 20
239.1441893887
 10
179.0094561136
 20
239.172311988
 10
179.0145690265
 20
239.2
  0
LWPOLYLINE
  5
3A7
100
AcDbEntity
  8
RUNDUNGEN
100
AcDbPolyline
 62
9
  6
CONTINUOUS
 90
5
 70
0
 10
178.9520556652
 20
238.9360724382
 10
178.9575086304
 20
238.9547476917
 10
178.9637667824
 20
238.9768528663
 10
178.9706433091
 20
239.0024441486
 10
178.9782004812
 20
239.0311430764
  0
LWPOLYLINE
  5
3A8
100
AcDbEntity
  8
RUNDUNGEN
100
AcDbPolyline
 62
9
  6
CONTINUOUS
 90
4
 70
0
 10
178.9410587913
 20
238.9
 10
178.941937684
 20
238.902493714
 10
178.9440634605
 20
238.9096714505
 10
178.9520556652
 20
238.9360724382
  0
LWPOLYLINE
  5
3A9
100
AcDbEntity
  8
RUNDUNGEN
100
AcDbPolyline
 62
9
  6
CONTINUOUS
 90
5
 70
0
 10
171.0382458427
 20
231.0404879635
 10
171.0641865058
 20
231.0480253668
 10
171.0835712166
 20
231.0538610953
 10
171.0957909651
 20
231.0574380167
 10
171.1
 20
231.0589418417
  0
LINE
  5
3AA
100
AcDbEntity
  8
FASEN
100
AcDbLine
 62
9
  6
CONTINUOUS
 10
172.85
 20
248.5895285086
 11
172.55
 21
248.5895285086
  0
LINE
  5
3AB
100
AcDbEntity
  8
FASEN
100
AcDbLine
 62
9
  6
CONTINUOUS
 10
167.15
 20
248.5895285086
 11
167.45
 21
248.5895285086
  0
LINE
  5
3AC
100
AcDbEntity
  8
FASEN
100
AcDbLine
 62
9
  6
CONTINUOUS
 10
172.85
 20
249.229707471
 11
172.55
 21
249.229707471
  0
LINE
  5
3AD
100
AcDbEntity
  8
FASEN
100
AcDbLine
 62
9
  6
CONTINUOUS
 10
167.15
 20
249.229707471
 11
167.45
 21
249.229707471
  0
LINE
  5
3AE
100
AcDbEntity
  8
RUNDUNGEN
100
AcDbLine
 62
9
  6
CONTINUOUS
 10
167.45
 20
249.229707471
 11
167.75
 21
249.229707471
  0
LINE
  5
3AF
100
AcDbEntity
  8
RUNDUNGEN
100
AcDbLine
 62
9
  6
CONTINUOUS
 10
172.25
 20
249.229707471
 11
172.55
 21
249.229707471
  0
LWPOLYLINE
  5
3B0
100
AcDbEntity
  8
RUNDUNGEN
100
AcDbPolyline
 62
9
  6
CONTINUOUS
 90
11
 70
0
 10
172.55
 20
248.5895285086
 10
172.5464686103
 20
248.5919809866
 10
172.5358300164
 20
248.5988908045
 10
172.5181166012
 20
248.6105072675
 10
172.4936803597
 20
248.6260824602
 10
172.4631832066
 20
248.6452379082
 10
172.4272899186
 20
248.6671145945
 10
172.3867477368
 20
248.6910494686
 10
172.342802932
 20
248.7160761564
 10
172.2968606962
 20
248.7408588431
 10
172.25
 20
248.7658428003
  0
LWPOLYLINE
  5
3B1
100
AcDbEntity
  8
RUNDUNGEN
100
AcDbPolyline
 62
9
  6
CONTINUOUS
 90
3
 70
0
 10
178.951301234
 20
241.066602604
 10
178.9423410903
 20
241.0962449037
 10
178.9410569845
 20
241.1
  0
LWPOLYLINE
  5
3B2
100
AcDbEntity
  8
RUNDUNGEN
100
AcDbPolyline
 62
9
  6
CONTINUOUS
 90
8
 70
0
 10
179.0145715372
 20
240.8
 10
179.0058160806
 20
240.8457348176
 10
178.9965991558
 20
240.8908008109
 10
178.9867029366
 20
240.9341451358
 10
178.976780902
 20
240.9744530114
 10
178.967259603
 20
241.0104911715
 10
178.9586019978
 20
241.0414597723
 10
178.951301234
 20
241.066602604
  0
LINE
  5
3B3
100
AcDbEntity
  8
FASEN
100
AcDbLine
 62
7
  6
CONTINUOUS
 10
177.6036735218
 20
227.070029042
 11
184.999518779
 21
239.879848437
  0
LINE
  5
3B4
100
AcDbEntity
  8
FASEN
100
AcDbLine
 62
7
  6
CONTINUOUS
 10
177.9713454918
 20
226.7068569913
 11
185.4978695025
 21
239.7430157934
  0
LINE
  5
3B5
100
AcDbEntity
  8
FASEN
100
AcDbLine
 62
7
  6
CONTINUOUS
 10
177.3958465589
 20
253.0499599109
 11
162.6042949164
 21
253.0500400887
  0
LINE
  5
3B6
100
AcDbEntity
  8
FASEN
100
AcDbLine
 62
7
  6
CONTINUOUS
 10
177.5265267958
 20
253.5499592026
 11
162.4736201
 21
253.550040797
  0
LINE
  5
3B7
100
AcDbEntity
  8
FASEN
100
AcDbLine
 62
7
  6
CONTINUOUS
 10
184.9995200807
 20
240.119988953
 11
177.6038136954
 21
252.9298885257
  0
LINE
  5
3B8
100
AcDbEntity
  8
FASEN
100
AcDbLine
 62
7
  6
CONTINUOUS
 10
185.4978722876
 20
240.2568161939
 11
177.9714896025
 21
253.2930565904
  0
LINE
  5
3B9
100
AcDbEntity
  8
FASEN
100
AcDbLine
 62
7
  6
CONTINUOUS
 10
41.3610702426
 20
122.5186132847
 11
41.3603896934
 21
122.7446571208
  0
LINE
  5
3BA
100
AcDbEntity
  8
FASEN
100
AcDbLine
 62
7
  6
CONTINUOUS
 10
41.3603896934
 20
122.7446571208
 11
41.3633987331
 21
123.7099740582
  0
LINE
  5
3BB
100
AcDbEntity
  8
FASEN
100
AcDbLine
 62
7
  6
CONTINUOUS
 10
51.9671747745
 20
94.7028518415
 11
52.1144866964
 21
94.5404865777
  0
LINE
  5
3BC
100
AcDbEntity
  8
FASEN
100
AcDbLine
 62
7
  6
CONTINUOUS
 10
51.8203749106
 20
94.866734885
 11
51.9671747745
 21
94.7028518415
  0
LWPOLYLINE
  5
3BD
100
AcDbEntity
  8
FASEN
100
AcDbPolyline
 62
7
  6
CONTINUOUS
 90
5
 70
0
 10
52.0075150053
 20
94.6038785359
 10
52.1637000842
 20
94.4271623858
 10
52.3206483711
 20
94.2519098165
 10
52.4783490817
 20
94.0781328553
 10
52.63679138
 20
93.9058434282
  0
LINE
  5
3BE
100
AcDbEntity
  8
FASEN
100
AcDbLine
 62
7
  6
CONTINUOUS
 10
52.63679138
 20
93.9058434282
 11
52.1144866964
 21
94.5404865777
  0
LINE
  5
3BF
100
AcDbEntity
  8
FASEN
100
AcDbLine
 62
7
  6
CONTINUOUS
 10
52.0075150053
 20
94.6038785359
 11
51.8203749106
 21
94.866734885
  0
LINE
  5
3C0
100
AcDbEntity
  8
FASEN
100
AcDbLine
 62
7
  6
CONTINUOUS
 10
41.3610702426
 20
122.5186132847
 11
51.8203749106
 21
94.866734885
  0
LWPOLYLINE
  5
3C1
100
AcDbEntity
  8
FASEN
100
AcDbPolyline
 62
7
  6
CONTINUOUS
 90
7
 70
0
 10
49.1522457698
 20
117.6080837604
 10
49.0661482873
 20
118.5543455225
 10
49.0144048693
 20
119.493405467
 10
48.9971429302
 20
120.4229472106
 10
49.0144048567
 20
121.3406811391
 10
49.0661482716
 20
122.2443466285
 10
49.1522457698
 20
123.131714447
  0
LWPOLYLINE
  5
3C2
100
AcDbEntity
  8
FASEN
100
AcDbPolyline
 62
7
  6
CONTINUOUS
 90
7
 70
0
 10
48.3084177185
 20
117.5227848623
 10
48.2196565565
 20
118.4989104476
 10
48.166399851
 20
119.4652367149
 10
48.1486475943
 20
120.4229355584
 10
48.1663998096
 20
121.3684912955
 10
48.2196565203
 20
122.2983882436
 10
48.3084177185
 20
123.2137982969
  0
LWPOLYLINE
  5
3C3
100
AcDbEntity
  8
FASEN
100
AcDbPolyline
 62
7
  6
CONTINUOUS
 90
9
 70
0
 10
50.8648205443
 20
116.103873374
 10
50.8431622314
 20
116.2015824342
 10
50.8104278133
 20
116.2969827003
 10
50.7675422886
 20
116.3873783818
 10
50.7157175029
 20
116.4702151066
 10
50.6564179043
 20
116.5431521008
 10
50.5913191622
 20
116.604128334
 10
50.522260816
 20
116.6514207589
 10
50.4511942947
 20
116.6836930013
  0
LINE
  5
3C4
100
AcDbEntity
  8
FASEN
100
AcDbLine
 62
7
  6
CONTINUOUS
 10
52.007311202
 20
144.569659397
 11
51.8201766752
 21
143.4674409482
  0
LWPOLYLINE
  5
3C5
100
AcDbEntity
  8
FASEN
100
AcDbPolyline
 62
7
  6
CONTINUOUS
 90
7
 70
0
 10
49.1522457698
 20
123.131714447
 10
49.1699751685
 20
123.2228542015
 10
49.2003625119
 20
123.3040023301
 10
49.2424674606
 20
123.372597025
 10
49.2949625203
 20
123.4264470707
 10
49.3561857799
 20
123.4638413153
 10
49.3776404062
 20
123.4722369284
  0
LWPOLYLINE
  5
3C6
100
AcDbEntity
  8
FASEN
100
AcDbPolyline
 62
7
  6
CONTINUOUS
 90
9
 70
0
 10
48.3084177185
 20
123.2137982969
 10
48.3449107827
 20
123.3985422052
 10
48.4046486017
 20
123.55836869
 10
48.4891145613
 20
123.6952110474
 10
48.5938585045
 20
123.8032693896
 10
48.7164594726
 20
123.8776322964
 10
48.8523132563
 20
123.9175676613
 10
48.9953322606
 20
123.9204100823
 10
49.1475456838
 20
123.8870480268
  0
LWPOLYLINE
  5
3C7
100
AcDbEntity
  8
FASEN
100
AcDbPolyline
 62
7
  6
CONTINUOUS
 90
12
 70
0
 10
50.8648205443
 20
123.4644546937
 10
51.1416255909
 20
124.716587061
 10
51.5029281591
 20
125.9040188667
 10
51.9461590934
 20
127.0182866159
 10
52.4681606434
 20
128.0514375516
 10
53.0652127058
 20
128.9961007992
 10
53.7330588022
 20
129.845537559
 10
54.4669364882
 20
130.5936892768
 10
55.2616115311
 20
131.2352211442
 10
56.1114154181
 20
131.765560292
 10
57.0102859654
 20
132.1809285114
 10
57.3022230404
 20
132.2873413095
  0
LWPOLYLINE
  5
3C8
100
AcDbEntity
  8
FASEN
100
AcDbPolyline
 62
7
  6
CONTINUOUS
 90
13
 70
0
 10
50.026930226
 20
123.5862807996
 10
50.3145747891
 20
124.8854051814
 10
50.6867894276
 20
126.1090059768
 10
51.1453491208
 20
127.2610377491
 10
51.6849289311
 20
128.3296368084
 10
52.302531248
 20
129.3062417193
 10
52.9929490702
 20
130.1849002805
 10
53.7520138984
 20
130.9582624979
 10
54.5736126162
 20
131.6219603139
 10
55.4525244713
 20
132.1700615223
 10
56.3819038718
 20
132.5999085752
 10
57.3520917447
 20
132.9062871539
 10
58.3663077809
 20
133.0909353646
  0
LINE
  5
3C9
100
AcDbEntity
  8
FASEN
100
AcDbLine
 62
7
  6
CONTINUOUS
 10
52.6365836379
 20
144.837254526
 11
52.1142866201
 21
143.5925098121
  0
LINE
  5
3CA
100
AcDbEntity
  8
FASEN
100
AcDbLine
 62
7
  6
CONTINUOUS
 10
52.007311202
 20
144.569659397
 11
41.3633987331
 21
123.7099740582
  0
LINE
  5
3CB
100
AcDbEntity
  8
FASEN
100
AcDbLine
 62
7
  6
CONTINUOUS
 10
51.8201766752
 20
143.4674409482
 11
41.3610684018
 21
122.969930456
  0
LINE
  5
3CC
100
AcDbEntity
  8
FASEN
100
AcDbLine
 62
7
  6
CONTINUOUS
 10
52.63679138
 20
93.9058434282
 11
73.9248161824
 21
86.6250634815
  0
LINE
  5
3CD
100
AcDbEntity
  8
FASEN
100
AcDbLine
 62
7
  6
CONTINUOUS
 10
52.1144866964
 20
94.5404865777
 11
73.0328996378
 21
87.3861186702
  0
LINE
  5
3CE
100
AcDbEntity
  8
FASEN
100
AcDbLine
 62
7
  6
CONTINUOUS
 10
74.5540886184
 20
86.8926586106
 11
73.3270095828
 21
87.5111875341
  0
LWPOLYLINE
  5
3CF
100
AcDbEntity
  8
FASEN
100
AcDbPolyline
 62
7
  6
CONTINUOUS
 90
9
 70
0
 10
60.9196261736
 20
97.9454242837
 10
60.8464817228
 20
97.9940022189
 10
60.7775981215
 20
98.0579443304
 10
60.7151451087
 20
98.1352588819
 10
60.6611131981
 20
98.2235009359
 10
60.6172177287
 20
98.3198752552
 10
60.5848460376
 20
98.4213290131
 10
60.565016236
 20
98.5246399591
 10
60.5583388026
 20
98.6265613478
  0
LWPOLYLINE
  5
3D0
100
AcDbEntity
  8
FASEN
100
AcDbPolyline
 62
7
  6
CONTINUOUS
 90
9
 70
0
 10
60.4323854072
 20
97.2642872196
 10
60.2839758915
 20
97.3635428471
 10
60.1483340155
 20
97.4893222448
 10
60.0236232258
 20
97.6442248609
 10
59.9153531826
 20
97.8204523511
 10
59.8278427395
 20
98.0133103055
 10
59.7628277632
 20
98.216086369
 10
59.723880674
 20
98.4194687383
 10
59.7098106652
 20
98.6265613478
  0
LWPOLYLINE
  5
3D1
100
AcDbEntity
  8
FASEN
100
AcDbPolyline
 62
7
  6
CONTINUOUS
 90
15
 70
0
 10
59.7098106652
 20
99.7951983729
 10
58.7115236153
 20
100.4963667003
 10
57.7441683048
 20
101.288560236
 10
56.8047905629
 20
102.1747553399
 10
55.9022529024
 20
103.1460229328
 10
55.0427386544
 20
104.1969182704
 10
54.2313311935
 20
105.3199647074
 10
53.4737320579
 20
106.5086126047
 10
52.7742700871
 20
107.7546361997
 10
52.1380209107
 20
109.0505468487
 10
51.5684456978
 20
110.3875835552
 10
51.0698623541
 20
111.7575135495
 10
50.6447762999
 20
113.1512635074
 10
50.2976253474
 20
114.5555386503
 10
50.026930226
 20
115.9747705713
  0
LINE
  5
3D2
100
AcDbEntity
  8
FASEN
100
AcDbLine
 62
7
  6
CONTINUOUS
 10
73.9248161824
 20
86.6250634815
 11
73.0328996378
 21
87.3861186702
  0
LWPOLYLINE
  5
3D3
100
AcDbEntity
  8
FASEN
100
AcDbPolyline
 62
7
  6
CONTINUOUS
 90
9
 70
0
 10
60.5583388026
 20
99.7951983729
 10
60.552344443
 20
99.8916907157
 10
60.534530751
 20
99.989556792
 10
60.5054011002
 20
100.0860311333
 10
60.465778627
 20
100.1783875983
 10
60.4167829705
 20
100.2640164078
 10
60.3597986345
 20
100.3404978897
 10
60.2964358642
 20
100.4056708547
 10
60.2284851448
 20
100.4576936657
  0
LINE
  5
3D4
100
AcDbEntity
  8
FASEN
100
AcDbLine
 62
7
  6
CONTINUOUS
 10
58.3663077809
 20
133.0909353646
 11
58.3663077809
 21
134.4095411887
  0
LINE
  5
3D5
100
AcDbEntity
  8
FASEN
100
AcDbLine
 62
7
  6
CONTINUOUS
 10
59.2148359183
 20
133.0909353646
 11
59.2148359183
 21
134.4095411887
  0
LWPOLYLINE
  5
3D6
100
AcDbEntity
  8
FASEN
100
AcDbPolyline
 62
7
  6
CONTINUOUS
 90
8
 70
0
 10
59.2148359183
 20
134.4095411887
 10
59.2205971956
 20
134.5001713427
 10
59.2377325999
 20
134.5844275867
 10
59.2657902405
 20
134.6600162878
 10
59.304012152
 20
134.7248585834
 10
59.3513602645
 20
134.7771777228
 10
59.4065365987
 20
134.8155371407
 10
59.4449306408
 20
134.8321475201
  0
LWPOLYLINE
  5
3D7
100
AcDbEntity
  8
FASEN
100
AcDbPolyline
 62
7
  6
CONTINUOUS
 90
9
 70
0
 10
58.3663077809
 20
134.4095411887
 10
58.3783579947
 20
134.5930393444
 10
58.412100489
 20
134.7593116672
 10
58.4684277638
 20
134.9102711163
 10
58.5446623189
 20
135.0401788134
 10
58.6395228881
 20
135.1445257398
 10
58.749713269
 20
135.2215352759
 10
58.8710447591
 20
135.2675178429
 10
59.0049135927
 20
135.2837033005
  0
LWPOLYLINE
  5
3D8
100
AcDbEntity
  8
FASEN
100
AcDbPolyline
 62
7
  6
CONTINUOUS
 90
15
 70
0
 10
60.2284851448
 20
100.4576936657
 10
59.2660945505
 20
101.1332137908
 10
58.3276402779
 20
101.9018272539
 10
57.4191460435
 20
102.7586069037
 10
56.5464501724
 20
103.6980527349
 10
55.7151593444
 20
104.7141338368
 10
54.9306143062
 20
105.8003257012
 10
54.1978551956
 20
106.949652476
 10
53.5215889396
 20
108.1547321046
 10
52.9061589945
 20
109.4078238153
 10
52.3555173728
 20
110.7008779476
 10
51.873199101
 20
112.025587961
 10
51.4622993101
 20
113.3734444521
 10
51.1254540278
 20
114.7357872313
 10
50.8648205443
 20
116.103873374
  0
LINE
  5
3D9
100
AcDbEntity
  8
FASEN
100
AcDbLine
 62
7
  6
CONTINUOUS
 10
59.7098106652
 20
98.6265613478
 11
59.7098106652
 21
99.7951983729
  0
LINE
  5
3DA
100
AcDbEntity
  8
FASEN
100
AcDbLine
 62
7
  6
CONTINUOUS
 10
60.5583388026
 20
98.6265613478
 11
60.5583388026
 21
99.7951983729
  0
LINE
  5
3DB
100
AcDbEntity
  8
FASEN
100
AcDbLine
 62
9
  6
CONTINUOUS
 10
49.1475456838
 20
116.2755377984
 11
49.5718097525
 21
116.9844602285
  0
LWPOLYLINE
  5
3DC
100
AcDbEntity
  8
FASEN
100
AcDbPolyline
 62
7
  6
CONTINUOUS
 90
7
 70
0
 10
64.7148008507
 20
95.7996148758
 10
64.0031228151
 20
95.9250660793
 10
63.2896810083
 20
96.0983033251
 10
62.573593597
 20
96.3196282078
 10
61.8575060816
 20
96.5881359439
 10
61.1440639629
 20
96.9029217496
 10
60.4323854072
 20
97.2642872196
  0
LINE
  5
3DD
100
AcDbEntity
  8
FASEN
100
AcDbLine
 62
9
  6
CONTINUOUS
 10
49.1475456838
 20
123.8870480268
 11
49.5718097525
 21
123.4683393119
  0
LINE
  5
3DE
100
AcDbEntity
  8
FASEN
100
AcDbLine
 62
9
  6
CONTINUOUS
 10
50.026930226
 20
123.5862807996
 11
50.4511942947
 21
123.1675720847
  0
LINE
  5
3DF
100
AcDbEntity
  8
FASEN
100
AcDbLine
 62
7
  6
CONTINUOUS
 10
65.4373755928
 20
96.6676187704
 11
65.4373755928
 21
98.1264695106
  0
LINE
  5
3E0
100
AcDbEntity
  8
FASEN
100
AcDbLine
 62
7
  6
CONTINUOUS
 10
66.780878477
 20
131.5315885131
 11
66.780878477
 21
130.2129826891
  0
LWPOLYLINE
  5
3E1
100
AcDbEntity
  8
FASEN
100
AcDbPolyline
 62
7
  6
CONTINUOUS
 90
5
 70
0
 10
65.4373755928
 20
96.9578324856
 10
65.4306992924
 20
96.8604867289
 10
65.4108721694
 20
96.7707445135
 10
65.3785034432
 20
96.6914348936
 10
65.3346106214
 20
96.6250852213
  0
LINE
  5
3E2
100
AcDbEntity
  8
FASEN
100
AcDbLine
 62
7
  6
CONTINUOUS
 10
65.4373755928
 20
96.6676187704
 11
65.423312842
 21
96.4701769371
  0
LINE
  5
3E3
100
AcDbEntity
  8
FASEN
100
AcDbLine
 62
9
  6
CONTINUOUS
 10
50.026930226
 20
115.9747705713
 11
50.4511942947
 21
116.6836930013
  0
LWPOLYLINE
  5
3E4
100
AcDbEntity
  8
FASEN
100
AcDbPolyline
 62
7
  6
CONTINUOUS
 90
7
 70
0
 10
65.0760882218
 20
96.5238305383
 10
64.3861967944
 20
96.6453701158
 10
63.6928830812
 20
96.8137341953
 10
62.9978573395
 20
97.0285071586
 10
62.302831566
 20
97.2891597972
 10
61.6095177578
 20
97.5950502571
 10
60.9196261736
 20
97.9454242837
  0
LWPOLYLINE
  5
3E5
100
AcDbEntity
  8
FASEN
100
AcDbPolyline
 62
7
  6
CONTINUOUS
 90
9
 70
0
 10
49.1475456838
 20
116.2755377984
 10
48.9953539366
 20
116.3462787974
 10
48.852344296
 20
116.4469431143
 10
48.716482892
 20
116.579812013
 10
48.593871335
 20
116.7380417016
 10
48.4891311572
 20
116.9177279604
 10
48.4046687239
 20
117.1123333364
 10
48.3449242705
 20
117.313039113
 10
48.3084177185
 20
117.5227848623
  0
LWPOLYLINE
  5
3E6
100
AcDbEntity
  8
FASEN
100
AcDbPolyline
 62
7
  6
CONTINUOUS
 90
8
 70
0
 10
65.423312842
 20
96.4701769371
 10
65.3843700136
 20
96.2934469323
 10
65.3193539339
 20
96.1351339824
 10
65.2318441237
 20
96.0021224083
 10
65.1235890344
 20
95.8999558788
 10
64.9988887001
 20
95.8303615772
 10
64.8632363287
 20
95.7973614603
 10
64.7148008507
 20
95.7996148758
  0
LWPOLYLINE
  5
3E7
100
AcDbEntity
  8
FASEN
100
AcDbPolyline
 62
7
  6
CONTINUOUS
 90
5
 70
0
 10
52.1142866201
 20
143.5925098121
 10
52.0404423291
 20
143.5618900519
 10
51.9668092412
 20
143.5308386546
 10
51.8933873566
 20
143.49935562
 10
51.8201766752
 20
143.4674409482
  0
LWPOLYLINE
  5
3E8
100
AcDbEntity
  8
FASEN
100
AcDbPolyline
 62
7
  6
CONTINUOUS
 90
5
 70
0
 10
52.6365836379
 20
144.837254526
 10
52.4781417991
 20
144.7733431949
 10
52.3204419013
 20
144.7074371892
 10
52.1634947758
 20
144.6395410355
 10
52.007311202
 20
144.569659397
  0
LINE
  5
3E9
100
AcDbEntity
  8
FASEN
100
AcDbLine
 62
7
  6
CONTINUOUS
 10
52.6365836379
 20
144.837254526
 11
136.075183818
 21
173.3749365185
  0
LINE
  5
3EA
100
AcDbEntity
  8
FASEN
100
AcDbLine
 62
9
  6
CONTINUOUS
 10
59.7098106652
 20
98.6265613478
 11
60.5583388026
 21
98.6265613478
  0
LINE
  5
3EB
100
AcDbEntity
  8
FASEN
100
AcDbLine
 62
9
  6
CONTINUOUS
 10
59.7098106652
 20
99.7951983729
 11
60.5583388026
 21
99.7951983729
  0
LINE
  5
3EC
100
AcDbEntity
  8
FASEN
100
AcDbLine
 62
7
  6
CONTINUOUS
 10
75.9996405741
 20
107.0915804554
 11
75.1202560319
 21
107.3923476826
  0
LINE
  5
3ED
100
AcDbEntity
  8
FASEN
100
AcDbLine
 62
7
  6
CONTINUOUS
 10
50.026930226
 20
115.9747705713
 11
49.1475456838
 21
116.2755377984
  0
LINE
  5
3EE
100
AcDbEntity
  8
FASEN
100
AcDbLine
 62
7
  6
CONTINUOUS
 10
76.4239046429
 20
107.8005028855
 11
75.5445201006
 21
108.1012701127
  0
LINE
  5
3EF
100
AcDbEntity
  8
FASEN
100
AcDbLine
 62
7
  6
CONTINUOUS
 10
50.4511942947
 20
116.6836930013
 11
49.5718097525
 21
116.9844602285
  0
LWPOLYLINE
  5
3F0
100
AcDbEntity
  8
FASEN
100
AcDbPolyline
 62
7
  6
CONTINUOUS
 90
9
 70
0
 10
49.5718097525
 20
116.9844602285
 10
49.4968400535
 20
117.0189736852
 10
49.4242073506
 20
117.0701643129
 10
49.3561972636
 20
117.1364407759
 10
49.2949734644
 20
117.2157108628
 10
49.2424775545
 20
117.3054659418
 10
49.2003698758
 20
117.402861838
 10
49.1699782564
 20
117.5048032131
 10
49.1522457698
 20
117.6080837604
  0
LINE
  5
3F1
100
AcDbEntity
  8
FASEN
100
AcDbLine
 62
9
  6
CONTINUOUS
 10
75.1202560319
 20
115.003857911
 11
75.5445201006
 21
114.5851491961
  0
LINE
  5
3F2
100
AcDbEntity
  8
FASEN
100
AcDbLine
 62
9
  6
CONTINUOUS
 10
75.9996405741
 20
114.7030906838
 11
76.4239046429
 21
114.2843819689
  0
LWPOLYLINE
  5
3F3
100
AcDbEntity
  8
FASEN
100
AcDbPolyline
 62
7
  6
CONTINUOUS
 90
5
 70
0
 10
75.2979837153
 20
114.7744306435
 10
75.339296491
 20
114.7256900966
 10
75.4043952332
 20
114.6647138635
 10
75.4734535793
 20
114.6174214385
 10
75.5445201006
 20
114.5851491961
  0
LINE
  5
3F4
100
AcDbEntity
  8
FASEN
100
AcDbLine
 62
7
  6
CONTINUOUS
 10
75.1202560319
 20
115.003857911
 11
75.2979837153
 21
114.7744306435
  0
LWPOLYLINE
  5
3F5
100
AcDbEntity
  8
FASEN
100
AcDbPolyline
 62
7
  6
CONTINUOUS
 90
6
 70
0
 10
76.4926053735
 20
114.324362417
 10
76.5533149229
 20
114.2405867806
 10
76.6580551007
 20
114.0609005219
 10
76.7425175341
 20
113.8662951458
 10
76.8022619875
 20
113.6655893693
 10
76.8387685395
 20
113.45584362
  0
LWPOLYLINE
  5
3F6
100
AcDbEntity
  8
FASEN
100
AcDbPolyline
 62
7
  6
CONTINUOUS
 90
4
 70
0
 10
76.8387685395
 20
113.45584362
 10
76.9275297015
 20
112.4797180347
 10
76.9807864069
 20
111.5133917673
 10
76.9985714652
 20
110.5556810844
  0
LINE
  5
3F7
100
AcDbEntity
  8
FASEN
100
AcDbLine
 62
9
  6
CONTINUOUS
 10
76.8387685445
 20
107.7648302288
 11
76.843468628
 21
108.1371277722
  0
LWPOLYLINE
  5
3F8
100
AcDbEntity
  8
FASEN
100
AcDbPolyline
 62
7
  6
CONTINUOUS
 90
4
 70
0
 10
76.9931146798
 20
110.5557837227
 10
76.9813095386
 20
109.9281610583
 10
76.9295661237
 20
109.0244955689
 10
76.8434686255
 20
108.1371277505
  0
LWPOLYLINE
  5
3F9
100
AcDbEntity
  8
FASEN
100
AcDbPolyline
 62
7
  6
CONTINUOUS
 90
3
 70
0
 10
76.9985714652
 20
110.5556810844
 10
76.9807864483
 20
109.6101371867
 10
76.9275297377
 20
108.6802402386
  0
LINE
  5
3FA
100
AcDbEntity
  8
FASEN
100
AcDbLine
 62
9
  6
CONTINUOUS
 10
75.120256055
 20
107.3923478103
 11
75.1308938734
 21
107.8043876272
  0
LINE
  5
3FB
100
AcDbEntity
  8
FASEN
100
AcDbLine
 62
7
  6
CONTINUOUS
 10
76.9275297377
 20
108.6802402386
 11
76.8387685395
 21
107.7648301853
  0
LINE
  5
3FC
100
AcDbEntity
  8
FASEN
100
AcDbLine
 62
7
  6
CONTINUOUS
 10
73.9246084403
 20
137.5564745793
 11
73.0326995615
 21
136.4381419046
  0
LWPOLYLINE
  5
3FD
100
AcDbEntity
  8
FASEN
100
AcDbPolyline
 62
7
  6
CONTINUOUS
 90
6
 70
0
 10
59.0084310566
 20
132.6777253978
 10
59.078378632
 20
132.7233581588
 10
59.1361482719
 20
132.7907677649
 10
59.1792506007
 20
132.8770761808
 10
59.2058472858
 20
132.9785665005
 10
59.2148359183
 20
133.0909353646
  0
LWPOLYLINE
  5
3FE
100
AcDbEntity
  8
FASEN
100
AcDbPolyline
 62
7
  6
CONTINUOUS
 90
3
 70
0
 10
65.7672292506
 20
98.5633316128
 10
65.6992785313
 20
98.5577898314
 10
65.6674703152
 20
98.549075842
  0
LINE
  5
3FF
100
AcDbEntity
  8
FASEN
100
AcDbLine
 62
7
  6
CONTINUOUS
 10
85.1980010872
 20
107.7523439494
 11
83.7861178562
 21
108.0086980263
  0
LWPOLYLINE
  5
400
100
AcDbEntity
  8
FASEN
100
AcDbPolyline
 62
7
  6
CONTINUOUS
 90
4
 70
0
 10
75.5445201006
 20
108.1012701127
 10
75.4734535795
 20
108.1176102338
 10
75.4043952336
 20
108.1175564998
 10
75.3503507543
 20
108.1051677292
  0
LWPOLYLINE
  5
401
100
AcDbEntity
  8
FASEN
100
AcDbPolyline
 62
7
  6
CONTINUOUS
 90
4
 70
0
 10
76.4239046429
 20
114.2843819689
 10
76.4988743418
 20
114.2498685122
 10
76.5715070448
 20
114.1986778845
 10
76.5859457068
 20
114.1846072739
  0
LWPOLYLINE
  5
402
100
AcDbEntity
  8
FASEN
100
AcDbPolyline
 62
7
  6
CONTINUOUS
 90
5
 70
0
 10
75.9996405741
 20
114.7030906838
 10
76.1518323214
 20
114.6323496848
 10
76.2948419619
 20
114.5316853679
 10
76.4307033659
 20
114.3988164692
 10
76.4926053735
 20
114.324362417
  0
LINE
  5
403
100
AcDbEntity
  8
FASEN
100
AcDbLine
 62
9
  6
CONTINUOUS
 10
58.3663077809
 20
133.0909353646
 11
58.9292735463
 21
132.6557689965
  0
LINE
  5
404
100
AcDbEntity
  8
FASEN
100
AcDbLine
 62
9
  6
CONTINUOUS
 10
59.0049135839
 20
135.2837033004
 11
59.5341388157
 21
134.8466222445
  0
LINE
  5
405
100
AcDbEntity
  8
FASEN
100
AcDbLine
 62
9
  6
CONTINUOUS
 10
66.1422715672
 20
132.8425834528
 11
66.4615750221
 21
132.4772996981
  0
LINE
  5
406
100
AcDbEntity
  8
FASEN
100
AcDbLine
 62
9
  6
CONTINUOUS
 10
66.7808783248
 20
130.2129828107
 11
67.0664406837
 21
129.8726940011
  0
LWPOLYLINE
  5
407
100
AcDbEntity
  8
FASEN
100
AcDbPolyline
 62
7
  6
CONTINUOUS
 90
3
 70
0
 10
66.9586061604
 20
129.9835554217
 10
66.9872833073
 20
129.9487972325
 10
67.066440831
 20
129.8726938836
  0
LINE
  5
408
100
AcDbEntity
  8
FASEN
100
AcDbLine
 62
7
  6
CONTINUOUS
 10
66.780878477
 20
130.2129826891
 11
66.9586061604
 21
129.9835554217
  0
LWPOLYLINE
  5
409
100
AcDbEntity
  8
FASEN
100
AcDbPolyline
 62
7
  6
CONTINUOUS
 90
10
 70
0
 10
70.0517627049
 20
126.8500294769
 10
70.5735769624
 20
126.1496467129
 10
71.3951756793
 20
124.9239416839
 10
72.1542401626
 20
123.6313483468
 10
72.8446577117
 20
122.2804158525
 10
73.4622595865
 20
120.8813462897
 10
74.0018385382
 20
119.4436545452
 10
74.4603973918
 20
117.9779513749
 10
74.8326116075
 20
116.4997419616
 10
75.1202560319
 20
115.003857911
  0
LWPOLYLINE
  5
40A
100
AcDbEntity
  8
FASEN
100
AcDbPolyline
 62
7
  6
CONTINUOUS
 90
7
 70
0
 10
66.4253951144
 20
132.5708281992
 10
66.5075240771
 20
132.4536802713
 10
66.6024052974
 20
132.2844713811
 10
66.6786763855
 20
132.1023996306
 10
66.7350435868
 20
131.9128610775
 10
66.7688114568
 20
131.7234325779
 10
66.780878477
 20
131.5315885131
  0
LINE
  5
40B
100
AcDbEntity
  8
FASEN
100
AcDbLine
 62
7
  6
CONTINUOUS
 10
83.7861160153
 20
108.4600151975
 11
73.3268113473
 21
136.1118935972
  0
LINE
  5
40C
100
AcDbEntity
  8
FASEN
100
AcDbLine
 62
7
  6
CONTINUOUS
 10
85.1979971485
 20
108.7179741861
 11
74.553884815
 21
136.8584394716
  0
LWPOLYLINE
  5
40D
100
AcDbEntity
  8
FASEN
100
AcDbPolyline
 62
7
  6
CONTINUOUS
 90
5
 70
0
 10
85.1979971485
 20
108.7179741861
 10
85.2002563775
 20
108.4758024603
 10
85.2010101266
 20
108.2341291193
 10
85.2002583455
 20
107.9929707614
 10
85.1980010872
 20
107.7523439494
  0
LINE
  5
40E
100
AcDbEntity
  8
FASEN
100
AcDbLine
 62
7
  6
CONTINUOUS
 10
83.7861160153
 20
108.4600151975
 11
83.7867965646
 21
108.2339945426
  0
LINE
  5
40F
100
AcDbEntity
  8
FASEN
100
AcDbLine
 62
7
  6
CONTINUOUS
 10
83.7867965646
 20
108.2339945426
 11
83.7861178562
 21
108.0086980263
  0
LWPOLYLINE
  5
410
100
AcDbEntity
  8
FASEN
100
AcDbPolyline
 62
7
  6
CONTINUOUS
 90
7
 70
0
 10
76.8434686255
 20
108.1371277505
 10
76.8257392269
 20
108.0459879959
 10
76.7953518834
 20
107.9648398673
 10
76.7532469347
 20
107.8962451724
 10
76.7007518751
 20
107.8423951267
 10
76.6395286154
 20
107.8050008821
 10
76.6180739891
 20
107.796605269
  0
LWPOLYLINE
  5
411
100
AcDbEntity
  8
FASEN
100
AcDbPolyline
 62
7
  6
CONTINUOUS
 90
9
 70
0
 10
76.8387685395
 20
107.7648301853
 10
76.8022754753
 20
107.5800862771
 10
76.7425376562
 20
107.4202597922
 10
76.6580716966
 20
107.2834174348
 10
76.5533277535
 20
107.1753590926
 10
76.4307267854
 20
107.1009961859
 10
76.2948730016
 20
107.0610608209
 10
76.1518539973
 20
107.0582183999
 10
75.9996405741
 20
107.0915804554
  0
LWPOLYLINE
  5
412
100
AcDbEntity
  8
FASEN
100
AcDbPolyline
 62
7
  6
CONTINUOUS
 90
12
 70
0
 10
75.1308938511
 20
107.8043875037
 10
74.8702599682
 20
106.6145836119
 10
74.533414138
 20
105.4826553426
 10
74.1225136804
 20
104.4158699226
 10
73.6401946944
 20
103.4210844556
 10
73.0895523961
 20
102.504691178
 10
72.4741218695
 20
101.6725784772
 10
71.7978551956
 20
100.9300926324
 10
71.0650958765
 20
100.2820032362
 10
70.2805508872
 20
99.7324725406
 10
69.4492603824
 20
99.2850286436
 10
68.693491355
 20
98.9815008879
  0
LWPOLYLINE
  5
413
100
AcDbEntity
  8
FASEN
100
AcDbPolyline
 62
7
  6
CONTINUOUS
 90
15
 70
0
 10
75.1202560319
 20
107.3923476826
 10
74.8495607229
 20
106.1582812663
 10
74.5024093262
 20
104.9914703662
 10
74.0773224717
 20
103.8884950822
 10
73.5787382703
 20
102.8596151152
 10
73.0091624447
 20
101.9121906473
 10
72.372912789
 20
101.0515003347
 10
71.6734504426
 20
100.2839373208
 10
70.915851092
 20
99.6135183263
 10
70.1044435532
 20
99.0455079449
 10
69.2449295782
 20
98.5825557007
 10
68.3423929407
 20
98.2286610179
 10
67.4030163924
 20
97.9850387891
 10
66.4356619443
 20
97.8545555525
 10
65.4373755928
 20
97.8362557955
  0
LINE
  5
414
100
AcDbEntity
  8
FASEN
100
AcDbLine
 62
9
  6
CONTINUOUS
 10
65.4373755928
 20
97.8362557955
 11
65.7672292544
 21
98.5633316126
  0
LINE
  5
415
100
AcDbEntity
  8
FASEN
100
AcDbLine
 62
9
  6
CONTINUOUS
 10
64.7148008559
 20
95.7996148752
 11
65.0760882268
 21
96.5238305377
  0
LINE
  5
416
100
AcDbEntity
  8
FASEN
100
AcDbLine
 62
7
  6
CONTINUOUS
 10
74.553884815
 20
136.8584394716
 11
73.3268113473
 21
136.1118935972
  0
LWPOLYLINE
  5
417
100
AcDbEntity
  8
FASEN
100
AcDbPolyline
 62
7
  6
CONTINUOUS
 90
3
 70
0
 10
65.2072808703
 20
96.5352261542
 10
65.1492417879
 20
96.5223757084
 10
65.0760882218
 20
96.5238305383
  0
LINE
  5
418
100
AcDbEntity
  8
FASEN
100
AcDbLine
 62
7
  6
CONTINUOUS
 10
49.5718097525
 20
123.4683393119
 11
50.4511942947
 21
123.1675720847
  0
LINE
  5
419
100
AcDbEntity
  8
FASEN
100
AcDbLine
 62
7
  6
CONTINUOUS
 10
75.5445201006
 20
114.5851491961
 11
76.4239046429
 21
114.2843819689
  0
LINE
  5
41A
100
AcDbEntity
  8
FASEN
100
AcDbLine
 62
7
  6
CONTINUOUS
 10
49.1475456838
 20
123.8870480268
 11
50.026930226
 21
123.5862807996
  0
LINE
  5
41B
100
AcDbEntity
  8
FASEN
100
AcDbLine
 62
7
  6
CONTINUOUS
 10
75.1202560319
 20
115.003857911
 11
75.9996405741
 21
114.7030906838
  0
LINE
  5
41C
100
AcDbEntity
  8
FASEN
100
AcDbLine
 62
7
  6
CONTINUOUS
 10
66.4615755711
 20
132.4772993355
 11
66.5209379507
 21
132.4297582911
  0
LWPOLYLINE
  5
41D
100
AcDbEntity
  8
FASEN
100
AcDbPolyline
 62
7
  6
CONTINUOUS
 90
4
 70
0
 10
66.1422726653
 20
132.8425827275
 10
66.2760560714
 20
132.7349167431
 10
66.3973393122
 20
132.6060095239
 10
66.4253951144
 20
132.5708281992
  0
LWPOLYLINE
  5
41E
100
AcDbEntity
  8
FASEN
100
AcDbPolyline
 62
7
  6
CONTINUOUS
 90
4
 70
0
 10
67.066440831
 20
129.8726938836
 10
68.0439070031
 20
129.0266671001
 10
68.9854306786
 20
128.0851861602
 10
69.8843019804
 20
127.0549530046
  0
LWPOLYLINE
  5
41F
100
AcDbEntity
  8
FASEN
100
AcDbPolyline
 62
7
  6
CONTINUOUS
 90
5
 70
0
 10
66.780878477
 20
130.2129826891
 10
67.7950950616
 20
129.3345693978
 10
68.7652836706
 20
128.3645423047
 10
69.6946641911
 20
127.2989606327
 10
70.0517627049
 20
126.8500294769
  0
LINE
  5
420
100
AcDbEntity
  8
FASEN
100
AcDbLine
 62
9
  6
CONTINUOUS
 10
60.4323854417
 20
97.2642872032
 11
60.9196261908
 21
97.9454242755
  0
LINE
  5
421
100
AcDbEntity
  8
FASEN
100
AcDbLine
 62
9
  6
CONTINUOUS
 10
59.7098107678
 20
99.7951983096
 11
60.2284852441
 21
100.4576936045
  0
LINE
  5
422
100
AcDbEntity
  8
FASEN
100
AcDbLine
 62
7
  6
CONTINUOUS
 10
58.9847411959
 20
132.6683290332
 11
59.0084310566
 21
132.6777253978
  0
LINE
  5
423
100
AcDbEntity
  8
FASEN
100
AcDbLine
 62
9
  6
CONTINUOUS
 10
59.2148359183
 20
134.4095411887
 11
60.3474960624
 21
134.7969337735
  0
LINE
  5
424
100
AcDbEntity
  8
FASEN
100
AcDbLine
 62
9
  6
CONTINUOUS
 10
62.7680418589
 20
134.3062033697
 11
59.2148359183
 21
133.0909353646
  0
LINE
  5
425
100
AcDbEntity
  8
RUNDUNGEN
100
AcDbLine
 62
7
  6
CONTINUOUS
 10
63.2675718272
 20
134.1331433796
 11
58.9847411959
 21
132.6683290332
  0
LINE
  5
426
100
AcDbEntity
  8
FASEN
100
AcDbLine
 62
7
  6
CONTINUOUS
 10
73.9246084403
 20
137.5564745793
 11
157.3632086203
 21
166.0941565718
  0
LINE
  5
427
100
AcDbEntity
  8
FASEN
100
AcDbLine
 62
7
  6
CONTINUOUS
 10
74.553884815
 20
136.8584394716
 11
157.992484995
 21
165.3961214641
  0
LWPOLYLINE
  5
428
100
AcDbEntity
  8
FASEN
100
AcDbPolyline
 62
7
  6
CONTINUOUS
 90
3
 70
0
 10
57.3022230404
 20
132.2873413095
 10
57.9518086472
 20
132.4783687659
 10
58.9292735644
 20
132.6557689984
  0
LWPOLYLINE
  5
429
100
AcDbEntity
  8
FASEN
100
AcDbPolyline
 62
7
  6
CONTINUOUS
 90
3
 70
0
 10
59.4449306408
 20
134.8321475201
 10
59.4680200205
 20
134.838891681
 10
59.5341388242
 20
134.8466222446
  0
LWPOLYLINE
  5
42A
100
AcDbEntity
  8
FASEN
100
AcDbPolyline
 62
7
  6
CONTINUOUS
 90
4
 70
0
 10
76.6180739891
 20
107.796605269
 10
76.571517316
 20
107.785242533
 10
76.4988806523
 20
107.7837333952
 10
76.4239046429
 20
107.8005028855
  0
LINE
  5
42B
100
AcDbEntity
  8
FASEN
100
AcDbLine
 62
7
  6
CONTINUOUS
 10
85.1979971485
 20
108.7179741861
 11
83.7861160153
 21
108.4600151975
  0
LWPOLYLINE
  5
42C
100
AcDbEntity
  8
FASEN
100
AcDbPolyline
 62
7
  6
CONTINUOUS
 90
4
 70
0
 10
50.4511942947
 20
123.1675720847
 10
50.5222608159
 20
123.1512319636
 10
50.5913191618
 20
123.1512856976
 10
50.645363641
 20
123.1636744682
  0
LINE
  5
42D
100
AcDbEntity
  8
FASEN
100
AcDbLine
 62
7
  6
CONTINUOUS
 10
65.3205113674
 20
133.1881249142
 11
66.4615755711
 21
132.4772993355
  0
LINE
  5
42E
100
AcDbEntity
  8
FASEN
100
AcDbLine
 62
7
  6
CONTINUOUS
 10
73.1801666287
 20
136.2756045435
 11
73.0326995615
 21
136.4381419046
  0
LINE
  5
42F
100
AcDbEntity
  8
FASEN
100
AcDbLine
 62
7
  6
CONTINUOUS
 10
73.3268113473
 20
136.1118935972
 11
73.1801666287
 21
136.2756045435
  0
LWPOLYLINE
  5
430
100
AcDbEntity
  8
FASEN
100
AcDbPolyline
 62
7
  6
CONTINUOUS
 90
5
 70
0
 10
74.553884815
 20
136.8584394716
 10
74.3976992648
 20
137.0351561515
 10
74.2407508177
 20
137.2104088916
 10
74.0830502627
 20
137.3841856731
 10
73.9246084403
 20
137.5564745793
  0
LINE
  5
431
100
AcDbEntity
  8
FASEN
100
AcDbLine
 62
9
  6
CONTINUOUS
 10
75.1202560319
 20
107.3923476826
 11
75.5445201006
 21
108.1012701127
  0
LINE
  5
432
100
AcDbEntity
  8
FASEN
100
AcDbLine
 62
9
  6
CONTINUOUS
 10
75.9996405741
 20
107.0915804554
 11
76.4239046429
 21
107.8005028855
  0
LWPOLYLINE
  5
433
100
AcDbEntity
  8
FASEN
100
AcDbPolyline
 62
7
  6
CONTINUOUS
 90
7
 70
0
 10
50.645363641
 20
123.1636744682
 10
50.6564179037
 20
123.1677317683
 10
50.7157175022
 20
123.2001054478
 10
50.7675422881
 20
123.2474919313
 10
50.8104278131
 20
123.3085521864
 10
50.8431622314
 20
123.3815607919
 10
50.8648205443
 20
123.4644546937
  0
LINE
  5
434
100
AcDbEntity
  8
FASEN
100
AcDbLine
 62
9
  6
CONTINUOUS
 10
49.1522457698
 20
123.131714447
 11
49.8541403918
 21
123.3717765462
  0
LINE
  5
435
100
AcDbEntity
  8
FASEN
100
AcDbLine
 62
9
  6
CONTINUOUS
 10
67.7843889377
 20
129.2512879007
 11
50.8648205443
 21
123.4644546937
  0
LINE
  5
436
100
AcDbEntity
  8
RUNDUNGEN
100
AcDbLine
 62
7
  6
CONTINUOUS
 10
67.9713140538
 20
129.0894985117
 11
50.645363641
 21
123.1636744682
  0
LINE
  5
437
100
AcDbEntity
  8
FASEN
100
AcDbLine
 62
9
  6
CONTINUOUS
 10
48.3084177155
 20
123.2137982541
 11
49.1522457683
 21
123.1317144256
  0
LINE
  5
438
100
AcDbEntity
  8
FASEN
100
AcDbLine
 62
9
  6
CONTINUOUS
 10
50.0269301937
 20
123.5862806009
 11
50.864820513
 21
123.4644545016
  0
LINE
  5
439
100
AcDbEntity
  8
FASEN
100
AcDbLine
 62
7
  6
CONTINUOUS
 10
73.3270095828
 20
87.5111875341
 11
83.7861178562
 21
108.0086980263
  0
LINE
  5
43A
100
AcDbEntity
  8
FASEN
100
AcDbLine
 62
7
  6
CONTINUOUS
 10
74.5540886184
 20
86.8926586106
 11
85.1980010872
 21
107.7523439494
  0
LINE
  5
43B
100
AcDbEntity
  8
FASEN
100
AcDbLine
 62
9
  6
CONTINUOUS
 10
49.1522457698
 20
117.6080837604
 11
71.236128663
 21
125.1612165527
  0
LINE
  5
43C
100
AcDbEntity
  8
FASEN
100
AcDbLine
 62
9
  6
CONTINUOUS
 10
49.5718097525
 20
116.9844602285
 11
71.6276816268
 21
124.5280126881
  0
LINE
  5
43D
100
AcDbEntity
  8
FASEN
100
AcDbLine
 62
9
  6
CONTINUOUS
 10
71.9218453211
 20
124.0270881427
 11
50.4511942947
 21
116.6836930013
  0
LINE
  5
43E
100
AcDbEntity
  8
FASEN
100
AcDbLine
 62
9
  6
CONTINUOUS
 10
50.026930226
 20
115.9747705713
 11
50.8648205452
 21
116.1038733686
  0
LINE
  5
43F
100
AcDbEntity
  8
FASEN
100
AcDbLine
 62
9
  6
CONTINUOUS
 10
48.3084177194
 20
117.5227848553
 11
49.1522457707
 21
117.6080837536
  0
LWPOLYLINE
  5
440
100
AcDbEntity
  8
FASEN
100
AcDbPolyline
 62
7
  6
CONTINUOUS
 90
4
 70
0
 10
65.3346106214
 20
96.6250852213
 10
65.2805817156
 20
96.5738010133
 10
65.218129616
 20
96.5392028983
 10
65.2072808703
 20
96.5352261542
  0
LINE
  5
441
100
AcDbEntity
  8
FASEN
100
AcDbLine
 62
9
  6
CONTINUOUS
 10
72.2612848548
 20
123.4218951642
 11
50.8648205443
 21
116.103873374
  0
LINE
  5
442
100
AcDbEntity
  8
FASEN
100
AcDbLine
 62
7
  6
CONTINUOUS
 10
73.0326995615
 20
136.4381419046
 11
52.1142866201
 21
143.5925098121
  0
LINE
  5
443
100
AcDbEntity
  8
FASEN
100
AcDbLine
 62
7
  6
CONTINUOUS
 10
73.9246084403
 20
137.5564745793
 11
52.6365836379
 21
144.837254526
  0
LINE
  5
444
100
AcDbEntity
  8
FASEN
100
AcDbLine
 62
9
  6
CONTINUOUS
 10
58.3663077809
 20
133.0909353646
 11
59.2148359183
 21
133.0909353646
  0
LINE
  5
445
100
AcDbEntity
  8
FASEN
100
AcDbLine
 62
9
  6
CONTINUOUS
 10
58.3663077809
 20
134.4095411887
 11
59.2148359183
 21
134.4095411887
  0
LWPOLYLINE
  5
446
100
AcDbEntity
  8
FASEN
100
AcDbPolyline
 62
7
  6
CONTINUOUS
 90
6
 70
0
 10
59.5341388242
 20
134.8466222446
 10
60.6752026041
 20
134.7769139885
 10
61.8324419417
 20
134.5743596669
 10
62.9978568109
 20
134.2403351226
 10
64.1632717684
 20
133.7771689916
 10
65.3205113674
 20
133.1881249142
  0
LWPOLYLINE
  5
447
100
AcDbEntity
  8
FASEN
100
AcDbPolyline
 62
7
  6
CONTINUOUS
 90
7
 70
0
 10
59.0049135927
 20
135.2837033005
 10
60.1846977668
 20
135.2110514682
 10
61.3728608576
 20
135.0031906655
 10
62.5735922224
 20
134.6586880811
 10
63.7743237886
 20
134.1818421485
 10
64.9624874837
 20
133.576951301
 10
66.1422726653
 20
132.8425827275
  0
LWPOLYLINE
  5
448
100
AcDbEntity
  8
FASEN
100
AcDbPolyline
 62
7
  6
CONTINUOUS
 90
7
 70
0
 10
75.3503507543
 20
108.1051677292
 10
75.3392964916
 20
108.1011104292
 10
75.2799968932
 20
108.0687367496
 10
75.2281721072
 20
108.0213502661
 10
75.1852865823
 20
107.960290011
 10
75.152552164
 20
107.8872814055
 10
75.1308938511
 20
107.8043875037
  0
LWPOLYLINE
  5
449
100
AcDbEntity
  8
FASEN
100
AcDbPolyline
 62
7
  6
CONTINUOUS
 90
4
 70
0
 10
49.3776404062
 20
123.4722369284
 10
49.4241970794
 20
123.4835996644
 10
49.496833743
 20
123.4851088023
 10
49.5718097525
 20
123.4683393119
  0
LWPOLYLINE
  5
44A
100
AcDbEntity
  8
FASEN
100
AcDbPolyline
 62
7
  6
CONTINUOUS
 90
8
 70
0
 10
65.6674703152
 20
98.549075842
 10
65.6359157612
 20
98.5359595541
 10
65.5789314254
 20
98.498457654
 10
65.5299357689
 20
98.4463438478
 10
65.4903132955
 20
98.3810907506
 10
65.4611836445
 20
98.3045422638
 10
65.4433699524
 20
98.2188614702
 10
65.4373755928
 20
98.1264695106
  0
LINE
  5
44B
100
AcDbEntity
  8
RUNDUNGEN
100
AcDbLine
 62
7
  6
CONTINUOUS
 10
76.8915106877
 20
108.6322754705
 11
75.3503507543
 21
108.1051677292
  0
LINE
  5
44C
100
AcDbEntity
  8
FASEN
100
AcDbLine
 62
9
  6
CONTINUOUS
 10
76.8844549135
 20
108.5595548094
 11
75.5445201006
 21
108.1012701127
  0
LINE
  5
44D
100
AcDbEntity
  8
FASEN
100
AcDbLine
 62
9
  6
CONTINUOUS
 10
76.4239046429
 20
107.8005028855
 11
76.7663766065
 21
107.9176351956
  0
LINE
  5
44E
100
AcDbEntity
  8
FASEN
100
AcDbLine
 62
9
  6
CONTINUOUS
 10
74.474684572
 20
105.3301808357
 11
60.2284851448
 21
100.4576936657
  0
LINE
  5
44F
100
AcDbEntity
  8
FASEN
100
AcDbLine
 62
7
  6
CONTINUOUS
 10
85.1979971485
 20
108.7179741861
 11
168.6365973285
 21
137.2556561786
  0
LINE
  5
450
100
AcDbEntity
  8
FASEN
100
AcDbLine
 62
9
  6
CONTINUOUS
 10
74.1307425592
 20
104.437233851
 11
60.5583388026
 21
99.7951983729
  0
LINE
  5
451
100
AcDbEntity
  8
FASEN
100
AcDbLine
 62
7
  6
CONTINUOUS
 10
85.1980010872
 20
107.7523439494
 11
168.6366012672
 21
136.2900259418
  0
LINE
  5
452
100
AcDbEntity
  8
FASEN
100
AcDbLine
 62
9
  6
CONTINUOUS
 10
60.5583388026
 20
98.6265613478
 11
73.3979745757
 21
103.0179754152
  0
LINE
  5
453
100
AcDbEntity
  8
FASEN
100
AcDbLine
 62
9
  6
CONTINUOUS
 10
60.9196261736
 20
97.9454242837
 11
72.6965993543
 21
101.973386339
  0
LINE
  5
454
100
AcDbEntity
  8
FASEN
100
AcDbLine
 62
7
  6
CONTINUOUS
 10
58.9292735644
 20
132.6557689984
 11
58.9847411959
 21
132.6683290332
  0
LINE
  5
455
100
AcDbEntity
  8
RUNDUNGEN
100
AcDbLine
 62
7
  6
CONTINUOUS
 10
71.2737295902
 20
100.4665294428
 11
65.6674703152
 21
98.549075842
  0
LINE
  5
456
100
AcDbEntity
  8
FASEN
100
AcDbLine
 62
9
  6
CONTINUOUS
 10
71.237109604
 20
100.4341408752
 11
65.7672292506
 21
98.5633316128
  0
LINE
  5
457
100
AcDbEntity
  8
FASEN
100
AcDbLine
 62
9
  6
CONTINUOUS
 10
65.0760882218
 20
96.5238305383
 11
65.3134721956
 21
96.6050206391
  0
LWPOLYLINE
  5
458
100
AcDbEntity
  8
FASEN
100
AcDbPolyline
 62
7
  6
CONTINUOUS
 90
5
 70
0
 10
68.693491355
 20
98.9815008879
 10
68.5765651335
 20
98.9425426826
 10
67.6680717776
 20
98.7072102748
 10
66.7296185743
 20
98.5805377038
 10
65.7672292506
 20
98.5633316128
  0
LWPOLYLINE
  5
459
100
AcDbEntity
  8
FASEN
100
AcDbPolyline
 62
7
  6
CONTINUOUS
 90
5
 70
0
 10
73.0328996378
 20
87.3861186702
 10
73.1067407139
 20
87.4167370631
 10
73.1803727301
 20
87.4477880048
 10
73.2537956864
 20
87.4792714951
 10
73.3270095828
 20
87.5111875341
  0
LWPOLYLINE
  5
45A
100
AcDbEntity
  8
FASEN
100
AcDbPolyline
 62
7
  6
CONTINUOUS
 90
5
 70
0
 10
73.9248161824
 20
86.6250634815
 10
74.0832580176
 20
86.6889748112
 10
74.2409579142
 20
86.7548808163
 10
74.397905041
 20
86.8227769705
 10
74.5540886184
 20
86.8926586106
  0
LINE
  5
45B
100
AcDbEntity
  8
FASEN
100
AcDbLine
 62
7
  6
CONTINUOUS
 10
74.5540886184
 20
86.8926586106
 11
157.9926887984
 21
115.430340603
  0
LINE
  5
45C
100
AcDbEntity
  8
FASEN
100
AcDbLine
 62
7
  6
CONTINUOUS
 10
73.9248161824
 20
86.6250634815
 11
157.3634163624
 21
115.162745474
  0
LWPOLYLINE
  5
45D
100
AcDbEntity
  8
FASEN
100
AcDbPolyline
 62
7
  6
CONTINUOUS
 90
5
 70
0
 10
157.9926887984
 20
115.430340603
 10
157.8365052535
 20
115.3604589773
 10
157.6795581379
 20
115.2925628273
 10
157.5218582305
 20
115.2266568171
 10
157.3634163624
 20
115.162745474
  0
LINE
  5
45E
100
AcDbEntity
  8
FASEN
100
AcDbLine
 62
7
  6
CONTINUOUS
 10
136.075183818
 20
173.3749365185
 11
157.3632086203
 21
166.0941565718
  0
LINE
  5
45F
100
AcDbEntity
  8
FASEN
100
AcDbLine
 62
7
  6
CONTINUOUS
 10
168.6366012672
 20
136.2900259418
 11
157.9926887984
 21
115.430340603
  0
LINE
  5
460
100
AcDbEntity
  8
FASEN
100
AcDbLine
 62
7
  6
CONTINUOUS
 10
157.992484995
 20
165.3961214641
 11
168.6365973285
 21
137.2556561786
  0
LINE
  5
461
100
AcDbEntity
  8
FASEN
100
AcDbLine
 62
7
  6
CONTINUOUS
 10
158.1796250897
 20
165.133265115
 11
168.6389297577
 21
137.4813867153
  0
LWPOLYLINE
  5
462
100
AcDbEntity
  8
FASEN
100
AcDbPolyline
 62
7
  6
CONTINUOUS
 90
3
 70
0
 10
168.6396103069
 20
136.7716533541
 10
168.6388565509
 20
137.0134855088
 10
168.6365973285
 20
137.2556561786
  0
LWPOLYLINE
  5
463
100
AcDbEntity
  8
FASEN
100
AcDbPolyline
 62
7
  6
CONTINUOUS
 90
3
 70
0
 10
168.6366012672
 20
136.2900259418
 10
168.6388585321
 20
136.5306538055
 10
168.6396103069
 20
136.7716533541
  0
LWPOLYLINE
  5
464
100
AcDbEntity
  8
FASEN
100
AcDbPolyline
 62
7
  6
CONTINUOUS
 90
3
 70
0
 10
168.6365973285
 20
137.2556561786
 10
168.6373377762
 20
137.3122311519
 10
168.6389297577
 20
137.4813867153
  0
LWPOLYLINE
  5
465
100
AcDbEntity
  8
FASEN
100
AcDbPolyline
 62
7
  6
CONTINUOUS
 90
5
 70
0
 10
157.3632086203
 20
166.0941565718
 10
157.5216520889
 20
165.9218658636
 10
157.6793531822
 20
165.7480884609
 10
157.8363010752
 20
165.5728363113
 10
157.992484995
 20
165.3961214641
  0
LINE
  5
466
100
AcDbEntity
  8
FASEN
100
AcDbLine
 62
7
  6
CONTINUOUS
 10
157.992484995
 20
165.3961214641
 11
158.1796250897
 21
165.133265115
  0
ARC
  5
467
100
AcDbEntity
  8
FASEN
100
AcDbCircle
 62
7
  6
CONTINUOUS
 10
37.975
 20
231.1281695801
 40
0.6
100
AcDbArc
 50
0.0
 51
77.1424728757
  0
ARC
  5
468
100
AcDbEntity
  8
FASEN
100
AcDbCircle
 62
7
  6
CONTINUOUS
 10
31.1281695801
 20
237.975
 40
0.6
100
AcDbArc
 50
12.8575271243
 51
90.0
  0
ARC
  5
469
100
AcDbEntity
  8
FASEN
100
AcDbCircle
 62
7
  6
CONTINUOUS
 10
30.506350807
 20
238.575
 40
0.6
100
AcDbArc
 50
188.5363882452
 51
270.0
  0
ARC
  5
46A
100
AcDbEntity
  8
FASEN
100
AcDbCircle
 62
7
  6
CONTINUOUS
 10
38.575
 20
230.506350807
 40
0.6
100
AcDbArc
 50
180.0
 51
261.4636117548
  0
ARC
  5
46B
100
AcDbEntity
  8
FASEN
100
AcDbCircle
 62
7
  6
CONTINUOUS
 10
37.975
 20
231.1281695801
 40
0.3
100
AcDbArc
 50
0.0
 51
77.1424728757
  0
ARC
  5
46C
100
AcDbEntity
  8
FASEN
100
AcDbCircle
 62
7
  6
CONTINUOUS
 10
31.1281695801
 20
237.975
 40
0.3
100
AcDbArc
 50
12.8575271243
 51
90.0
  0
ARC
  5
46D
100
AcDbEntity
  8
FASEN
100
AcDbCircle
 62
7
  6
CONTINUOUS
 10
38.575
 20
230.506350807
 40
0.3
100
AcDbArc
 50
180.0
 51
261.4636117548
  0
ARC
  5
46E
100
AcDbEntity
  8
FASEN
100
AcDbCircle
 62
7
  6
CONTINUOUS
 10
30.506350807
 20
238.575
 40
0.3
100
AcDbArc
 50
188.5363882452
 51
270.0
  0
ARC
  5
46F
100
AcDbEntity
  8
FASEN
100
AcDbCircle
 62
7
  6
CONTINUOUS
 10
31.1281695801
 20
242.025
 40
0.6
100
AcDbArc
 50
270.0
 51
347.1424728757
  0
ARC
  5
470
100
AcDbEntity
  8
FASEN
100
AcDbCircle
 62
7
  6
CONTINUOUS
 10
37.025
 20
248.5999636627
 40
0.6
100
AcDbArc
 50
289.0821248036
 51
360.0
  0
ARC
  5
471
100
AcDbEntity
  8
FASEN
100
AcDbCircle
 62
7
  6
CONTINUOUS
 10
37.625
 20
249.301579167
 40
0.6
100
AcDbArc
 50
104.3234643596
 51
180.0
  0
ARC
  5
472
100
AcDbEntity
  8
FASEN
100
AcDbCircle
 62
7
  6
CONTINUOUS
 10
30.506350807
 20
241.425
 40
0.6
100
AcDbArc
 50
90.0
 51
171.4636117548
  0
ARC
  5
473
100
AcDbEntity
  8
FASEN
100
AcDbCircle
 62
7
  6
CONTINUOUS
 10
31.1281695801
 20
242.025
 40
0.3
100
AcDbArc
 50
270.0
 51
347.1424728757
  0
ARC
  5
474
100
AcDbEntity
  8
FASEN
100
AcDbCircle
 62
7
  6
CONTINUOUS
 10
37.025
 20
248.5999636627
 40
0.3
100
AcDbArc
 50
289.0821248036
 51
360.0
  0
ARC
  5
475
100
AcDbEntity
  8
FASEN
100
AcDbCircle
 62
7
  6
CONTINUOUS
 10
30.506350807
 20
241.425
 40
0.3
100
AcDbArc
 50
90.0
 51
171.4636117547
  0
ARC
  5
476
100
AcDbEntity
  8
FASEN
100
AcDbCircle
 62
7
  6
CONTINUOUS
 10
37.625
 20
249.301579167
 40
0.3
100
AcDbArc
 50
104.3234643596
 51
180.0
  0
ARC
  5
477
100
AcDbEntity
  8
FASEN
100
AcDbCircle
 62
7
  6
CONTINUOUS
 10
41.425
 20
230.506350807
 40
0.6
100
AcDbArc
 50
278.5363882452
 51
360.0
  0
ARC
  5
478
100
AcDbEntity
  8
FASEN
100
AcDbCircle
 62
7
  6
CONTINUOUS
 10
49.493649193
 20
238.575
 40
0.6
100
AcDbArc
 50
270.0
 51
351.4636117548
  0
ARC
  5
479
100
AcDbEntity
  8
FASEN
100
AcDbCircle
 62
7
  6
CONTINUOUS
 10
48.8718304199
 20
237.975
 40
0.6
100
AcDbArc
 50
90.0
 51
167.1424728757
  0
ARC
  5
47A
100
AcDbEntity
  8
FASEN
100
AcDbCircle
 62
7
  6
CONTINUOUS
 10
42.025
 20
231.1281695801
 40
0.6
100
AcDbArc
 50
102.8575271243
 51
180.0
  0
ARC
  5
47B
100
AcDbEntity
  8
FASEN
100
AcDbCircle
 62
7
  6
CONTINUOUS
 10
48.8718304199
 20
237.975
 40
0.3
100
AcDbArc
 50
90.0
 51
167.1424728757
  0
ARC
  5
47C
100
AcDbEntity
  8
FASEN
100
AcDbCircle
 62
7
  6
CONTINUOUS
 10
42.025
 20
231.1281695801
 40
0.3
100
AcDbArc
 50
102.8575271243
 51
180.0
  0
ARC
  5
47D
100
AcDbEntity
  8
FASEN
100
AcDbCircle
 62
7
  6
CONTINUOUS
 10
49.493649193
 20
238.575
 40
0.3
100
AcDbArc
 50
270.0
 51
351.4636117547
  0
ARC
  5
47E
100
AcDbEntity
  8
FASEN
100
AcDbCircle
 62
7
  6
CONTINUOUS
 10
41.425
 20
230.506350807
 40
0.3
100
AcDbArc
 50
278.5363882452
 51
360.0
  0
ARC
  5
47F
100
AcDbEntity
  8
FASEN
100
AcDbCircle
 62
7
  6
CONTINUOUS
 10
40.0
 20
240.0
 40
15.5
100
AcDbArc
 50
119.0506350097
 51
120.9499861349
  0
ARC
  5
480
100
AcDbEntity
  8
FASEN
100
AcDbCircle
 62
7
  6
CONTINUOUS
 10
40.0
 20
240.0
 40
15.5
100
AcDbArc
 50
179.0506350097
 51
180.9499861349
  0
ARC
  5
481
100
AcDbEntity
  8
FASEN
100
AcDbCircle
 62
7
  6
CONTINUOUS
 10
40.0
 20
240.0
 40
15.5
100
AcDbArc
 50
239.0506350097
 51
240.9499861349
  0
ARC
  5
482
100
AcDbEntity
  8
FASEN
100
AcDbCircle
 62
7
  6
CONTINUOUS
 10
40.0
 20
240.0
 40
15.5
100
AcDbArc
 50
299.0506350097
 51
300.9499861349
  0
ARC
  5
483
100
AcDbEntity
  8
FASEN
100
AcDbCircle
 62
7
  6
CONTINUOUS
 10
40.0
 20
240.0
 40
15.5
100
AcDbArc
 50
359.0506350097
 51
0.9499861349
  0
ARC
  5
484
100
AcDbEntity
  8
FASEN
100
AcDbCircle
 62
7
  6
CONTINUOUS
 10
40.0
 20
240.0
 40
15.5
100
AcDbArc
 50
59.0506350097
 51
60.9499861349
  0
ARC
  5
485
100
AcDbEntity
  8
FASEN
100
AcDbCircle
 62
7
  6
CONTINUOUS
 10
40.0
 20
240.0
 40
15.0
100
AcDbArc
 50
119.5416710724
 51
120.4589500722
  0
ARC
  5
486
100
AcDbEntity
  8
FASEN
100
AcDbCircle
 62
7
  6
CONTINUOUS
 10
40.0
 20
240.0
 40
15.0
100
AcDbArc
 50
59.5416710724
 51
60.4589500722
  0
ARC
  5
487
100
AcDbEntity
  8
FASEN
100
AcDbCircle
 62
7
  6
CONTINUOUS
 10
40.0
 20
240.0
 40
15.0
100
AcDbArc
 50
359.5416710724
 51
0.4589500722
  0
ARC
  5
488
100
AcDbEntity
  8
FASEN
100
AcDbCircle
 62
7
  6
CONTINUOUS
 10
40.0
 20
240.0
 40
15.0
100
AcDbArc
 50
299.5416710724
 51
300.4589500722
  0
ARC
  5
489
100
AcDbEntity
  8
FASEN
100
AcDbCircle
 62
7
  6
CONTINUOUS
 10
40.0
 20
240.0
 40
15.0
100
AcDbArc
 50
239.5416710724
 51
240.4589500722
  0
ARC
  5
48A
100
AcDbEntity
  8
FASEN
100
AcDbCircle
 62
7
  6
CONTINUOUS
 10
40.0
 20
240.0
 40
15.0
100
AcDbArc
 50
179.5416710724
 51
180.4589500722
  0
ARC
  5
48B
100
AcDbEntity
  8
FASEN
100
AcDbCircle
 62
7
  6
CONTINUOUS
 10
40.0
 20
240.0
 40
10.2
100
AcDbArc
 50
75.6765356404
 51
104.3234643596
  0
ARC
  5
48C
100
AcDbEntity
  8
FASEN
100
AcDbCircle
 62
7
  6
CONTINUOUS
 10
40.0
 20
240.0
 40
10.2
100
AcDbArc
 50
171.4636117548
 51
188.5363882452
  0
ARC
  5
48D
100
AcDbEntity
  8
FASEN
100
AcDbCircle
 62
7
  6
CONTINUOUS
 10
40.0
 20
240.0
 40
10.2
100
AcDbArc
 50
261.4636117548
 51
278.5363882452
  0
ARC
  5
48E
100
AcDbEntity
  8
FASEN
100
AcDbCircle
 62
7
  6
CONTINUOUS
 10
40.0
 20
240.0
 40
10.2
100
AcDbArc
 50
351.4636117548
 51
8.5363882452
  0
ARC
  5
48F
100
AcDbEntity
  8
FASEN
100
AcDbCircle
 62
7
  6
CONTINUOUS
 10
40.0
 20
240.0
 40
9.9
100
AcDbArc
 50
171.4636117548
 51
188.5363882452
  0
ARC
  5
490
100
AcDbEntity
  8
FASEN
100
AcDbCircle
 62
7
  6
CONTINUOUS
 10
40.0
 20
240.0
 40
9.9
100
AcDbArc
 50
261.4636117548
 51
278.5363882452
  0
ARC
  5
491
100
AcDbEntity
  8
FASEN
100
AcDbCircle
 62
7
  6
CONTINUOUS
 10
40.0
 20
240.0
 40
9.9
100
AcDbArc
 50
351.4636117548
 51
8.5363882452
  0
ARC
  5
492
100
AcDbEntity
  8
FASEN
100
AcDbCircle
 62
7
  6
CONTINUOUS
 10
40.0
 20
240.0
 40
9.9
100
AcDbArc
 50
75.6765356404
 51
104.3234643596
  0
ARC
  5
493
100
AcDbEntity
  8
FASEN
100
AcDbCircle
 62
7
  6
CONTINUOUS
 10
40.0
 20
240.0
 40
9.6
100
AcDbArc
 50
171.4636117548
 51
188.5363882452
  0
ARC
  5
494
100
AcDbEntity
  8
FASEN
100
AcDbCircle
 62
7
  6
CONTINUOUS
 10
40.0
 20
240.0
 40
9.6
100
AcDbArc
 50
75.6765356404
 51
104.3234643596
  0
ARC
  5
495
100
AcDbEntity
  8
FASEN
100
AcDbCircle
 62
7
  6
CONTINUOUS
 10
40.0
 20
240.0
 40
9.6
100
AcDbArc
 50
351.4636117548
 51
8.5363882452
  0
ARC
  5
496
100
AcDbEntity
  8
FASEN
100
AcDbCircle
 62
7
  6
CONTINUOUS
 10
40.0
 20
240.0
 40
9.6
100
AcDbArc
 50
261.4636117548
 51
278.5363882452
  0
ARC
  5
497
100
AcDbEntity
  8
FASEN
100
AcDbCircle
 62
7
  6
CONTINUOUS
 10
40.0
 20
240.0
 40
9.1
100
AcDbArc
 50
12.8575271243
 51
70.9178751964
  0
ARC
  5
498
100
AcDbEntity
  8
FASEN
100
AcDbCircle
 62
7
  6
CONTINUOUS
 10
40.0
 20
240.0
 40
9.1
100
AcDbArc
 50
109.0821248036
 51
167.1424728757
  0
ARC
  5
499
100
AcDbEntity
  8
FASEN
100
AcDbCircle
 62
7
  6
CONTINUOUS
 10
40.0
 20
240.0
 40
9.1
100
AcDbArc
 50
192.8575271243
 51
257.1424728757
  0
ARC
  5
49A
100
AcDbEntity
  8
FASEN
100
AcDbCircle
 62
7
  6
CONTINUOUS
 10
40.0
 20
240.0
 40
9.1
100
AcDbArc
 50
282.8575271243
 51
347.1424728757
  0
ARC
  5
49B
100
AcDbEntity
  8
FASEN
100
AcDbCircle
 62
7
  6
CONTINUOUS
 10
40.0
 20
240.0
 40
8.8
100
AcDbArc
 50
109.0821248036
 51
167.1424728757
  0
ARC
  5
49C
100
AcDbEntity
  8
FASEN
100
AcDbCircle
 62
7
  6
CONTINUOUS
 10
40.0
 20
240.0
 40
8.8
100
AcDbArc
 50
192.8575271243
 51
257.1424728757
  0
ARC
  5
49D
100
AcDbEntity
  8
FASEN
100
AcDbCircle
 62
7
  6
CONTINUOUS
 10
40.0
 20
240.0
 40
8.8
100
AcDbArc
 50
282.8575271243
 51
347.1424728757
  0
ARC
  5
49E
100
AcDbEntity
  8
FASEN
100
AcDbCircle
 62
7
  6
CONTINUOUS
 10
40.0
 20
240.0
 40
8.8
100
AcDbArc
 50
12.8575271243
 51
70.9178751964
  0
ARC
  5
49F
100
AcDbEntity
  8
FASEN
100
AcDbCircle
 62
7
  6
CONTINUOUS
 10
40.0
 20
240.0
 40
8.5
100
AcDbArc
 50
192.8575271243
 51
257.1424728757
  0
ARC
  5
4A0
100
AcDbEntity
  8
FASEN
100
AcDbCircle
 62
7
  6
CONTINUOUS
 10
40.0
 20
240.0
 40
8.5
100
AcDbArc
 50
109.0821248036
 51
167.1424728757
  0
ARC
  5
4A1
100
AcDbEntity
  8
FASEN
100
AcDbCircle
 62
7
  6
CONTINUOUS
 10
40.0
 20
240.0
 40
8.5
100
AcDbArc
 50
12.8575271243
 51
70.9178751964
  0
ARC
  5
4A2
100
AcDbEntity
  8
FASEN
100
AcDbCircle
 62
7
  6
CONTINUOUS
 10
40.0
 20
240.0
 40
8.5
100
AcDbArc
 50
282.8575271243
 51
347.1424728757
  0
CIRCLE
  5
4A3
100
AcDbEntity
  8
FASEN
100
AcDbCircle
 62
7
  6
CONTINUOUS
 10
40.0
 20
240.0
 40
7.3
  0
CIRCLE
  5
4A4
100
AcDbEntity
  8
FASEN
100
AcDbCircle
 62
7
  6
CONTINUOUS
 10
40.0
 20
240.0
 40
6.8
  0
ARC
  5
4A5
100
AcDbEntity
  8
FASEN
100
AcDbCircle
 62
7
  6
CONTINUOUS
 10
42.975
 20
248.5999636627
 40
0.6
100
AcDbArc
 50
180.0
 51
250.9178751964
  0
ARC
  5
4A6
100
AcDbEntity
  8
FASEN
100
AcDbCircle
 62
7
  6
CONTINUOUS
 10
42.375
 20
249.301579167
 40
0.6
100
AcDbArc
 50
0.0
 51
75.6765356404
  0
ARC
  5
4A7
100
AcDbEntity
  8
FASEN
100
AcDbCircle
 62
7
  6
CONTINUOUS
 10
42.975
 20
248.5999636627
 40
0.3
100
AcDbArc
 50
180.0
 51
250.9178751964
  0
ARC
  5
4A8
100
AcDbEntity
  8
FASEN
100
AcDbCircle
 62
7
  6
CONTINUOUS
 10
42.375
 20
249.301579167
 40
0.3
100
AcDbArc
 50
0.0
 51
75.6765356404
  0
ARC
  5
4A9
100
AcDbEntity
  8
FASEN
100
AcDbCircle
 62
7
  6
CONTINUOUS
 10
49.493649193
 20
241.425
 40
0.6
100
AcDbArc
 50
8.5363882452
 51
90.0
  0
ARC
  5
4AA
100
AcDbEntity
  8
FASEN
100
AcDbCircle
 62
7
  6
CONTINUOUS
 10
48.8718304199
 20
242.025
 40
0.6
100
AcDbArc
 50
192.8575271243
 51
270.0
  0
ARC
  5
4AB
100
AcDbEntity
  8
FASEN
100
AcDbCircle
 62
7
  6
CONTINUOUS
 10
48.8718304199
 20
242.025
 40
0.3
100
AcDbArc
 50
192.8575271243
 51
270.0
  0
ARC
  5
4AC
100
AcDbEntity
  8
FASEN
100
AcDbCircle
 62
7
  6
CONTINUOUS
 10
49.493649193
 20
241.425
 40
0.3
100
AcDbArc
 50
8.5363882452
 51
90.0
  0
ARC
  5
4AD
100
AcDbEntity
  8
FASEN
100
AcDbCircle
 62
7
  6
CONTINUOUS
 10
160.5337441404
 20
239.2
 40
0.6
100
AcDbArc
 50
184.830628592
 51
270.0
  0
ARC
  5
4AE
100
AcDbEntity
  8
FASEN
100
AcDbCircle
 62
7
  6
CONTINUOUS
 10
169.2
 20
230.5337441404
 40
0.6
100
AcDbArc
 50
180.0
 51
265.169371408
  0
ARC
  5
4AF
100
AcDbEntity
  8
RUNDUNGEN
100
AcDbCircle
 62
7
  6
CONTINUOUS
 10
168.6
 20
231.0589430155
 40
0.3
100
AcDbArc
 50
0.0
 51
81.1008266288
  0
ARC
  5
4B0
100
AcDbEntity
  8
RUNDUNGEN
100
AcDbCircle
 62
7
  6
CONTINUOUS
 10
169.2
 20
230.5337441404
 40
0.3
100
AcDbArc
 50
180.0
 51
265.169371408
  0
ARC
  5
4B1
100
AcDbEntity
  8
RUNDUNGEN
100
AcDbCircle
 62
7
  6
CONTINUOUS
 10
160.5337441404
 20
239.2
 40
0.3
100
AcDbArc
 50
184.830628592
 51
270.0
  0
ARC
  5
4B2
100
AcDbEntity
  8
RUNDUNGEN
100
AcDbCircle
 62
7
  6
CONTINUOUS
 10
161.0589430155
 20
238.6
 40
0.3
100
AcDbArc
 50
8.8991733712
 51
90.0
  0
ARC
  5
4B3
100
AcDbEntity
  8
FASEN
100
AcDbCircle
 62
7
  6
CONTINUOUS
 10
160.5337441404
 20
240.8
 40
0.6
100
AcDbArc
 50
90.0
 51
175.169371408
  0
ARC
  5
4B4
100
AcDbEntity
  8
FASEN
100
AcDbCircle
 62
7
  6
CONTINUOUS
 10
167.75
 20
249.229707471
 40
0.6
100
AcDbArc
 50
103.7002334884
 51
180.0
  0
ARC
  5
4B5
100
AcDbEntity
  8
RUNDUNGEN
100
AcDbCircle
 62
7
  6
CONTINUOUS
 10
167.75
 20
249.229707471
 40
0.3
100
AcDbArc
 50
103.7002334884
 51
180.0
  0
ARC
  5
4B6
100
AcDbEntity
  8
RUNDUNGEN
100
AcDbCircle
 62
7
  6
CONTINUOUS
 10
167.15
 20
248.5895285086
 40
0.3
100
AcDbArc
 50
288.355810905
 51
360.0
  0
ARC
  5
4B7
100
AcDbEntity
  8
RUNDUNGEN
100
AcDbCircle
 62
7
  6
CONTINUOUS
 10
160.5337441404
 20
240.8
 40
0.3
100
AcDbArc
 50
90.0
 51
175.169371408
  0
ARC
  5
4B8
100
AcDbEntity
  8
RUNDUNGEN
100
AcDbCircle
 62
7
  6
CONTINUOUS
 10
161.0589430155
 20
241.4
 40
0.3
100
AcDbArc
 50
270.0
 51
351.1008266288
  0
ARC
  5
4B9
100
AcDbEntity
  8
FASEN
100
AcDbCircle
 62
7
  6
CONTINUOUS
 10
179.4662558596
 20
239.2
 40
0.6
100
AcDbArc
 50
270.0
 51
355.169371408
  0
ARC
  5
4BA
100
AcDbEntity
  8
FASEN
100
AcDbCircle
 62
7
  6
CONTINUOUS
 10
170.8
 20
230.5337441404
 40
0.6
100
AcDbArc
 50
274.830628592
 51
360.0
  0
ARC
  5
4BB
100
AcDbEntity
  8
RUNDUNGEN
100
AcDbCircle
 62
7
  6
CONTINUOUS
 10
179.4662558596
 20
239.2
 40
0.3
100
AcDbArc
 50
270.0
 51
355.169371408
  0
ARC
  5
4BC
100
AcDbEntity
  8
RUNDUNGEN
100
AcDbCircle
 62
7
  6
CONTINUOUS
 10
178.9410569845
 20
238.6
 40
0.3
100
AcDbArc
 50
90.0
 51
150.8255531583
  0
ARC
  5
4BD
100
AcDbEntity
  8
RUNDUNGEN
100
AcDbCircle
 62
7
  6
CONTINUOUS
 10
170.8
 20
230.5337441404
 40
0.3
100
AcDbArc
 50
274.830628592
 51
360.0
  0
ARC
  5
4BE
100
AcDbEntity
  8
RUNDUNGEN
100
AcDbCircle
 62
7
  6
CONTINUOUS
 10
171.4
 20
231.0589430155
 40
0.3
100
AcDbArc
 50
119.1744073719
 51
180.0
  0
ARC
  5
4BF
100
AcDbEntity
  8
FASEN
100
AcDbCircle
 62
7
  6
CONTINUOUS
 10
170.0
 20
240.0
 40
15.5
100
AcDbArc
 50
59.0500138651
 51
60.9493649903
  0
ARC
  5
4C0
100
AcDbEntity
  8
FASEN
100
AcDbCircle
 62
7
  6
CONTINUOUS
 10
170.0
 20
240.0
 40
15.5
100
AcDbArc
 50
359.0500138651
 51
0.9493649903
  0
ARC
  5
4C1
100
AcDbEntity
  8
FASEN
100
AcDbCircle
 62
7
  6
CONTINUOUS
 10
170.0
 20
240.0
 40
15.5
100
AcDbArc
 50
299.0500138651
 51
300.9493649903
  0
ARC
  5
4C2
100
AcDbEntity
  8
FASEN
100
AcDbCircle
 62
7
  6
CONTINUOUS
 10
170.0
 20
240.0
 40
15.5
100
AcDbArc
 50
239.0500138651
 51
240.9493649903
  0
ARC
  5
4C3
100
AcDbEntity
  8
FASEN
100
AcDbCircle
 62
7
  6
CONTINUOUS
 10
170.0
 20
240.0
 40
15.5
100
AcDbArc
 50
179.0500138651
 51
180.9493649903
  0
ARC
  5
4C4
100
AcDbEntity
  8
FASEN
100
AcDbCircle
 62
7
  6
CONTINUOUS
 10
170.0
 20
240.0
 40
15.5
100
AcDbArc
 50
119.0500138651
 51
120.9493649903
  0
ARC
  5
4C5
100
AcDbEntity
  8
FASEN
100
AcDbCircle
 62
7
  6
CONTINUOUS
 10
170.0
 20
240.0
 40
15.0
100
AcDbArc
 50
59.5410499278
 51
60.4583289276
  0
ARC
  5
4C6
100
AcDbEntity
  8
FASEN
100
AcDbCircle
 62
7
  6
CONTINUOUS
 10
170.0
 20
240.0
 40
15.0
100
AcDbArc
 50
359.5410499278
 51
0.4583289276
  0
ARC
  5
4C7
100
AcDbEntity
  8
FASEN
100
AcDbCircle
 62
7
  6
CONTINUOUS
 10
170.0
 20
240.0
 40
15.0
100
AcDbArc
 50
299.5410499278
 51
300.4583289276
  0
ARC
  5
4C8
100
AcDbEntity
  8
FASEN
100
AcDbCircle
 62
7
  6
CONTINUOUS
 10
170.0
 20
240.0
 40
15.0
100
AcDbArc
 50
239.5410499278
 51
240.4583289276
  0
ARC
  5
4C9
100
AcDbEntity
  8
FASEN
100
AcDbCircle
 62
7
  6
CONTINUOUS
 10
170.0
 20
240.0
 40
15.0
100
AcDbArc
 50
179.5410499278
 51
180.4583289276
  0
ARC
  5
4CA
100
AcDbEntity
  8
FASEN
100
AcDbCircle
 62
7
  6
CONTINUOUS
 10
170.0
 20
240.0
 40
15.0
100
AcDbArc
 50
119.5410499278
 51
120.4583289276
  0
CIRCLE
  5
4CB
100
AcDbEntity
  8
FASEN
100
AcDbCircle
 62
7
  6
CONTINUOUS
 10
170.0
 20
240.0
 40
11.9
  0
CIRCLE
  5
4CC
100
AcDbEntity
  8
FASEN
100
AcDbCircle
 62
7
  6
CONTINUOUS
 10
170.0
 20
240.0
 40
11.6
  0
CIRCLE
  5
4CD
100
AcDbEntity
  8
FASEN
100
AcDbCircle
 62
7
  6
CONTINUOUS
 10
170.0
 20
240.0
 40
11.3
  0
ARC
  5
4CE
100
AcDbEntity
  8
FASEN
100
AcDbCircle
 62
7
  6
CONTINUOUS
 10
170.0
 20
240.0
 40
10.1
100
AcDbArc
 50
175.169371408
 51
184.830628592
  0
ARC
  5
4CF
100
AcDbEntity
  8
FASEN
100
AcDbCircle
 62
7
  6
CONTINUOUS
 10
170.0
 20
240.0
 40
10.1
100
AcDbArc
 50
76.2997665116
 51
103.7002334884
  0
ARC
  5
4D0
100
AcDbEntity
  8
FASEN
100
AcDbCircle
 62
7
  6
CONTINUOUS
 10
170.0
 20
240.0
 40
10.1
100
AcDbArc
 50
355.169371408
 51
4.830628592
  0
ARC
  5
4D1
100
AcDbEntity
  8
FASEN
100
AcDbCircle
 62
7
  6
CONTINUOUS
 10
170.0
 20
240.0
 40
10.1
100
AcDbArc
 50
265.169371408
 51
274.830628592
  0
ARC
  5
4D2
100
AcDbEntity
  8
RUNDUNGEN
100
AcDbCircle
 62
7
  6
CONTINUOUS
 10
170.0
 20
240.0
 40
9.8
100
AcDbArc
 50
76.2997665116
 51
103.7002334884
  0
ARC
  5
4D3
100
AcDbEntity
  8
RUNDUNGEN
100
AcDbCircle
 62
7
  6
CONTINUOUS
 10
170.0
 20
240.0
 40
9.8
100
AcDbArc
 50
175.169371408
 51
184.830628592
  0
ARC
  5
4D4
100
AcDbEntity
  8
RUNDUNGEN
100
AcDbCircle
 62
7
  6
CONTINUOUS
 10
170.0
 20
240.0
 40
9.8
100
AcDbArc
 50
265.169371408
 51
274.830628592
  0
ARC
  5
4D5
100
AcDbEntity
  8
RUNDUNGEN
100
AcDbCircle
 62
7
  6
CONTINUOUS
 10
170.0
 20
240.0
 40
9.8
100
AcDbArc
 50
355.169371408
 51
4.830628592
  0
ARC
  5
4D6
100
AcDbEntity
  8
RUNDUNGEN
100
AcDbCircle
 62
9
  6
CONTINUOUS
 10
170.0
 20
240.0
 40
9.5
100
AcDbArc
 50
76.2997665116
 51
103.7002334884
  0
ARC
  5
4D7
100
AcDbEntity
  8
RUNDUNGEN
100
AcDbCircle
 62
9
  6
CONTINUOUS
 10
170.0
 20
240.0
 40
9.5
100
AcDbArc
 50
355.169371408
 51
4.830628592
  0
ARC
  5
4D8
100
AcDbEntity
  8
RUNDUNGEN
100
AcDbCircle
 62
9
  6
CONTINUOUS
 10
170.0
 20
240.0
 40
9.5
100
AcDbArc
 50
265.169371408
 51
274.830628592
  0
ARC
  5
4D9
100
AcDbEntity
  8
RUNDUNGEN
100
AcDbCircle
 62
9
  6
CONTINUOUS
 10
170.0
 20
240.0
 40
9.5
100
AcDbArc
 50
175.169371408
 51
184.830628592
  0
ARC
  5
4DA
100
AcDbEntity
  8
RUNDUNGEN
100
AcDbCircle
 62
9
  6
CONTINUOUS
 10
170.0
 20
240.0
 40
9.05
100
AcDbArc
 50
75.6042059811
 51
104.3957940189
  0
ARC
  5
4DB
100
AcDbEntity
  8
RUNDUNGEN
100
AcDbCircle
 62
9
  6
CONTINUOUS
 10
170.0
 20
240.0
 40
9.05
100
AcDbArc
 50
354.9285601811
 51
5.0714398189
  0
ARC
  5
4DC
100
AcDbEntity
  8
RUNDUNGEN
100
AcDbCircle
 62
9
  6
CONTINUOUS
 10
170.0
 20
240.0
 40
9.05
100
AcDbArc
 50
264.9285601811
 51
275.0714398189
  0
ARC
  5
4DD
100
AcDbEntity
  8
RUNDUNGEN
100
AcDbCircle
 62
9
  6
CONTINUOUS
 10
170.0
 20
240.0
 40
9.05
100
AcDbArc
 50
174.9285601811
 51
185.0714398189
  0
ARC
  5
4DE
100
AcDbEntity
  8
FASEN
100
AcDbCircle
 62
7
  6
CONTINUOUS
 10
170.0
 20
240.0
 40
9.05
100
AcDbArc
 50
188.8991733712
 51
261.1008266288
  0
ARC
  5
4DF
100
AcDbEntity
  8
FASEN
100
AcDbCircle
 62
7
  6
CONTINUOUS
 10
170.0
 20
240.0
 40
9.05
100
AcDbArc
 50
108.355810905
 51
171.1008266288
  0
ARC
  5
4E0
100
AcDbEntity
  8
FASEN
100
AcDbCircle
 62
7
  6
CONTINUOUS
 10
170.0
 20
240.0
 40
9.05
100
AcDbArc
 50
8.8991733712
 51
71.644189095
  0
ARC
  5
4E1
100
AcDbEntity
  8
FASEN
100
AcDbCircle
 62
7
  6
CONTINUOUS
 10
170.0
 20
240.0
 40
9.05
100
AcDbArc
 50
278.8991733712
 51
351.1008266288
  0
CIRCLE
  5
4E2
100
AcDbEntity
  8
FASEN
100
AcDbCircle
 62
7
  6
CONTINUOUS
 10
170.0
 20
240.0
 40
8.75
  0
CIRCLE
  5
4E3
100
AcDbEntity
  8
FASEN
100
AcDbCircle
 62
7
  6
CONTINUOUS
 10
170.0
 20
240.0
 40
8.45
  0
CIRCLE
  5
4E4
100
AcDbEntity
  8
FASEN
100
AcDbCircle
 62
7
  6
CONTINUOUS
 10
170.0
 20
240.0
 40
7.1
  0
CIRCLE
  5
4E5
100
AcDbEntity
  8
FASEN
100
AcDbCircle
 62
7
  6
CONTINUOUS
 10
170.0
 20
240.0
 40
6.8
  0
ARC
  5
4E6
100
AcDbEntity
  8
FASEN
100
AcDbCircle
 62
7
  6
CONTINUOUS
 10
172.25
 20
249.229707471
 40
0.6
100
AcDbArc
 50
0.0
 51
76.2997665116
  0
ARC
  5
4E7
100
AcDbEntity
  8
RUNDUNGEN
100
AcDbCircle
 62
7
  6
CONTINUOUS
 10
172.25
 20
249.229707471
 40
0.3
100
AcDbArc
 50
0.0
 51
76.2997665116
  0
ARC
  5
4E8
100
AcDbEntity
  8
RUNDUNGEN
100
AcDbCircle
 62
7
  6
CONTINUOUS
 10
172.85
 20
248.5895285086
 40
0.3
100
AcDbArc
 50
180.0
 51
251.644189095
  0
ARC
  5
4E9
100
AcDbEntity
  8
FASEN
100
AcDbCircle
 62
7
  6
CONTINUOUS
 10
179.4662558596
 20
240.8
 40
0.6
100
AcDbArc
 50
4.830628592
 51
90.0
  0
ARC
  5
4EA
100
AcDbEntity
  8
RUNDUNGEN
100
AcDbCircle
 62
7
  6
CONTINUOUS
 10
179.4662558596
 20
240.8
 40
0.3
100
AcDbArc
 50
4.830628592
 51
90.0
  0
ARC
  5
4EB
100
AcDbEntity
  8
RUNDUNGEN
100
AcDbCircle
 62
7
  6
CONTINUOUS
 10
178.9410569845
 20
241.4
 40
0.3
100
AcDbArc
 50
188.8991733712
 51
270.0
  0
ENDSEC
  0
SECTION
  2
OBJECTS
  0
DICTIONARY
  5
C
100
AcDbDictionary
280
0
281
1
  3
ACAD_GROUP
350
D
  3
ACAD_MLINESTYLE
350
17
  3
ACAD_LAYOUT
350
1A
  3
ACAD_PLOTSETTINGS
350
19
  3
ACAD_PLOTSTYLENAME
350
E
  3
ACAD_TABLESTYLE
350
       4EC
  0
DICTIONARY
  5
D
102
{ACAD_REACTORS
330
C
102
}
100
AcDbDictionary
280
0
281
1
  0
ACDBDICTIONARYWDFLT
  5
E
102
{ACAD_REACTORS
330
C
102
}
100
AcDbDictionary
281
1
  3
Normal
350
F
100
AcDbDictionaryWithDefault
340
F
  0
DICTIONARY
  5
17
102
{ACAD_REACTORS
330
C
102
}
100
AcDbDictionary
280
0
281
1
  3
Standard
350
18
  0
DICTIONARY
  5
4EC
330
C
100
AcDbDictionary
281
1
  3
Standard
350
       4EF
  3
Standard1
350
       4F0
  0
DICTIONARY
  5
19
102
{ACAD_REACTORS
330
C
102
}
100
AcDbDictionary
281
1
  0
DICTIONARY
  5
1A
102
{ACAD_REACTORS
330
C
102
}
100
AcDbDictionary
281
1
  3
Model
350
4ED
  3
Layout1
350
4EE
  0
ACDBPLACEHOLDER
  5
F
102
{ACAD_REACTORS
330
E
102
}
  0
MLINESTYLE
  5
18
102
{ACAD_REACTORS
330
17
102
}
100
AcDbMlineStyle
  2
STANDARD
 70
0
  3

 62
256
 51
90.0
 52
90.0
 71
2
 49
0.5
 62
256
  6
BYLAYER
 49
-0.5
 62
256
  6
BYLAYER
  0
LAYOUT
  5
4ED
102
{ACAD_REACTORS
330
1A
102
}
100
AcDbPlotSettings
  1

  2
none_device
  4

  6

 40
0.0
 41
0.0
 42
0.0
 43
0.0
 44
210.0
 45
297.0
 46
0.0
 47
0.0
 48
0.0
 49
0.0
140
0.0
141
0.0
142
1.0
143
1.0
 70
1024
 72
1
 73
0
 74
0
  7

 75
0
147
1.0
148
0.0
149
0.0
100
AcDbLayout
  1
Model
 70
0
 71
0
 10
0.0
 20
0.0
 11
210.0
 21
297.0
 12
0.0
 22
0.0
 32
0.0
 14
0.0
 24
0.0
 34
0.0
 15
0.0
 25
0.0
 35
0.0
146
0.0
 13
0.0
 23
0.0
 33
0.0
 16
1.0
 26
0.0
 36
0.0
 17
0.0
 27
1.0
 37
0.0
 76
0
330
20E
345
0
346
0
  0
LAYOUT
  5
4EE
102
{ACAD_REACTORS
330
1A
102
}
100
AcDbPlotSettings
  1

  2
none_device
  4

  6

 40
0.0
 41
0.0
 42
0.0
 43
0.0
 44
210.0
 45
297.0
 46
0.0
 47
0.0
 48
0.0
 49
0.0
140
0.0
141
0.0
142
1.0
143
1.0
 70
0
 72
1
 73
0
 74
0
  7

 75
0
147
1.0
148
0.0
149
0.0
100
AcDbLayout
  1
Layout1
 70
0
 71
1
 10
0.0
 20
0.0
 11
210.0
 21
297.0
 12
0.0
 22
0.0
 32
0.0
 14
0.0
 24
0.0
 34
0.0
 15
0.0
 25
0.0
 35
0.0
146
0.0
 13
0.0
 23
0.0
 33
0.0
 16
1.0
 26
0.0
 36
0.0
 17
0.0
 27
1.0
 37
0.0
 76
0
330
20F
345
0
346
0
  0
TABLESTYLE
  5
4EF
102
{ACAD_REACTORS
330
4EC
330
2C5
102
}
330
4EC
100
AcDbTableStyle
  3
Standard
 70
0
 71
0
 40
0.06
 41
0.06
280
1
281
1
  7
Standard
140
0.18
170
1
 62
0
 63
7
283
0
  7
Standard
140
0.18
170
1
 62
0
 63
7
283
0
  7
Standard
140
0.18
170
1
 62
0
 63
7
283
0
  0
TABLESTYLE
  5
4F0
102
{ACAD_REACTORS
330
4EC
102
}
330
4EC
100
AcDbTableStyle
  3
Standard1
 70
1
 71
0
 40
0.06
 41
0.06
280
1
281
1
  7
Standard
140
0.18
170
1
 62
0
 63
7
283
0
  7
Standard
140
0.18
170
1
 62
0
 63
7
283
0
  7
Standard
140
0.18
170
1
 62
0
 63
7
283
0
  0
ENDSEC
  0
EOF
