999
DXF file: 20003807.dxf
999
Pro/ENGINEER 2021184 by Parametric Technology Corporation
  0
SECTION
  2
HEADER
  9
$ACADVER
  1
AC1018
  9
$DWGCODEPAGE
  3
ANSI_1252
  9
$EXTMAX
 10
210.0
 20
297.0
 30
0.0
  9
$EXTMIN
 10
0.0
 20
0.0
 30
0.0
  9
$LIMMIN
 10
0.0
 20
0.0
  9
$LIMMAX
 10
210.0
 20
297.0
  9
$VIEWCTR
 10
105.0
 20
148.5
  9
$VIEWSIZE
 40
297.0
  9
$CLAYER
  8
0
  9
$LTSCALE
 40
19.36
  9
$CELTYPE
  6
BYLAYER
  9
$DIMSCALE
 40
1.0
  9
$DIMASZ
 40
3.5
  9
$DIMEXO
 40
1.0
  9
$DIMDLI
 40
13.376
  9
$DIMEXE
 40
1.5
  9
$DIMCEN
 40
3.168
  9
$DIMLFAC
 40
1.0
  9
$DIMBLK
  1
_FILLED
  9
$DIMALT
 70
0
  9
$DIMALTF
 40
0.0393700787
  9
$DIMTXT
 40
3.5
  9
$DIMTOL
 70
1
  9
$DIMLIM
 70
0
  9
$DIMTFAC
 40
1.0
  9
$DIMTP
 40
0.005
  9
$DIMTM
 40
0.005
  9
$DIMGAP
 40
0.625
  9
$DIMDSEP
 70
46
  9
$AUNITS
 70
0
  9
$PDMODE
 70
3
  9
$PDSIZE
 40
0.3125
  9
$HANDSEED
  5
55D
  9
$TILEMODE
 70
1
  9
$MEASUREMENT
 70
1
  9
$INSUNITS
 70
4
  0
ENDSEC
  0
SECTION
  2
CLASSES
  0
CLASS
  1
ACDBDICTIONARYWDFLT
  2
AcDbDictionaryWithDefault
  3
AutoCAD 2000
 90
0
 91
1
280
0
281
0
  0
CLASS
  1
ACDBPLACEHOLDER
  2
AcDbPlaceHolder
  3
AutoCAD 2000
 90
0
 91
1
280
0
281
0
  0
CLASS
  1
LAYOUT
  2
AcDbLayout
  3
AutoCAD 2000
 90
0
 91
0
280
0
281
0
  0
CLASS
  1
TABLESTYLE
  2
AcDbTableStyle
  3
ObjectDBX Classes
 90
2047
 91
1
280
0
281
0
  0
CLASS
  1
ACAD_TABLE
  2
AcDbTable
  3
ObjectDBX Classes
 90
1025
 91
1
280
0
281
1
  0
ENDSEC
  0
SECTION
  2
TABLES
  0
TABLE
  2
VPORT
  5
8
100
AcDbSymbolTable
 70
2
  0
VPORT
  5
1F4
100
AcDbSymbolTableRecord
100
AcDbViewportTableRecord
  2
*ACTIVE
 70
0
 10
0.0
 20
0.0
 11
1.0
 21
1.0
 12
105.0
 22
148.5
 13
0.0
 23
0.0
 14
1.0
 24
1.0
 15
0.0
 25
0.0
 16
0.0
 26
0.0
 36
1.0
 17
0.0
 27
0.0
 37
0.0
 40
297.0
 41
0.7070707071
 42
50.0
 43
0.0
 44
0.0
 50
0.0
 51
0.0
 71
0
 72
100
 73
1
 74
1
 75
0
 76
0
 77
0
 78
0
  0
ENDTAB
  0
TABLE
  2
LTYPE
  5
5
100
AcDbSymbolTable
 70
6
  0
LTYPE
  5
14
100
AcDbSymbolTableRecord
100
AcDbLinetypeTableRecord
  2
BYBLOCK
 70
0
  3

 72
65
 73
0
 40
0.0
  0
LTYPE
  5
15
100
AcDbSymbolTableRecord
100
AcDbLinetypeTableRecord
  2
BYLAYER
 70
0
  3

 72
65
 73
0
 40
0.0
  0
LTYPE
  5
16
100
AcDbSymbolTableRecord
100
AcDbLinetypeTableRecord
  2
CONTINUOUS
 70
64
  3
Solid line
 72
65
 73
0
 40
0.0
  0
LTYPE
  5
1F5
100
AcDbSymbolTableRecord
100
AcDbLinetypeTableRecord
  2
CENTER
 70
64
  3
____ _ ____ _ ____ _ ____ _ ____ _ ____ _ ____
 72
65
 73
4
 40
0.6
 49
0.375
 74
0
 49
-0.075
 74
0
 49
0.075
 74
0
 49
-0.075
 74
0
  0
LTYPE
  5
1F6
100
AcDbSymbolTableRecord
100
AcDbLinetypeTableRecord
  2
HIDDEN
 70
64
  3
- - - - - - - - - - - - - - - - - - - -
 72
65
 73
2
 40
0.2
 49
0.1
 74
0
 49
-0.1
 74
0
  0
LTYPE
  5
1F7
100
AcDbSymbolTableRecord
100
AcDbLinetypeTableRecord
  2
PHANTOM
 70
64
  3
_____ _ _ _____ _ _ _____ _ _ _____
 72
65
 73
6
 40
0.8
 49
0.45
 74
0
 49
-0.05
 74
0
 49
0.1
 74
0
 49
-0.05
 74
0
 49
0.1
 74
0
 49
-0.05
 74
0
  0
LTYPE
  5
1F8
100
AcDbSymbolTableRecord
100
AcDbLinetypeTableRecord
  2
DOT
 70
64
  3
. . . . . . . . . . . . . . . . . . . .
 72
65
 73
2
 40
0.2
 49
0.1
 74
0
 49
-0.1
 74
0
  0
LTYPE
  5
1F9
100
AcDbSymbolTableRecord
100
AcDbLinetypeTableRecord
  2
DASHED
 70
64
  3
- - - - - - - - - - - - - - - - - - - -
 72
65
 73
2
 40
0.2
 49
0.1
 74
0
 49
-0.1
 74
0
  0
ENDTAB
  0
TABLE
  2
LAYER
  5
2
100
AcDbSymbolTable
 70
36
  0
LAYER
  5
10
100
AcDbSymbolTableRecord
100
AcDbLayerTableRecord
  2
0
 70
0
 62
7
  6
CONTINUOUS
370
-3
390
F
  0
LAYER
  5
1FA
100
AcDbSymbolTableRecord
100
AcDbLayerTableRecord
  2
DEFAULT_1
 70
0
 62
7
  6
CENTER
370
-3
390
F
  0
LAYER
  5
1FB
100
AcDbSymbolTableRecord
100
AcDbLayerTableRecord
  2
DEFAULT_2
 70
0
 62
8
  6
HIDDEN
370
-3
390
F
  0
LAYER
  5
1FC
100
AcDbSymbolTableRecord
100
AcDbLayerTableRecord
  2
DEFAULT_3
 70
0
 62
7
  6
PHANTOM
370
-3
390
F
  0
LAYER
  5
1FD
100
AcDbSymbolTableRecord
100
AcDbLayerTableRecord
  2
3D_NOTIZEN
 70
0
 62
7
  6
CONTINUOUS
370
-3
390
F
  0
LAYER
  5
1FE
100
AcDbSymbolTableRecord
100
AcDbLayerTableRecord
  2
BEZUGSACHSEN
 70
0
 62
7
  6
CONTINUOUS
370
-3
390
F
  0
LAYER
  5
1FF
100
AcDbSymbolTableRecord
100
AcDbLayerTableRecord
  2
BEZUGSEBENEN
 70
0
 62
7
  6
CONTINUOUS
370
-3
390
F
  0
LAYER
  5
200
100
AcDbSymbolTableRecord
100
AcDbLayerTableRecord
  2
BOHRUNGEN
 70
0
 62
7
  6
CONTINUOUS
370
-3
390
F
  0
LAYER
  5
201
100
AcDbSymbolTableRecord
100
AcDbLayerTableRecord
  2
FASEN
 70
0
 62
7
  6
CONTINUOUS
370
-3
390
F
  0
LAYER
  5
202
100
AcDbSymbolTableRecord
100
AcDbLayerTableRecord
  2
FLAECHEN
 70
0
 62
7
  6
CONTINUOUS
370
-3
390
F
  0
LAYER
  5
203
100
AcDbSymbolTableRecord
100
AcDbLayerTableRecord
  2
FLAECHENVERBINDUNGEN
 70
0
 62
7
  6
CONTINUOUS
370
-3
390
F
  0
LAYER
  5
204
100
AcDbSymbolTableRecord
100
AcDbLayerTableRecord
  2
GEWINDE
 70
0
 62
7
  6
CONTINUOUS
370
-3
390
F
  0
LAYER
  5
205
100
AcDbSymbolTableRecord
100
AcDbLayerTableRecord
  2
HILFEN
 70
0
 62
7
  6
CONTINUOUS
370
-3
390
F
  0
LAYER
  5
206
100
AcDbSymbolTableRecord
100
AcDbLayerTableRecord
  2
KURVEN
 70
0
 62
7
  6
CONTINUOUS
370
-3
390
F
  0
LAYER
  5
207
100
AcDbSymbolTableRecord
100
AcDbLayerTableRecord
  2
PLAZIERUNG
 70
0
 62
7
  6
CONTINUOUS
370
-3
390
F
  0
LAYER
  5
208
100
AcDbSymbolTableRecord
100
AcDbLayerTableRecord
  2
RUNDUNGEN
 70
0
 62
7
  6
CONTINUOUS
370
-3
390
F
  0
LAYER
  5
209
100
AcDbSymbolTableRecord
100
AcDbLayerTableRecord
  2
TEIL_STARTBEZUEGE
 70
0
 62
7
  6
CONTINUOUS
370
-3
390
F
  0
LAYER
  5
20A
100
AcDbSymbolTableRecord
100
AcDbLayerTableRecord
  2
ZEICHNUNGSBEMASSUNGEN
 70
0
 62
7
  6
CONTINUOUS
370
-3
390
F
  0
ENDTAB
  0
TABLE
  2
STYLE
  5
3
100
AcDbSymbolTable
 70
1
  0
STYLE
  5
11
100
AcDbSymbolTableRecord
100
AcDbTextStyleTableRecord
  2
STANDARD
 70
0
 40
0.0
 41
0.7
 50
0.0
 71
0
 42
0.2
  3
txt
  4

  0
STYLE
  5
20B
100
AcDbSymbolTableRecord
100
AcDbTextStyleTableRecord
  2
TEXTSTYLE_1
 70
0
 40
0.0
 41
0.8
 50
0.0
 71
0
 42
0.2
  3
gdt
  4

  0
ENDTAB
  0
TABLE
  2
VIEW
  5
6
100
AcDbSymbolTable
 70
0
  0
ENDTAB
  0
TABLE
  2
UCS
  5
7
100
AcDbSymbolTable
 70
0
  0
ENDTAB
  0
TABLE
  2
APPID
  5
9
100
AcDbSymbolTable
 70
1
  0
APPID
  5
20C
100
AcDbSymbolTableRecord
100
AcDbRegAppTableRecord
  2
ACAD
 70
0
  0
ENDTAB
  0
TABLE
  2
BLOCK_RECORD
  5
1
100
AcDbSymbolTable
 70
0
  0
BLOCK_RECORD
  5
20D
100
AcDbSymbolTableRecord
100
AcDbBlockTableRecord
  2
*Model_Space
  0
BLOCK_RECORD
  5
20E
100
AcDbSymbolTableRecord
100
AcDbBlockTableRecord
  2
*Paper_Space
  0
BLOCK_RECORD
  5
20F
100
AcDbSymbolTableRecord
100
AcDbBlockTableRecord
  2
_FILLED
  0
BLOCK_RECORD
  5
210
100
AcDbSymbolTableRecord
100
AcDbBlockTableRecord
  2
*D0
  0
BLOCK_RECORD
  5
211
100
AcDbSymbolTableRecord
100
AcDbBlockTableRecord
  2
*D1
  0
BLOCK_RECORD
  5
212
100
AcDbSymbolTableRecord
100
AcDbBlockTableRecord
  2
*D2
  0
BLOCK_RECORD
  5
213
100
AcDbSymbolTableRecord
100
AcDbBlockTableRecord
  2
*D3
  0
BLOCK_RECORD
  5
214
100
AcDbSymbolTableRecord
100
AcDbBlockTableRecord
  2
NEUTRIK_BL1
  0
BLOCK_RECORD
  5
215
100
AcDbSymbolTableRecord
100
AcDbBlockTableRecord
  2
PROJEKTION_BL0
  0
BLOCK_RECORD
  5
216
100
AcDbSymbolTableRecord
100
AcDbBlockTableRecord
  2
*T1
  0
ENDTAB
  0
TABLE
  2
DIMSTYLE
  5
A
100
AcDbSymbolTable
 70
1
100
AcDbDimStyleTable
 71
0
  0
DIMSTYLE
105
217
100
AcDbSymbolTableRecord
100
AcDbDimStyleTableRecord
  2
STANDARD
 70
0
  3

  4

 40
1.0
 41
3.5
 42
1.0
 43
0.38
 44
1.5
 45
0.0
 46
0.0
 47
0.005
 48
0.005
140
3.5
141
0.09
142
0.0
143
25.4
144
1.0
145
0.0
146
1.0
147
0.625
 71
1
 72
0
 73
0
 74
0
 75
0
 76
0
 77
1
 78
8
 79
2
170
0
171
2
172
0
173
0
174
0
175
0
176
0
177
0
178
5
270
2
179
3
271
3
272
3
273
2
274
2
275
0
280
0
281
0
282
0
283
1
284
8
285
0
286
0
287
3
288
0
340
11
278
46
341
20F
342
20F
343
20F
344
20F
  0
DIMSTYLE
105
218
100
AcDbSymbolTableRecord
100
AcDbDimStyleTableRecord
  2
DIMSTYLE_1
 70
0
  3

  4

 40
1.0
 41
3.5
 42
1.0
 43
0.38
 44
1.5
 45
0.0
 46
0.0
 47
0.3
 48
0.3
140
3.5
141
0.09
142
0.0
143
25.4
144
1.0
145
0.0
146
1.0
147
0.875
 71
0
 72
0
 73
0
 74
0
 75
0
 76
0
 77
1
 78
8
 79
2
170
0
171
2
172
0
173
0
174
0
175
0
176
0
177
0
178
5
270
2
179
3
271
3
272
3
273
2
274
2
275
0
280
0
281
0
282
0
283
1
284
8
285
0
286
0
287
3
288
0
340
11
278
46
341
20F
342
20F
343
20F
344
20F
  0
DIMSTYLE
105
219
100
AcDbSymbolTableRecord
100
AcDbDimStyleTableRecord
  2
DIMSTYLE_2
 70
0
  3

  4

 40
1.0
 41
3.5
 42
1.0
 43
0.38
 44
1.5
 45
0.0
 46
0.0
 47
0.2
 48
0.2
140
3.5
141
0.09
142
0.0
143
25.4
144
1.0
145
0.0
146
1.0
147
0.875
 71
0
 72
0
 73
0
 74
0
 75
0
 76
0
 77
1
 78
8
 79
2
170
0
171
2
172
0
173
0
174
0
175
0
176
0
177
0
178
5
270
2
179
3
271
3
272
3
273
2
274
2
275
0
280
0
281
0
282
0
283
1
284
8
285
0
286
0
287
3
288
0
340
11
278
46
341
20F
342
20F
343
20F
344
20F
  0
DIMSTYLE
105
21A
100
AcDbSymbolTableRecord
100
AcDbDimStyleTableRecord
  2
DIMSTYLE_3
 70
0
  3

  4

 40
1.0
 41
3.5
 42
1.0
 43
0.38
 44
1.5
 45
0.0
 46
0.0
 47
0.2
 48
0.2
140
3.5
141
0.09
142
0.0
143
25.4
144
1.0
145
0.0
146
1.0
147
0.875
 71
0
 72
0
 73
0
 74
0
 75
0
 76
0
 77
1
 78
8
 79
2
170
0
171
2
172
0
173
0
174
0
175
0
176
0
177
0
178
5
270
2
179
3
271
0
272
0
273
2
274
2
275
0
280
0
281
0
282
0
283
1
284
8
285
0
286
0
287
3
288
0
340
11
278
46
341
20F
342
20F
343
20F
344
20F
  0
ENDTAB
  0
ENDSEC
  0
SECTION
  2
BLOCKS
  0
BLOCK
  5
20
100
AcDbEntity
  8
0
100
AcDbBlockBegin
  2
*Model_Space
 70
0
 10
0.0
 20
0.0
 30
0.0
  3
*Model_Space
  1

  0
ENDBLK
  5
21
100
AcDbEntity
  8
0
100
AcDbBlockEnd
  0
BLOCK
  5
1C
100
AcDbEntity
  8
0
100
AcDbBlockBegin
  2
*Paper_Space
 70
0
 10
0.0
 20
0.0
 30
0.0
  3
*Paper_Space
  1

  0
ENDBLK
  5
1D
100
AcDbEntity
  8
0
100
AcDbBlockEnd
  0
BLOCK
  5
21B
100
AcDbEntity
  8
0
100
AcDbBlockBegin
 62
2
  6
CONTINUOUS
  2
NEUTRIK_BL1
 70
64
 10
84.2614052729
 20
13.9059825579
  3
NEUTRIK_BL1
  1

  0
LINE
  5
21C
100
AcDbEntity
  8
0
100
AcDbLine
 62
2
  6
CONTINUOUS
 10
70.1379638322
 20
12.7323024573
 11
67.6375133573
 21
14.2413197264
  0
LINE
  5
21D
100
AcDbEntity
  8
0
100
AcDbLine
 62
2
  6
CONTINUOUS
 10
67.7853350897
 20
15.0796622093
 11
70.2857865647
 21
13.5706449401
  0
LINE
  5
21E
100
AcDbEntity
  8
0
100
AcDbLine
 62
2
  6
CONTINUOUS
 10
100.2344693664
 20
12.7323024573
 11
98.6365542581
 21
13.6544797884
  0
LINE
  5
21F
100
AcDbEntity
  8
0
100
AcDbLine
 62
2
  6
CONTINUOUS
 10
89.9030070633
 20
13.5706449401
 11
91.1805964841
 21
12.7323555316
  0
LINE
  5
220
100
AcDbEntity
  8
0
100
AcDbLine
 62
2
  6
CONTINUOUS
 10
93.1085552622
 20
12.7323024573
 11
91.8311955738
 21
13.5706449401
  0
LINE
  5
221
100
AcDbEntity
  8
0
100
AcDbLine
 62
2
  6
CONTINUOUS
 10
100.4390189962
 20
13.9898161816
 11
102.3303255735
 21
12.7323024573
  0
LINE
  5
222
100
AcDbEntity
  8
0
100
AcDbLine
 62
2
  6
CONTINUOUS
 10
65.7785817214
 20
12.7323024573
 11
66.1924839723
 21
15.0796622093
  0
LINE
  5
223
100
AcDbEntity
  8
0
100
AcDbLine
 62
2
  6
CONTINUOUS
 10
67.6375133573
 20
14.2413197264
 11
67.3714328388
 21
12.7323024573
  0
LINE
  5
224
100
AcDbEntity
  8
0
100
AcDbLine
 62
2
  6
CONTINUOUS
 10
70.2857865647
 20
13.5706449401
 11
70.5518660831
 21
15.0796622093
  0
LINE
  5
225
100
AcDbEntity
  8
0
100
AcDbLine
 62
2
  6
CONTINUOUS
 10
72.1447182005
 20
15.0796622093
 11
71.7308149496
 21
12.7323024573
  0
LINE
  5
226
100
AcDbEntity
  8
0
100
AcDbLine
 62
2
  6
CONTINUOUS
 10
72.9883286739
 20
12.7323024573
 11
73.4022319248
 21
15.0796622093
  0
LINE
  5
227
100
AcDbEntity
  8
0
100
AcDbLine
 62
2
  6
CONTINUOUS
 10
74.8225553545
 20
14.5766561196
 11
74.7486444882
 21
14.1574848781
  0
LINE
  5
228
100
AcDbEntity
  8
0
100
AcDbLine
 62
2
  6
CONTINUOUS
 10
74.6599506487
 20
13.6544797884
 11
74.5860397825
 21
13.235308547
  0
LINE
  5
229
100
AcDbEntity
  8
0
100
AcDbLine
 62
2
  6
CONTINUOUS
 10
76.9283355436
 20
14.1574848781
 11
76.8396417041
 21
13.6544797884
  0
LINE
  5
22A
100
AcDbEntity
  8
0
100
AcDbLine
 62
2
  6
CONTINUOUS
 10
77.5939453391
 20
15.0796622093
 11
77.5052524996
 21
14.5766561196
  0
LINE
  5
22B
100
AcDbEntity
  8
0
100
AcDbLine
 62
2
  6
CONTINUOUS
 10
77.2687359276
 20
13.235308547
 11
77.1800430881
 21
12.7323024573
  0
LINE
  5
22C
100
AcDbEntity
  8
0
100
AcDbLine
 62
2
  6
CONTINUOUS
 10
78.1624693102
 20
13.5494429785
 11
78.4322888219
 21
15.0796622093
  0
LINE
  5
22D
100
AcDbEntity
  8
0
100
AcDbLine
 62
2
  6
CONTINUOUS
 10
79.941305091
 20
15.0796622093
 11
79.6954805359
 21
13.6855177323
  0
LINE
  5
22E
100
AcDbEntity
  8
0
100
AcDbLine
 62
2
  6
CONTINUOUS
 10
81.5258722234
 20
13.6063368756
 11
81.7856597533
 21
15.0796622093
  0
LINE
  5
22F
100
AcDbEntity
  8
0
100
AcDbLine
 62
2
  6
CONTINUOUS
 10
83.2946770224
 20
15.0796622093
 11
82.9980905592
 21
13.3976402532
  0
LINE
  5
230
100
AcDbEntity
  8
0
100
AcDbLine
 62
2
  6
CONTINUOUS
 10
83.7780411477
 20
14.4928222713
 11
83.8815169604
 21
15.0796622093
  0
LINE
  5
231
100
AcDbEntity
  8
0
100
AcDbLine
 62
2
  6
CONTINUOUS
 10
84.6412935854
 20
12.7323024573
 11
84.9517210237
 21
14.4928222713
  0
LINE
  5
232
100
AcDbEntity
  8
0
100
AcDbLine
 62
2
  6
CONTINUOUS
 10
86.6284059894
 20
14.4928222713
 11
86.3179795511
 21
12.7323024573
  0
LINE
  5
233
100
AcDbEntity
  8
0
100
AcDbLine
 62
2
  6
CONTINUOUS
 10
87.9055616781
 20
15.0796622093
 11
87.8020858653
 21
14.4928222713
  0
LINE
  5
234
100
AcDbEntity
  8
0
100
AcDbLine
 62
2
  6
CONTINUOUS
 10
88.4924016161
 20
15.0796622093
 11
88.0784993651
 21
12.7323024573
  0
LINE
  5
235
100
AcDbEntity
  8
0
100
AcDbLine
 62
2
  6
CONTINUOUS
 10
89.7551843308
 20
12.7323024573
 11
89.9030070633
 21
13.5706449401
  0
LINE
  5
236
100
AcDbEntity
  8
0
100
AcDbLine
 62
2
  6
CONTINUOUS
 10
89.9916999028
 20
14.0736510299
 11
90.0951757155
 21
14.6604909678
  0
LINE
  5
237
100
AcDbEntity
  8
0
100
AcDbLine
 62
2
  6
CONTINUOUS
 10
93.7792300485
 20
12.7323024573
 11
94.1931322994
 21
15.0796622093
  0
LINE
  5
238
100
AcDbEntity
  8
0
100
AcDbLine
 62
2
  6
CONTINUOUS
 10
95.8698182651
 20
15.0796622093
 11
95.4559150142
 21
12.7323024573
  0
LINE
  5
239
100
AcDbEntity
  8
0
100
AcDbLine
 62
2
  6
CONTINUOUS
 10
96.7972635867
 20
12.7323024573
 11
97.2111668377
 21
15.0796622093
  0
LINE
  5
23A
100
AcDbEntity
  8
0
100
AcDbLine
 62
2
  6
CONTINUOUS
 10
98.8878518034
 20
15.0796622093
 11
98.6956831511
 21
13.9898161816
  0
LINE
  5
23B
100
AcDbEntity
  8
0
100
AcDbLine
 62
2
  6
CONTINUOUS
 10
98.6365542581
 20
13.6544797884
 11
98.4739495524
 21
12.7323024573
  0
LINE
  5
23C
100
AcDbEntity
  8
0
100
AcDbLine
 62
2
  6
CONTINUOUS
 10
102.3303255735
 20
12.7323024573
 11
100.2344693664
 21
12.7323024573
  0
LINE
  5
23D
100
AcDbEntity
  8
0
100
AcDbLine
 62
2
  6
CONTINUOUS
 10
65.7785817214
 20
12.7323024573
 11
67.3714328388
 21
12.7323024573
  0
LINE
  5
23E
100
AcDbEntity
  8
0
100
AcDbLine
 62
2
  6
CONTINUOUS
 10
98.4739495524
 20
12.7323024573
 11
96.7972635867
 21
12.7323024573
  0
LINE
  5
23F
100
AcDbEntity
  8
0
100
AcDbLine
 62
2
  6
CONTINUOUS
 10
95.4559150142
 20
12.7323024573
 11
93.7792300485
 21
12.7323024573
  0
LINE
  5
240
100
AcDbEntity
  8
0
100
AcDbLine
 62
2
  6
CONTINUOUS
 10
86.3179795511
 20
12.7323024573
 11
84.6412935854
 21
12.7323024573
  0
LINE
  5
241
100
AcDbEntity
  8
0
100
AcDbLine
 62
2
  6
CONTINUOUS
 10
88.0784993651
 20
12.7323024573
 11
89.7551843308
 21
12.7323024573
  0
LINE
  5
242
100
AcDbEntity
  8
0
100
AcDbLine
 62
2
  6
CONTINUOUS
 10
77.1800430881
 20
12.7323024573
 11
72.9883286739
 21
12.7323024573
  0
LINE
  5
243
100
AcDbEntity
  8
0
100
AcDbLine
 62
2
  6
CONTINUOUS
 10
91.1803667516
 20
12.7323024573
 11
93.1085552622
 21
12.7323024573
  0
LINE
  5
244
100
AcDbEntity
  8
0
100
AcDbLine
 62
2
  6
CONTINUOUS
 10
71.7308149496
 20
12.7323024573
 11
70.1379638322
 21
12.7323024573
  0
LINE
  5
245
100
AcDbEntity
  8
0
100
AcDbLine
 62
2
  6
CONTINUOUS
 10
74.5860397825
 20
13.235308547
 11
77.2687359276
 21
13.235308547
  0
LINE
  5
246
100
AcDbEntity
  8
0
100
AcDbLine
 62
2
  6
CONTINUOUS
 10
76.8396417041
 20
13.6544797884
 11
74.6599506487
 21
13.6544797884
  0
LINE
  5
247
100
AcDbEntity
  8
0
100
AcDbLine
 62
2
  6
CONTINUOUS
 10
91.0528599824
 20
14.0736510299
 11
89.9916999028
 21
14.0736510299
  0
LINE
  5
248
100
AcDbEntity
  8
0
100
AcDbLine
 62
2
  6
CONTINUOUS
 10
74.7486444882
 20
14.1574848781
 11
76.9283355436
 21
14.1574848781
  0
LINE
  5
249
100
AcDbEntity
  8
0
100
AcDbLine
 62
2
  6
CONTINUOUS
 10
87.8020858653
 20
14.4928222713
 11
86.6284059894
 21
14.4928222713
  0
LINE
  5
24A
100
AcDbEntity
  8
0
100
AcDbLine
 62
2
  6
CONTINUOUS
 10
84.9517210237
 20
14.4928222713
 11
83.7780411477
 21
14.4928222713
  0
LINE
  5
24B
100
AcDbEntity
  8
0
100
AcDbLine
 62
2
  6
CONTINUOUS
 10
77.5052524996
 20
14.5766561196
 11
74.8225553545
 21
14.5766561196
  0
LINE
  5
24C
100
AcDbEntity
  8
0
100
AcDbLine
 62
2
  6
CONTINUOUS
 10
90.0951757155
 20
14.6604909678
 11
91.349287446
 21
14.6604909678
  0
LINE
  5
24D
100
AcDbEntity
  8
0
100
AcDbLine
 62
2
  6
CONTINUOUS
 10
66.1924839723
 20
15.0796622093
 11
67.7853350897
 21
15.0796622093
  0
LINE
  5
24E
100
AcDbEntity
  8
0
100
AcDbLine
 62
2
  6
CONTINUOUS
 10
70.5518660831
 20
15.0796622093
 11
72.1447182005
 21
15.0796622093
  0
LINE
  5
24F
100
AcDbEntity
  8
0
100
AcDbLine
 62
2
  6
CONTINUOUS
 10
73.4022319248
 20
15.0796622093
 11
77.5939453391
 21
15.0796622093
  0
LINE
  5
250
100
AcDbEntity
  8
0
100
AcDbLine
 62
2
  6
CONTINUOUS
 10
91.5942700026
 20
15.0796622093
 11
88.4924016161
 21
15.0796622093
  0
LINE
  5
251
100
AcDbEntity
  8
0
100
AcDbLine
 62
2
  6
CONTINUOUS
 10
78.4322888219
 20
15.0796622093
 11
79.941305091
 21
15.0796622093
  0
LINE
  5
252
100
AcDbEntity
  8
0
100
AcDbLine
 62
2
  6
CONTINUOUS
 10
81.7856597533
 20
15.0796622093
 11
83.2946770224
 21
15.0796622093
  0
LINE
  5
253
100
AcDbEntity
  8
0
100
AcDbLine
 62
2
  6
CONTINUOUS
 10
83.8815169604
 20
15.0796622093
 11
87.9055616781
 21
15.0796622093
  0
LINE
  5
254
100
AcDbEntity
  8
0
100
AcDbLine
 62
2
  6
CONTINUOUS
 10
94.1931322994
 20
15.0796622093
 11
95.8698182651
 21
15.0796622093
  0
LINE
  5
255
100
AcDbEntity
  8
0
100
AcDbLine
 62
2
  6
CONTINUOUS
 10
97.2111668377
 20
15.0796622093
 11
98.8878518034
 21
15.0796622093
  0
LINE
  5
256
100
AcDbEntity
  8
0
100
AcDbLine
 62
2
  6
CONTINUOUS
 10
100.6311886484
 20
15.0796622093
 11
102.7442288245
 21
15.0796622093
  0
LINE
  5
257
100
AcDbEntity
  8
0
100
AcDbLine
 62
2
  6
CONTINUOUS
 10
98.6956831511
 20
13.9898161816
 11
100.6311886484
 21
15.0796622093
  0
LINE
  5
258
100
AcDbEntity
  8
0
100
AcDbLine
 62
2
  6
CONTINUOUS
 10
102.7442288245
 20
15.0796622093
 11
100.4390189962
 21
13.9898161816
  0
ARC
  5
259
100
AcDbEntity
  8
0
100
AcDbCircle
 62
2
  6
CONTINUOUS
 10
80.0257229383
 20
13.6272868376
 40
0.335336967
100
AcDbArc
 50
169.9999581174
 51
257.3876854477
  0
ARC
  5
25A
100
AcDbEntity
  8
0
100
AcDbCircle
 62
2
  6
CONTINUOUS
 10
80.5382730107
 20
15.9180046921
 40
2.6826964808
100
AcDbArc
 50
257.3877479741
 51
286.262665946
  0
ARC
  5
25B
100
AcDbEntity
  8
0
100
AcDbCircle
 62
2
  6
CONTINUOUS
 10
81.1956298211
 20
13.6645677702
 40
0.3353371135
100
AcDbArc
 50
286.2627744417
 51
349.9999581174
  0
ARC
  5
25C
100
AcDbEntity
  8
0
100
AcDbCircle
 62
2
  6
CONTINUOUS
 10
82.5027264556
 20
13.4849860952
 40
0.5030061094
100
AcDbArc
 50
284.4613069912
 51
350.0000240953
  0
ARC
  5
25D
100
AcDbEntity
  8
0
100
AcDbCircle
 62
2
  6
CONTINUOUS
 10
80.534785017
 20
21.1157302858
 40
8.3834278607
100
AcDbArc
 50
256.2209051549
 51
284.4612653568
  0
ARC
  5
25E
100
AcDbEntity
  8
0
100
AcDbCircle
 62
2
  6
CONTINUOUS
 10
78.6578334137
 20
13.4620971366
 40
0.503005856
100
AcDbArc
 50
170.0000240953
 51
256.2208762229
  0
ARC
  5
25F
100
AcDbEntity
  8
0
100
AcDbCircle
 62
2
  6
CONTINUOUS
 10
92.1295980338
 20
14.8914155499
 40
1.3167024847
100
AcDbArc
 50
270.8139664646
 51
287.332045501
  0
ARC
  5
260
100
AcDbEntity
  8
0
100
AcDbCircle
 62
2
  6
CONTINUOUS
 10
92.2164248767
 20
14.6131950534
 40
1.025248295
100
AcDbArc
 50
287.332041554
 51
306.9952583027
  0
ARC
  5
261
100
AcDbEntity
  8
0
100
AcDbCircle
 62
2
  6
CONTINUOUS
 10
92.349403636
 20
14.4366953729
 40
0.8042604703
100
AcDbArc
 50
306.9952804959
 51
331.1991469186
  0
ARC
  5
262
100
AcDbEntity
  8
0
100
AcDbCircle
 62
2
  6
CONTINUOUS
 10
92.553331267
 20
14.3245815757
 40
0.5715468569
100
AcDbArc
 50
331.1991187457
 51
28.8007934081
  0
ARC
  5
263
100
AcDbEntity
  8
0
100
AcDbCircle
 62
2
  6
CONTINUOUS
 10
92.349403636
 20
14.2124667786
 40
0.8042612359
100
AcDbArc
 50
28.8008530814
 51
53.0047195041
  0
ARC
  5
264
100
AcDbEntity
  8
0
100
AcDbCircle
 62
2
  6
CONTINUOUS
 10
92.2164248767
 20
14.0359670981
 40
1.0252479986
100
AcDbArc
 50
53.0047416973
 51
72.667958446
  0
ARC
  5
265
100
AcDbEntity
  8
0
100
AcDbCircle
 62
2
  6
CONTINUOUS
 10
92.1295980338
 20
13.7577466015
 40
1.3167024858
100
AcDbArc
 50
72.667954499
 51
88.2637233921
  0
ARC
  5
266
100
AcDbEntity
  8
0
100
AcDbCircle
 62
2
  6
CONTINUOUS
 10
91.758714705
 20
2.8981372542
 40
12.1826353158
100
AcDbArc
 50
88.0677150838
 51
90.7734183662
  0
ARC
  5
267
100
AcDbEntity
  8
0
100
AcDbCircle
 62
2
  6
CONTINUOUS
 10
90.4285891121
 20
131.4269296551
 40
117.8646306221
100
AcDbArc
 50
270.6818443076
 51
270.8360085966
  0
ARC
  5
268
100
AcDbEntity
  8
0
100
AcDbCircle
 62
2
  6
CONTINUOUS
 10
91.3068585227
 20
14.139344911
 40
0.5228699142
100
AcDbArc
 50
74.2117758502
 51
85.3455498836
  0
ARC
  5
269
100
AcDbEntity
  8
0
100
AcDbCircle
 62
2
  6
CONTINUOUS
 10
91.3562044334
 20
14.3138695951
 40
0.3415029724
100
AcDbArc
 50
49.80595642
 51
74.2116374161
  0
ARC
  5
26A
100
AcDbEntity
  8
0
100
AcDbCircle
 62
2
  6
CONTINUOUS
 10
91.4665242338
 20
14.4444433588
 40
0.1705654939
100
AcDbArc
 50
340.193968067
 51
49.8058745946
  0
ARC
  5
26B
100
AcDbEntity
  8
0
100
AcDbCircle
 62
2
  6
CONTINUOUS
 10
91.3056975248
 20
14.502363254
 40
0.3415041793
100
AcDbArc
 50
315.7883508031
 51
340.1940327095
  0
ARC
  5
26C
100
AcDbEntity
  8
0
100
AcDbCircle
 62
2
  6
CONTINUOUS
 10
91.1757007601
 20
14.6288320251
 40
0.5228695114
100
AcDbArc
 50
298.8638229053
 51
315.7882717965
  0
ARC
  5
26D
100
AcDbEntity
  8
0
100
AcDbCircle
 62
2
  6
CONTINUOUS
 10
91.0528599824
 20
14.8516896218
 40
0.777340892
100
AcDbArc
 50
285.0000006491
 51
298.8638426666
  0
ARC
  5
26E
100
AcDbEntity
  8
0
100
AcDbCircle
 62
2
  6
CONTINUOUS
 10
91.0501609873
 20
14.8516916218
 40
0.7780452733
100
AcDbArc
 50
270.1987562222
 51
285.191946156
  0
ENDBLK
  5
26F
100
AcDbEntity
  8
0
  6
BYBLOCK
 62
0
100
AcDbBlockEnd
  0
BLOCK
  5
270
100
AcDbEntity
  8
0
100
AcDbBlockBegin
 62
2
  6
CONTINUOUS
  2
PROJEKTION_BL0
 70
64
 10
90.4716081857
 20
44.8002049924
  3
PROJEKTION_BL0
  1

  0
LINE
  5
271
100
AcDbEntity
  8
DEFAULT_1
100
AcDbLine
 62
2
  6
CENTER
 10
93.2850441197
 20
42.5502049924
 11
93.2850441197
 21
47.0502049924
  0
LINE
  5
272
100
AcDbEntity
  8
DEFAULT_1
100
AcDbLine
 62
2
  6
CENTER
 10
91.0350441197
 20
44.8002049924
 11
95.5350441197
 21
44.8002049924
  0
LINE
  5
273
100
AcDbEntity
  8
DEFAULT_1
100
AcDbLine
 62
2
  6
CENTER
 10
85.4081722517
 20
44.8213569706
 11
90.410698356
 21
44.8213569706
  0
LINE
  5
274
100
AcDbEntity
  8
0
100
AcDbLine
 62
2
  6
CONTINUOUS
 10
93.2850441197
 20
44.8002049924
 11
93.2850441197
 21
44.823308923
  0
LINE
  5
275
100
AcDbEntity
  8
0
100
AcDbLine
 62
2
  6
CONTINUOUS
 10
90.1206661469
 20
42.8314549924
 11
90.1206661469
 21
46.7689549924
  0
CIRCLE
  5
276
100
AcDbEntity
  8
0
100
AcDbCircle
 62
2
  6
CONTINUOUS
 10
93.2850441197
 20
44.8002049924
 40
1.125
  0
LINE
  5
277
100
AcDbEntity
  8
0
100
AcDbLine
 62
2
  6
CONTINUOUS
 10
85.8312881741
 20
43.6752049924
 11
85.8312881741
 21
45.9252049924
  0
CIRCLE
  5
278
100
AcDbEntity
  8
0
100
AcDbCircle
 62
2
  6
CONTINUOUS
 10
93.2850441197
 20
44.8002049924
 40
1.96875
  0
LINE
  5
279
100
AcDbEntity
  8
0
100
AcDbLine
 62
2
  6
CONTINUOUS
 10
85.8312881741
 20
45.9252049924
 11
90.1206661469
 21
46.7689549924
  0
LINE
  5
27A
100
AcDbEntity
  8
0
100
AcDbLine
 62
2
  6
CONTINUOUS
 10
85.8312881741
 20
43.6752049924
 11
90.1206661469
 21
42.8314549924
  0
ENDBLK
  5
27B
100
AcDbEntity
  8
0
  6
BYBLOCK
 62
0
100
AcDbBlockEnd
  0
BLOCK
  5
27C
100
AcDbEntity
  8
0
100
AcDbBlockBegin
  2
_FILLED
 70
64
 10
0.0
 20
0.0
  3
_FILLED
  1

  0
SOLID
  5
27D
100
AcDbEntity
  8
0
  6
BYBLOCK
 62
0
100
AcDbTrace
 10
0.0
 20
0.0
 11
-1.0
 21
0.125
 12
-1.0
 22
-0.125
 13
-1.0
 23
-0.125
  0
ENDBLK
  5
27E
100
AcDbEntity
  8
0
  6
BYBLOCK
 62
0
100
AcDbBlockEnd
  0
BLOCK
  5
27F
100
AcDbEntity
  8
ZEICHNUNGSBEMASSUNGEN
100
AcDbBlockBegin
 62
2
  6
CONTINUOUS
  2
*D0
 70
65
 10
0.0
 20
0.0
  3
*D0
  1

  0
MTEXT
  5
280
100
AcDbEntity
  8
ZEICHNUNGSBEMASSUNGEN
100
AcDbMText
 62
5
  6
CONTINUOUS
  7
STANDARD
 71
2
 72
1
 10
80.0158875264
 20
274.375
 30
0.0
 11
1.0
 21
0.0
 31
0.0
 73
2
 44
0.9
  1
100
 40
3.5
 41
11.25
  0
LINE
  5
281
100
AcDbEntity
  8
ZEICHNUNGSBEMASSUNGEN
100
AcDbLine
 62
2
  6
CONTINUOUS
 10
30.0158875264
 20
245.9848355711
 11
30.0158875264
 21
271.5
  0
LINE
  5
282
100
AcDbEntity
  8
ZEICHNUNGSBEMASSUNGEN
100
AcDbLine
 62
2
  6
CONTINUOUS
 10
130.0158875264
 20
258.2757496077
 11
130.0158875264
 21
271.5
  0
LINE
  5
283
100
AcDbEntity
  8
ZEICHNUNGSBEMASSUNGEN
100
AcDbLine
 62
2
  6
CONTINUOUS
 10
30.0158875264
 20
270.0
 11
80.0158875264
 21
270.0
  0
LINE
  5
284
100
AcDbEntity
  8
ZEICHNUNGSBEMASSUNGEN
100
AcDbLine
 62
2
  6
CONTINUOUS
 10
130.0158875264
 20
270.0
 11
80.0158875264
 21
270.0
  0
INSERT
  5
285
100
AcDbEntity
  8
ZEICHNUNGSBEMASSUNGEN
100
AcDbBlockReference
 62
2
  6
CONTINUOUS
  2
_FILLED
 10
30.0158875264
 20
270.0
 41
3.5
 42
3.5
 43
3.5
 50
180.0
  0
INSERT
  5
286
100
AcDbEntity
  8
ZEICHNUNGSBEMASSUNGEN
100
AcDbBlockReference
 62
2
  6
CONTINUOUS
  2
_FILLED
 10
130.0158875264
 20
270.0
 41
3.5
 42
3.5
 43
3.5
  0
ENDBLK
  5
287
100
AcDbEntity
  8
0
  6
BYBLOCK
 62
0
100
AcDbBlockEnd
  0
BLOCK
  5
288
100
AcDbEntity
  8
ZEICHNUNGSBEMASSUNGEN
100
AcDbBlockBegin
 62
2
  6
CONTINUOUS
  2
*D1
 70
65
 10
0.0
 20
0.0
  3
*D1
  1

  0
MTEXT
  5
289
100
AcDbEntity
  8
ZEICHNUNGSBEMASSUNGEN
100
AcDbMText
 62
5
  6
CONTINUOUS
  7
STANDARD
 71
2
 72
1
 10
169.6254182777
 20
240.0
 30
0.0
 11
0.0
 21
1.0
 31
0.0
 73
2
 44
0.9
  1
40
 40
3.5
 41
8.25
  0
LINE
  5
28A
100
AcDbEntity
  8
ZEICHNUNGSBEMASSUNGEN
100
AcDbLine
 62
2
  6
CONTINUOUS
 10
165.6484826504
 20
260.0
 11
175.5004182777
 21
260.0
  0
LINE
  5
28B
100
AcDbEntity
  8
ZEICHNUNGSBEMASSUNGEN
100
AcDbLine
 62
2
  6
CONTINUOUS
 10
165.3303016565
 20
220.0
 11
175.5004182777
 21
220.0
  0
LINE
  5
28C
100
AcDbEntity
  8
ZEICHNUNGSBEMASSUNGEN
100
AcDbLine
 62
2
  6
CONTINUOUS
 10
174.0004182777
 20
260.0
 11
174.0004182777
 21
240.0
  0
LINE
  5
28D
100
AcDbEntity
  8
ZEICHNUNGSBEMASSUNGEN
100
AcDbLine
 62
2
  6
CONTINUOUS
 10
174.0004182777
 20
220.0
 11
174.0004182777
 21
240.0
  0
INSERT
  5
28E
100
AcDbEntity
  8
ZEICHNUNGSBEMASSUNGEN
100
AcDbBlockReference
 62
2
  6
CONTINUOUS
  2
_FILLED
 10
174.0004182777
 20
260.0
 41
3.5
 42
3.5
 43
3.5
 50
90.0
  0
INSERT
  5
28F
100
AcDbEntity
  8
ZEICHNUNGSBEMASSUNGEN
100
AcDbBlockReference
 62
2
  6
CONTINUOUS
  2
_FILLED
 10
174.0004182777
 20
220.0
 41
3.5
 42
3.5
 43
3.5
 50
270.0
  0
ENDBLK
  5
290
100
AcDbEntity
  8
0
  6
BYBLOCK
 62
0
100
AcDbBlockEnd
  0
BLOCK
  5
291
100
AcDbEntity
  8
ZEICHNUNGSBEMASSUNGEN
100
AcDbBlockBegin
 62
2
  6
CONTINUOUS
  2
*D2
 70
65
 10
0.0
 20
0.0
  3
*D2
  1

  0
MTEXT
  5
292
100
AcDbEntity
  8
ZEICHNUNGSBEMASSUNGEN
100
AcDbMText
 62
5
  6
CONTINUOUS
  7
STANDARD
 71
2
 72
1
 10
160.0
 20
274.375
 30
0.0
 11
1.0
 21
0.0
 31
0.0
 73
2
 44
0.9
  1
8
 40
3.5
 41
4.125
  0
LINE
  5
293
100
AcDbEntity
  8
ZEICHNUNGSBEMASSUNGEN
100
AcDbLine
 62
2
  6
CONTINUOUS
 10
156.0
 20
261.4363619878
 11
156.0
 21
271.5
  0
LINE
  5
294
100
AcDbEntity
  8
ZEICHNUNGSBEMASSUNGEN
100
AcDbLine
 62
2
  6
CONTINUOUS
 10
164.0
 20
261.6484826504
 11
164.0
 21
271.5
  0
LINE
  5
295
100
AcDbEntity
  8
ZEICHNUNGSBEMASSUNGEN
100
AcDbLine
 62
2
  6
CONTINUOUS
 10
156.0
 20
270.0
 11
150.0
 21
270.0
  0
LINE
  5
296
100
AcDbEntity
  8
ZEICHNUNGSBEMASSUNGEN
100
AcDbLine
 62
2
  6
CONTINUOUS
 10
150.0
 20
270.0
 11
160.0
 21
270.0
  0
LINE
  5
297
100
AcDbEntity
  8
ZEICHNUNGSBEMASSUNGEN
100
AcDbLine
 62
2
  6
CONTINUOUS
 10
164.0
 20
270.0
 11
170.0
 21
270.0
  0
LINE
  5
298
100
AcDbEntity
  8
ZEICHNUNGSBEMASSUNGEN
100
AcDbLine
 62
2
  6
CONTINUOUS
 10
170.0
 20
270.0
 11
160.0
 21
270.0
  0
INSERT
  5
299
100
AcDbEntity
  8
ZEICHNUNGSBEMASSUNGEN
100
AcDbBlockReference
 62
2
  6
CONTINUOUS
  2
_FILLED
 10
156.0
 20
270.0
 41
3.5
 42
3.5
 43
3.5
  0
INSERT
  5
29A
100
AcDbEntity
  8
ZEICHNUNGSBEMASSUNGEN
100
AcDbBlockReference
 62
2
  6
CONTINUOUS
  2
_FILLED
 10
164.0
 20
270.0
 41
3.5
 42
3.5
 43
3.5
 50
180.0
  0
ENDBLK
  5
29B
100
AcDbEntity
  8
0
  6
BYBLOCK
 62
0
100
AcDbBlockEnd
  0
BLOCK
  5
29C
100
AcDbEntity
  8
ZEICHNUNGSBEMASSUNGEN
100
AcDbBlockBegin
 62
2
  6
CONTINUOUS
  2
*D3
 70
65
 10
0.0
 20
0.0
  3
*D3
  1

  0
MTEXT
  5
29D
100
AcDbEntity
  8
ZEICHNUNGSBEMASSUNGEN
100
AcDbMText
 62
5
  6
CONTINUOUS
  7
STANDARD
 71
2
 72
1
 10
71.7322402911
 20
240.0
 30
0.0
 11
0.0
 21
1.0
 31
0.0
 73
2
 44
0.9
  1
SW19
 40
3.5
 41
18.375
  0
LINE
  5
29E
100
AcDbEntity
  8
ZEICHNUNGSBEMASSUNGEN
100
AcDbLine
 62
2
  6
CONTINUOUS
 10
76.1072402911
 20
249.525
 11
76.1072402911
 21
240.0
  0
LINE
  5
29F
100
AcDbEntity
  8
ZEICHNUNGSBEMASSUNGEN
100
AcDbLine
 62
2
  6
CONTINUOUS
 10
76.1072402911
 20
230.475
 11
76.1072402911
 21
240.0
  0
INSERT
  5
2A0
100
AcDbEntity
  8
ZEICHNUNGSBEMASSUNGEN
100
AcDbBlockReference
 62
2
  6
CONTINUOUS
  2
_FILLED
 10
76.1072402911
 20
249.525
 41
3.5
 42
3.5
 43
3.5
 50
90.0
  0
INSERT
  5
2A1
100
AcDbEntity
  8
ZEICHNUNGSBEMASSUNGEN
100
AcDbBlockReference
 62
2
  6
CONTINUOUS
  2
_FILLED
 10
76.1072402911
 20
230.475
 41
3.5
 42
3.5
 43
3.5
 50
270.0
  0
ENDBLK
  5
2A2
100
AcDbEntity
  8
0
  6
BYBLOCK
 62
0
100
AcDbBlockEnd
  0
BLOCK
  5
2A3
100
AcDbEntity
  8
0
100
AcDbBlockBegin
  2
*T1
 70
1
 10
0.0
 20
0.0
  3
*T1
  1

  0
LINE
  5
2A4
100
AcDbEntity
  8
0
100
AcDbLine
 62
7
  6
CONTINUOUS
 10
0.0
 20
0.0
 11
138.6
 21
0.0
  0
LINE
  5
2A5
100
AcDbEntity
  8
0
100
AcDbLine
 62
7
  6
CONTINUOUS
 10
0.0
 20
0.0
 11
0.0
 21
-40.0
  0
LINE
  5
2A6
100
AcDbEntity
  8
0
100
AcDbLine
 62
7
  6
CONTINUOUS
 10
0.0
 20
-8.0
 11
138.6
 21
-8.0
  0
LINE
  5
2A7
100
AcDbEntity
  8
0
100
AcDbLine
 62
7
  6
CONTINUOUS
 10
0.0
 20
-14.0
 11
138.6
 21
-14.0
  0
LINE
  5
2A8
100
AcDbEntity
  8
0
100
AcDbLine
 62
7
  6
CONTINUOUS
 10
69.3
 20
-20.0
 11
138.6
 21
-20.0
  0
LINE
  5
2A9
100
AcDbEntity
  8
0
100
AcDbLine
 62
7
  6
CONTINUOUS
 10
69.3
 20
-26.0
 11
138.6
 21
-26.0
  0
LINE
  5
2AA
100
AcDbEntity
  8
0
100
AcDbLine
 62
7
  6
CONTINUOUS
 10
0.0
 20
-32.0
 11
138.6
 21
-32.0
  0
LINE
  5
2AB
100
AcDbEntity
  8
0
100
AcDbLine
 62
7
  6
CONTINUOUS
 10
0.0
 20
-40.0
 11
138.6
 21
-40.0
  0
LINE
  5
2AC
100
AcDbEntity
  8
0
100
AcDbLine
 62
7
  6
CONTINUOUS
 10
23.1
 20
0.0
 11
23.1
 21
-14.0
  0
LINE
  5
2AD
100
AcDbEntity
  8
0
100
AcDbLine
 62
7
  6
CONTINUOUS
 10
46.2
 20
0.0
 11
46.2
 21
-8.0
  0
LINE
  5
2AE
100
AcDbEntity
  8
0
100
AcDbLine
 62
7
  6
CONTINUOUS
 10
46.2
 20
-32.0
 11
46.2
 21
-40.0
  0
LINE
  5
2AF
100
AcDbEntity
  8
0
100
AcDbLine
 62
7
  6
CONTINUOUS
 10
69.3
 20
0.0
 11
69.3
 21
-40.0
  0
LINE
  5
2B0
100
AcDbEntity
  8
0
100
AcDbLine
 62
7
  6
CONTINUOUS
 10
92.4
 20
0.0
 11
92.4
 21
-32.0
  0
LINE
  5
2B1
100
AcDbEntity
  8
0
100
AcDbLine
 62
7
  6
CONTINUOUS
 10
115.5
 20
-8.0
 11
115.5
 21
-26.0
  0
LINE
  5
2B2
100
AcDbEntity
  8
0
100
AcDbLine
 62
7
  6
CONTINUOUS
 10
115.5
 20
-32.0
 11
115.5
 21
-40.0
  0
LINE
  5
2B3
100
AcDbEntity
  8
0
100
AcDbLine
 62
7
  6
CONTINUOUS
 10
138.6
 20
0.0
 11
138.6
 21
-40.0
  0
MTEXT
  5
2B4
100
AcDbEntity
  8
3D_NOTIZEN
100
AcDbMText
 62
5
  6
CONTINUOUS
  7
STANDARD
 71
1
 72
1
 10
1.05
 20
-0.7764571353
 30
0.0
 11
1.0
 21
0.0
 31
0.0
 73
2
 44
0.9
  1
\Q15.0;Sheet Number
 40
1.5
 41
26.9285714286
  0
MTEXT
  5
2B5
100
AcDbEntity
  8
3D_NOTIZEN
100
AcDbMText
 62
5
  6
CONTINUOUS
  7
STANDARD
 71
1
 72
1
 10
24.15
 20
-0.7764571353
 30
0.0
 11
1.0
 21
0.0
 31
0.0
 73
2
 44
0.9
  1
\Q15.0;Projection
 40
1.5
 41
20.1428571429
  0
MTEXT
  5
2B6
100
AcDbEntity
  8
3D_NOTIZEN
100
AcDbMText
 62
5
  6
CONTINUOUS
  7
STANDARD
 71
1
 72
1
 10
47.25
 20
-0.7764571353
 30
0.0
 11
1.0
 21
0.0
 31
0.0
 73
2
 44
0.9
  1
\Q15.0;Scale
 40
1.5
 41
10.6428571429
  0
MTEXT
  5
2B7
100
AcDbEntity
  8
3D_NOTIZEN
100
AcDbMText
 62
5
  6
CONTINUOUS
  7
STANDARD
 71
1
 72
1
 10
70.35
 20
-0.7764571353
 30
0.0
 11
1.0
 21
0.0
 31
0.0
 73
2
 44
0.9
  1
\Q15.0;Format
 40
1.5
 41
13.4285714286
  0
MTEXT
  5
2B8
100
AcDbEntity
  8
3D_NOTIZEN
100
AcDbMText
 62
5
  6
CONTINUOUS
  7
STANDARD
 71
1
 72
1
 10
93.45
 20
-0.7764571353
 30
0.0
 11
1.0
 21
0.0
 31
0.0
 73
2
 44
0.9
  1
\Q15.0;Tolerancing
 40
1.5
 41
22.9285714286
  0
MTEXT
  5
2B9
100
AcDbEntity
  8
3D_NOTIZEN
100
AcDbMText
 62
5
  6
CONTINUOUS
  7
STANDARD
 71
1
 72
1
 10
1.05
 20
-4.5352761804
 30
0.0
 11
1.0
 21
0.0
 31
0.0
 73
2
 44
0.9
  1
\Q15.0;1/1
 40
2.0
 41
8.380952381
  0
MTEXT
  5
2BA
100
AcDbEntity
  8
3D_NOTIZEN
100
AcDbMText
 62
5
  6
CONTINUOUS
  7
STANDARD
 71
1
 72
1
 10
47.25
 20
-4.5352761804
 30
0.0
 11
1.0
 21
0.0
 31
0.0
 73
2
 44
0.9
  1
\Q15.0;2:1
 40
2.0
 41
7.619047619
  0
MTEXT
  5
2BB
100
AcDbEntity
  8
3D_NOTIZEN
100
AcDbMText
 62
5
  6
CONTINUOUS
  7
STANDARD
 71
1
 72
1
 10
70.35
 20
-4.5352761804
 30
0.0
 11
1.0
 21
0.0
 31
0.0
 73
2
 44
0.9
  1
\Q15.0;A4
 40
2.0
 41
7.3333333333
  0
MTEXT
  5
2BC
100
AcDbEntity
  8
3D_NOTIZEN
100
AcDbMText
 62
5
  6
CONTINUOUS
  7
STANDARD
 71
1
 72
1
 10
93.45
 20
-4.5352761804
 30
0.0
 11
1.0
 21
0.0
 31
0.0
 73
2
 44
0.9
  1
\Q15.0;ISO 2768-mK
 40
2.0
 41
35.0476190476
  0
MTEXT
  5
2BD
100
AcDbEntity
  8
3D_NOTIZEN
100
AcDbMText
 62
5
  6
CONTINUOUS
  7
STANDARD
 71
1
 72
1
 10
1.05
 20
-10.2764571353
 30
0.0
 11
1.0
 21
0.0
 31
0.0
 73
2
 44
0.9
  1
\Q15.0;ECN Number
 40
1.5
 41
23.4285714286
  0
MTEXT
  5
2BE
100
AcDbEntity
  8
3D_NOTIZEN
100
AcDbMText
 62
5
  6
CONTINUOUS
  7
STANDARD
 71
1
 72
1
 10
70.35
 20
-10.2764571353
 30
0.0
 11
1.0
 21
0.0
 31
0.0
 73
2
 44
0.9
  1
\Q15.0;Created
 40
1.5
 41
15.2857142857
  0
MTEXT
  5
2BF
100
AcDbEntity
  8
3D_NOTIZEN
100
AcDbMText
 62
5
  6
CONTINUOUS
  7
STANDARD
 71
1
 72
1
 10
1.05
 20
-14.7764571353
 30
0.0
 11
1.0
 21
0.0
 31
0.0
 73
2
 44
0.9
  1
\Q15.0;Description
 40
1.5
 41
22.7142857143
  0
MTEXT
  5
2C0
100
AcDbEntity
  8
3D_NOTIZEN
100
AcDbMText
 62
5
  6
CONTINUOUS
  7
STANDARD
 71
1
 72
1
 10
70.35
 20
-16.2764571353
 30
0.0
 11
1.0
 21
0.0
 31
0.0
 73
2
 44
0.9
  1
\Q15.0;Modified
 40
1.5
 41
16.5714285714
  0
MTEXT
  5
2C1
100
AcDbEntity
  8
3D_NOTIZEN
100
AcDbMText
 62
5
  6
CONTINUOUS
  7
STANDARD
 71
1
 72
1
 10
1.05
 20
-23.0529142706
 30
0.0
 11
1.0
 21
0.0
 31
0.0
 73
2
 44
0.9
  1
\Q15.0;ST-HTLACB
 40
3.0
 41
43.8571428571
  0
MTEXT
  5
2C2
100
AcDbEntity
  8
3D_NOTIZEN
100
AcDbMText
 62
5
  6
CONTINUOUS
  7
STANDARD
 71
1
 72
1
 10
70.35
 20
-22.2764571353
 30
0.0
 11
1.0
 21
0.0
 31
0.0
 73
2
 44
0.9
  1
\Q15.0;Approved
 40
1.5
 41
17.9285714286
  0
MTEXT
  5
2C3
100
AcDbEntity
  8
3D_NOTIZEN
100
AcDbMText
 62
5
  6
CONTINUOUS
  7
STANDARD
 71
1
 72
1
 10
70.35
 20
-28.2764571353
 30
0.0
 11
1.0
 21
0.0
 31
0.0
 73
2
 44
0.9
  1
\Q15.0;Status
 40
1.5
 41
12.7857142857
  0
MTEXT
  5
2C4
100
AcDbEntity
  8
3D_NOTIZEN
100
AcDbMText
 62
5
  6
CONTINUOUS
  7
STANDARD
 71
1
 72
1
 10
47.25
 20
-32.7764571353
 30
0.0
 11
1.0
 21
0.0
 31
0.0
 73
2
 44
0.9
  1
\Q15.0;3D Model ID
 40
1.5
 41
25.2857142857
  0
MTEXT
  5
2C5
100
AcDbEntity
  8
3D_NOTIZEN
100
AcDbMText
 62
5
  6
CONTINUOUS
  7
STANDARD
 71
1
 72
1
 10
70.35
 20
-32.7764571353
 30
0.0
 11
1.0
 21
0.0
 31
0.0
 73
2
 44
0.9
  1
\Q15.0;Document ID
 40
1.5
 41
25.2857142857
  0
MTEXT
  5
2C6
100
AcDbEntity
  8
3D_NOTIZEN
100
AcDbMText
 62
5
  6
CONTINUOUS
  7
STANDARD
 71
1
 72
1
 10
116.55
 20
-32.7764571353
 30
0.0
 11
1.0
 21
0.0
 31
0.0
 73
2
 44
0.9
  1
\Q15.0;Revision
 40
1.5
 41
16.7857142857
  0
MTEXT
  5
2C7
100
AcDbEntity
  8
3D_NOTIZEN
100
AcDbMText
 62
5
  6
CONTINUOUS
  7
STANDARD
 71
1
 72
1
 10
47.25
 20
-36.5352761804
 30
0.0
 11
1.0
 21
0.0
 31
0.0
 73
2
 44
0.9
  1
\Q15.0;30009326
 40
2.0
 41
25.3333333333
  0
MTEXT
  5
2C8
100
AcDbEntity
  8
3D_NOTIZEN
100
AcDbMText
 62
5
  6
CONTINUOUS
  7
STANDARD
 71
1
 72
1
 10
70.35
 20
-36.0529142706
 30
0.0
 11
1.0
 21
0.0
 31
0.0
 73
2
 44
0.9
  1
\Q15.0;20003807
 40
3.0
 41
38.4285714286
  0
ENDBLK
  5
2C9
100
AcDbEntity
  8
0
  6
BYBLOCK
 62
0
100
AcDbBlockEnd
  0
ENDSEC
  0
SECTION
  2
ENTITIES
  0
MTEXT
  5
2CA
100
AcDbEntity
  8
0
100
AcDbMText
 62
5
  6
CONTINUOUS
  7
STANDARD
 71
1
 72
1
 10
202.3
 20
10.6200152467
 30
0.0
 11
0.0
 21
1.0
 31
0.0
 73
2
 44
0.9
  1
\Q15.0;Copyright © Neutrik AG / Im alten Riet 143 / 9494 Schaan / Liechtenstein
 40
1.7
 41
130.3171428571
  0
MTEXT
  5
2CB
100
AcDbEntity
  8
0
100
AcDbMText
 62
5
  6
CONTINUOUS
  7
STANDARD
 71
1
 72
1
 10
202.3
 20
109.1200152467
 30
0.0
 11
0.0
 21
1.0
 31
0.0
 73
2
 44
0.9
  1
\Q15.0;Refer to protection notice ISO 16016.
 40
1.7
 41
65.0857142857
  0
INSERT
  5
2CC
100
AcDbEntity
  8
0
100
AcDbBlockReference
 62
2
  6
CONTINUOUS
  2
PROJEKTION_BL0
 10
90.4716081857
 20
44.8002049924
  0
INSERT
  5
2CD
100
AcDbEntity
  8
0
100
AcDbBlockReference
 62
2
  6
CONTINUOUS
  2
NEUTRIK_BL1
 10
84.2614052729
 20
13.9059825579
  0
DIMENSION
  5
2CE
100
AcDbEntity
  8
ZEICHNUNGSBEMASSUNGEN
100
AcDbDimension
 62
2
  6
CONTINUOUS
  2
*D0
 10
130.0158875264
 20
270.0
 11
79.5158842773
 21
270.0
 70
160
 71
2
 72
2
 41
0.9
 42
100.0
  3
DIMSTYLE_1
100
AcDbAlignedDimension
 13
30.0158875264
 23
244.9848355711
 14
130.0158875264
 24
257.2757496077
100
AcDbRotatedDimension
  0
DIMENSION
  5
2CF
100
AcDbEntity
  8
ZEICHNUNGSBEMASSUNGEN
100
AcDbDimension
 62
2
  6
CONTINUOUS
  2
*D1
 10
174.0004182777
 20
220.0
 11
174.0004182777
 21
239.5000035973
 70
160
 71
2
 72
2
 41
0.9
 42
40.0
  3
DIMSTYLE_1
100
AcDbAlignedDimension
 13
164.6484826504
 23
260.0
 14
164.3303016565
 24
220.0
 50
270.0
100
AcDbRotatedDimension
  0
DIMENSION
  5
2D0
100
AcDbEntity
  8
ZEICHNUNGSBEMASSUNGEN
100
AcDbDimension
 62
2
  6
CONTINUOUS
  2
*D2
 10
164.0
 20
270.0
 11
159.5000048828
 21
270.0
 70
160
 71
2
 72
2
 41
0.9
 42
8.0
  3
DIMSTYLE_2
100
AcDbAlignedDimension
 13
156.0
 23
260.4363619878
 14
164.0
 24
260.6484826504
100
AcDbRotatedDimension
  0
DIMENSION
  5
2D1
100
AcDbEntity
  8
ZEICHNUNGSBEMASSUNGEN
100
AcDbDimension
 62
2
  6
CONTINUOUS
  2
*D3
 10
76.1072402911
 20
230.475
 11
76.1072402911
 21
240.0
 70
160
 71
2
 72
2
 41
0.9
 42
19.05
  1
SW<>
  3
DIMSTYLE_3
100
AcDbAlignedDimension
 13
80.5151488404
 23
249.525
 14
80.5151488404
 24
230.475
 50
270.0
100
AcDbRotatedDimension
  0
ACAD_TABLE
  5
2D2
100
AcDbEntity
  8
0
 62
2
  6
CONTINUOUS
100
AcDbBlockReference
  2
*T1
 10
61.4
 20
50.0
 30
0.0
100
AcDbTable
342
       55B
343
216
 11
1.0
 21
0.0
 31
0.0
 90
22
 91
11
 92
6
 93
16
 94
0
 95
0
 96
0
 41
0.0
141
3.0
141
5.0
141
6.0
141
3.0
141
3.0
141
3.0
141
3.0
141
3.0
141
3.0
141
3.0
141
5.0
142
23.1
142
23.1
142
23.1
142
23.1
142
23.1
142
23.1
171
1
172
0
173
0
174
0
175
1
176
1
177
41
178
0
145
0.0
  1
\Q15.0;Sheet Number
170
4
140
1.5
 64
5
171
1
172
0
173
0
174
0
175
1
176
1
177
41
178
0
145
0.0
  1
\Q15.0;Projection
170
4
140
1.5
 64
5
171
1
172
0
173
0
174
0
175
1
176
1
177
41
178
0
145
0.0
  1
\Q15.0;Scale
170
4
140
1.5
 64
5
171
1
172
0
173
0
174
0
175
1
176
1
177
41
178
0
145
0.0
  1
\Q15.0;Format
170
4
140
1.5
 64
5
171
1
172
0
173
0
174
0
175
2
176
1
177
41
178
0
145
0.0
  1
\Q15.0;Tolerancing
170
4
140
1.5
 64
5
171
1
172
0
173
1
174
0
175
1
176
1
177
1
178
0
145
0.0
170
1
171
1
172
0
173
0
174
0
175
1
176
1
177
41
178
0
145
0.0
  1
\Q15.0;1/1
170
4
140
2.0
 64
5
171
1
172
0
173
0
174
0
175
1
176
1
177
33
178
0
145
0.0
  1
 
170
1
140
3.0
171
1
172
0
173
0
174
0
175
1
176
1
177
41
178
0
145
0.0
  1
\Q15.0;2:1
170
4
140
2.0
 64
5
171
1
172
0
173
0
174
0
175
1
176
1
177
41
178
0
145
0.0
  1
\Q15.0;A4
170
4
140
2.0
 64
5
171
1
172
0
173
0
174
0
175
2
176
1
177
41
178
0
145
0.0
  1
\Q15.0;ISO 2768-mK
170
4
140
2.0
 64
5
171
1
172
0
173
1
174
0
175
1
176
1
177
1
178
0
145
0.0
170
1
171
1
172
0
173
0
174
0
175
1
176
1
177
41
178
0
145
0.0
  1
\Q15.0;ECN Number
170
4
140
1.5
 64
5
171
1
172
0
173
0
174
0
175
2
176
1
177
41
178
0
145
0.0
  1
 
170
4
140
3.0
 64
5
171
1
172
0
173
1
174
0
175
1
176
1
177
1
178
0
145
0.0
170
1
171
1
172
0
173
0
174
0
175
1
176
1
177
41
178
0
145
0.0
  1
\Q15.0;Created
170
4
140
1.5
 64
5
171
1
172
0
173
0
174
0
175
1
176
1
177
41
178
0
145
0.0
  1
 
170
4
140
3.0
 64
5
171
1
172
0
173
0
174
0
175
1
176
1
177
41
178
0
145
0.0
  1
 
170
4
140
3.0
 64
5
171
1
172
0
173
0
174
0
175
3
176
1
177
41
178
0
145
0.0
  1
\Q15.0;Description
170
4
140
1.5
 64
5
171
1
172
0
173
1
174
0
175
1
176
1
177
1
178
0
145
0.0
170
1
171
1
172
0
173
1
174
0
175
1
176
1
177
1
178
0
145
0.0
170
1
171
1
172
0
173
0
174
0
175
1
176
2
177
41
178
0
145
0.0
  1
\Q15.0;Modified
170
4
140
1.5
 64
5
171
1
172
0
173
0
174
0
175
1
176
2
177
41
178
0
145
0.0
  1
 
170
4
140
3.0
 64
5
171
1
172
0
173
0
174
0
175
1
176
2
177
41
178
0
145
0.0
  1
 
170
4
140
3.0
 64
5
171
1
172
0
173
0
174
0
175
3
176
5
177
41
178
0
145
0.0
  1
\Q15.0;ST-HTLACB
170
4
140
3.0
 64
5
171
1
172
0
173
1
174
0
175
1
176
1
177
1
178
0
145
0.0
170
1
171
1
172
0
173
1
174
0
175
1
176
1
177
1
178
0
145
0.0
170
1
171
1
172
0
173
1
174
0
175
1
176
1
177
1
178
0
145
0.0
170
1
171
1
172
0
173
1
174
0
175
1
176
1
177
1
178
0
145
0.0
170
1
171
1
172
0
173
1
174
0
175
1
176
1
177
1
178
0
145
0.0
170
1
171
1
172
0
173
1
174
0
175
1
176
1
177
1
178
0
145
0.0
170
1
171
1
172
0
173
1
174
0
175
1
176
1
177
1
178
0
145
0.0
170
1
171
1
172
0
173
1
174
0
175
1
176
1
177
1
178
0
145
0.0
170
1
171
1
172
0
173
0
174
0
175
1
176
2
177
41
178
0
145
0.0
  1
\Q15.0;Approved
170
4
140
1.5
 64
5
171
1
172
0
173
0
174
0
175
1
176
2
177
41
178
0
145
0.0
  1
 
170
4
140
3.0
 64
5
171
1
172
0
173
0
174
0
175
1
176
2
177
41
178
0
145
0.0
  1
 
170
4
140
3.0
 64
5
171
1
172
0
173
1
174
0
175
1
176
1
177
1
178
0
145
0.0
170
1
171
1
172
0
173
1
174
0
175
1
176
1
177
1
178
0
145
0.0
170
1
171
1
172
0
173
1
174
0
175
1
176
1
177
1
178
0
145
0.0
170
1
171
1
172
0
173
1
174
0
175
1
176
1
177
1
178
0
145
0.0
170
1
171
1
172
0
173
1
174
0
175
1
176
1
177
1
178
0
145
0.0
170
1
171
1
172
0
173
1
174
0
175
1
176
1
177
1
178
0
145
0.0
170
1
171
1
172
0
173
1
174
0
175
1
176
1
177
1
178
0
145
0.0
170
1
171
1
172
0
173
1
174
0
175
1
176
1
177
1
178
0
145
0.0
170
1
171
1
172
0
173
1
174
0
175
1
176
1
177
1
178
0
145
0.0
170
1
171
1
172
0
173
0
174
0
175
1
176
2
177
41
178
0
145
0.0
  1
\Q15.0;Status
170
4
140
1.5
 64
5
171
1
172
0
173
0
174
0
175
2
176
2
177
41
178
0
145
0.0
  1
 
170
4
140
3.0
 64
5
171
1
172
0
173
1
174
0
175
1
176
1
177
1
178
0
145
0.0
170
1
171
1
172
0
173
1
174
0
175
1
176
1
177
1
178
0
145
0.0
170
1
171
1
172
0
173
1
174
0
175
1
176
1
177
1
178
0
145
0.0
170
1
171
1
172
0
173
1
174
0
175
1
176
1
177
1
178
0
145
0.0
170
1
171
1
172
0
173
1
174
0
175
1
176
1
177
1
178
0
145
0.0
170
1
171
1
172
0
173
1
174
0
175
1
176
1
177
1
178
0
145
0.0
170
1
171
1
172
0
173
1
174
0
175
1
176
1
177
1
178
0
145
0.0
170
1
171
1
172
0
173
0
174
0
175
2
176
2
177
33
178
0
145
0.0
  1
 
170
1
140
3.0
171
1
172
0
173
1
174
0
175
1
176
1
177
1
178
0
145
0.0
170
1
171
1
172
0
173
0
174
0
175
1
176
1
177
41
178
0
145
0.0
  1
\Q15.0;3D Model ID
170
4
140
1.5
 64
5
171
1
172
0
173
0
174
0
175
2
176
1
177
41
178
0
145
0.0
  1
\Q15.0;Document ID
170
4
140
1.5
 64
5
171
1
172
0
173
1
174
0
175
1
176
1
177
1
178
0
145
0.0
170
1
171
1
172
0
173
0
174
0
175
1
176
1
177
41
178
0
145
0.0
  1
\Q15.0;Revision
170
4
140
1.5
 64
5
171
1
172
0
173
1
174
0
175
1
176
1
177
1
178
0
145
0.0
170
1
171
1
172
0
173
1
174
0
175
1
176
1
177
1
178
0
145
0.0
170
1
171
1
172
0
173
0
174
0
175
1
176
1
177
41
178
0
145
0.0
  1
\Q15.0;30009326
170
4
140
2.0
 64
5
171
1
172
0
173
0
174
0
175
2
176
1
177
41
178
0
145
0.0
  1
\Q15.0;20003807
170
4
140
3.0
 64
5
171
1
172
0
173
1
174
0
175
1
176
1
177
1
178
0
145
0.0
170
1
171
1
172
0
173
0
174
0
175
1
176
1
177
41
178
0
145
0.0
  1
 
170
4
140
3.0
 64
5
  0
MTEXT
  5
2D3
100
AcDbEntity
  8
3D_NOTIZEN
100
AcDbMText
 62
5
  6
CONTINUOUS
  7
STANDARD
 71
3
 72
1
 10
146.2877070619
 20
223.3839215344
 30
0.0
 11
1.0
 21
0.0
 31
0.0
 73
2
 44
0.9
  1
1:1
 40
3.5
 41
7.875
  0
LINE
  5
2D4
100
AcDbEntity
  8
0
100
AcDbLine
 62
7
  6
CONTINUOUS
 10
0.0
 20
0.0
 11
210.0
 21
0.0
  0
LINE
  5
2D5
100
AcDbEntity
  8
0
100
AcDbLine
 62
7
  6
CONTINUOUS
 10
12.5
 20
10.0
 11
200.0
 21
10.0
  0
LINE
  5
2D6
100
AcDbEntity
  8
0
100
AcDbLine
 62
7
  6
CONTINUOUS
 10
-0.0
 20
-0.0
 11
0.0
 21
297.0
  0
LINE
  5
2D7
100
AcDbEntity
  8
0
100
AcDbLine
 62
7
  6
CONTINUOUS
 10
12.5
 20
10.0
 11
12.5
 21
287.0
  0
LINE
  5
2D8
100
AcDbEntity
  8
0
100
AcDbLine
 62
7
  6
CONTINUOUS
 10
200.0
 20
10.0
 11
200.0
 21
287.0
  0
LINE
  5
2D9
100
AcDbEntity
  8
0
100
AcDbLine
 62
7
  6
CONTINUOUS
 10
210.0
 20
0.0
 11
210.0
 21
297.0
  0
LINE
  5
2DA
100
AcDbEntity
  8
0
100
AcDbLine
 62
7
  6
CONTINUOUS
 10
12.5
 20
287.0
 11
200.0
 21
287.0
  0
LINE
  5
2DB
100
AcDbEntity
  8
0
100
AcDbLine
 62
7
  6
CONTINUOUS
 10
0.0
 20
297.0
 11
210.0
 21
297.0
  0
LWPOLYLINE
  5
2DC
100
AcDbEntity
  8
FASEN
100
AcDbPolyline
 62
7
  6
CONTINUOUS
 90
9
 70
0
 10
28.8601037793
 20
155.5695848735
 10
27.7179581036
 20
153.5842094242
 10
26.788937193
 20
151.6137884218
 10
26.0807673182
 20
149.6706681718
 10
25.5957678182
 20
147.7665178442
 10
25.3390047508
 20
145.9134879643
 10
25.3099642312
 20
144.1224807707
 10
25.5109359054
 20
142.4051573975
 10
25.9385752387
 20
140.7713916828
  0
LWPOLYLINE
  5
2DD
100
AcDbEntity
  8
FASEN
100
AcDbPolyline
 62
7
  6
CONTINUOUS
 90
10
 70
0
 10
28.6593367507
 20
155.2575341149
 10
27.5051545348
 20
153.2520694252
 10
26.5672493511
 20
151.2617804876
 10
25.8514037417
 20
149.2989417672
 10
25.362027664
 20
147.3756489977
 10
25.1021375916
 20
145.5037562509
 10
25.0733368971
 20
143.6948030094
 10
25.2758059746
 20
141.9599365002
 10
25.7082973608
 20
140.3098643372
 10
26.1112608495
 20
139.2882985426
  0
LINE
  5
2DE
100
AcDbEntity
  8
FASEN
100
AcDbLine
 62
7
  6
CONTINUOUS
 10
29.0594025174
 20
155.8832580001
 11
28.6593367507
 21
155.2575341149
  0
LINE
  5
2DF
100
AcDbEntity
  8
FASEN
100
AcDbLine
 62
9
  6
CONTINUOUS
 10
33.0459422411
 20
133.2533351044
 11
32.8874561358
 21
132.7158672458
  0
LINE
  5
2E0
100
AcDbEntity
  8
FASEN
100
AcDbLine
 62
7
  6
CONTINUOUS
 10
40.2853891373
 20
146.8771062035
 11
41.7362261101
 21
154.2254358946
  0
LINE
  5
2E1
100
AcDbEntity
  8
FASEN
100
AcDbLine
 62
7
  6
CONTINUOUS
 10
40.8009039161
 20
146.6774117478
 11
42.2420474038
 21
153.976645003
  0
LWPOLYLINE
  5
2E2
100
AcDbEntity
  8
FASEN
100
AcDbPolyline
 62
7
  6
CONTINUOUS
 90
15
 70
0
 10
41.7362261101
 20
154.2254358946
 10
42.3934004389
 20
155.4534109561
 10
43.1822739966
 20
156.6776421934
 10
44.1062515206
 20
157.902342748
 10
45.1551187983
 20
159.1148731959
 10
46.3228824895
 20
160.3066666522
 10
47.6002847138
 20
161.4697186412
 10
48.9795848531
 20
162.5956316298
 10
50.4502377794
 20
163.6770179049
 10
52.0029749799
 20
164.7058833331
 10
53.626225991
 20
165.6756496416
 10
55.3093613817
 20
166.5789091562
 10
57.0402895416
 20
167.410155947
 10
58.8014213721
 20
168.1604179651
 10
60.5986199061
 20
168.8326858935
  0
LWPOLYLINE
  5
2E3
100
AcDbEntity
  8
FASEN
100
AcDbPolyline
 62
7
  6
CONTINUOUS
 90
15
 70
0
 10
42.2420474038
 20
153.976645003
 10
42.8859581954
 20
155.1759458065
 10
43.6640234133
 20
156.3797187791
 10
44.5708812596
 20
157.5796686404
 10
45.6002828974
 20
158.7675270283
 10
46.7451352323
 20
159.9351088956
 10
47.9975490831
 20
161.0743682926
 10
49.3488948134
 20
162.177455081
 10
50.7898584735
 20
163.2367663989
 10
52.3105064124
 20
164.24500025
 10
53.9003652322
 20
165.195212883
 10
55.5484844054
 20
166.0808588934
 10
57.2435067552
 20
166.8958343545
 10
58.9737535164
 20
167.6345230821
 10
60.7273013629
 20
168.2918336685
  0
LWPOLYLINE
  5
2E4
100
AcDbEntity
  8
FASEN
100
AcDbPolyline
 62
7
  6
CONTINUOUS
 90
7
 70
0
 10
26.1112608495
 20
139.2882985426
 10
26.3681422138
 20
138.7547645356
 10
27.2512645596
 20
137.3042321505
 10
28.3522077377
 20
135.9672138868
 10
29.6641683111
 20
134.7519536175
 10
31.1790343522
 20
133.6659439844
 10
32.8874561358
 20
132.7158672458
  0
LINE
  5
2E5
100
AcDbEntity
  8
0
100
AcDbLine
 62
7
  6
CONTINUOUS
 10
31.373327768
 20
127.6033938306
 11
26.1112608495
 21
139.2882985426
  0
LINE
  5
2E6
100
AcDbEntity
  8
FASEN
100
AcDbLine
 62
9
  6
CONTINUOUS
 10
38.1495230543
 20
121.0309625337
 11
32.8874561358
 21
132.7158672458
  0
LINE
  5
2E7
100
AcDbEntity
  8
FASEN
100
AcDbLine
 62
7
  6
CONTINUOUS
 10
25.9385752387
 20
140.7713916828
 11
26.592333687
 21
139.2320830662
  0
LINE
  5
2E8
100
AcDbEntity
  8
FASEN
100
AcDbLine
 62
7
  6
CONTINUOUS
 10
47.5041143223
 20
142.291740291
 11
47.4654972901
 21
142.0961492703
  0
LWPOLYLINE
  5
2E9
100
AcDbEntity
  8
FASEN
100
AcDbPolyline
 62
7
  6
CONTINUOUS
 90
6
 70
0
 10
26.592333687
 20
139.2320830662
 10
27.4661129244
 20
137.7958158774
 10
28.55653194
 20
136.4724462506
 10
29.8548902444
 20
135.2690582112
 10
31.3501319082
 20
134.1973173379
 10
33.0459422411
 20
133.2533351044
  0
LWPOLYLINE
  5
2EA
100
AcDbEntity
  8
FASEN
100
AcDbPolyline
 62
7
  6
CONTINUOUS
 90
12
 70
0
 10
38.600153393
 20
144.9541726507
 10
38.5575777393
 20
145.0917883293
 10
38.5507282657
 20
145.2733038457
 10
38.5910386104
 20
145.4674698117
 10
38.6792798737
 20
145.6697019476
 10
38.8114400956
 20
145.8745978129
 10
38.9857654273
 20
146.0768986019
 10
39.1962526356
 20
146.2715891299
 10
39.4389366685
 20
146.4533195957
 10
39.7059491343
 20
146.6178350421
 10
39.9869511978
 20
146.7583424667
 10
40.2853891373
 20
146.8771062035
  0
LWPOLYLINE
  5
2EB
100
AcDbEntity
  8
FASEN
100
AcDbPolyline
 62
7
  6
CONTINUOUS
 90
17
 70
0
 10
52.9826316185
 20
140.6750697268
 10
52.8621221447
 20
140.4693958726
 10
52.7032291511
 20
140.2692436152
 10
52.5031469697
 20
140.0720357109
 10
52.2702926048
 20
139.8855038907
 10
52.0096229554
 20
139.7153252464
 10
51.7287126707
 20
139.5650864517
 10
51.4341449558
 20
139.4395194011
 10
51.1338510423
 20
139.3408655243
 10
50.8354783234
 20
139.2727515149
 10
50.5464615192
 20
139.2357534754
 10
50.2747177874
 20
139.2320375205
 10
50.0264472084
 20
139.2604603071
 10
49.8090470566
 20
139.3215172805
 10
49.626842908
 20
139.4124581909
 10
49.4859558316
 20
139.5320566336
 10
49.3832123844
 20
139.6874376996
  0
LWPOLYLINE
  5
2EC
100
AcDbEntity
  8
FASEN
100
AcDbPolyline
 62
7
  6
CONTINUOUS
 90
3
 70
0
 10
48.5000173201
 20
144.0609677888
 10
48.1480340799
 20
143.4910562464
 10
47.5041143223
 20
142.291740291
  0
LINE
  5
2ED
100
AcDbEntity
  8
FASEN
100
AcDbLine
 62
7
  6
CONTINUOUS
 10
41.5878165995
 20
144.9299995875
 11
40.8009039161
 21
146.6774117478
  0
LWPOLYLINE
  5
2EE
100
AcDbEntity
  8
FASEN
100
AcDbPolyline
 62
7
  6
CONTINUOUS
 90
7
 70
0
 10
49.3832123844
 20
139.6874376996
 10
49.3383859879
 20
139.8421749499
 10
49.3354152598
 20
140.0248859461
 10
49.3814977841
 20
140.220362676
 10
49.4732882244
 20
140.4228447982
 10
49.6077780821
 20
140.6243493671
 10
49.7859701901
 20
140.8275373646
  0
LWPOLYLINE
  5
2EF
100
AcDbEntity
  8
FASEN
100
AcDbPolyline
 62
7
  6
CONTINUOUS
 90
17
 70
0
 10
71.907639883
 20
171.3657330006
 10
72.0281493569
 20
171.5714068548
 10
72.1870423504
 20
171.7715591122
 10
72.3871245319
 20
171.9687670164
 10
72.6199788967
 20
172.1552988366
 10
72.8806485462
 20
172.3254774809
 10
73.1615588309
 20
172.4757162756
 10
73.4561265458
 20
172.6012833262
 10
73.7564204592
 20
172.699937203
 10
74.0547931781
 20
172.7680512124
 10
74.3438099823
 20
172.8050492519
 10
74.6155537142
 20
172.8087652068
 10
74.8638242932
 20
172.7803424202
 10
75.0812244449
 20
172.7192854469
 10
75.2634285935
 20
172.6283445365
 10
75.40431567
 20
172.5087460937
 10
75.5070591172
 20
172.3533650277
  0
LWPOLYLINE
  5
2F0
100
AcDbEntity
  8
FASEN
100
AcDbPolyline
 62
7
  6
CONTINUOUS
 90
13
 70
0
 10
41.2506845428
 20
144.9966436097
 10
40.9692447569
 20
144.8438874966
 10
40.6805753416
 20
144.717692763
 10
40.3806891792
 20
144.616856117
 10
40.0815476229
 20
144.5449874343
 10
39.7915158187
 20
144.5053951031
 10
39.5173952701
 20
144.4977802945
 10
39.2669670856
 20
144.5235767256
 10
39.0456575957
 20
144.5808951465
 10
38.8603774095
 20
144.6694539387
 10
38.7144547999
 20
144.7858639249
 10
38.6132247904
 20
144.9281565831
 10
38.600153393
 20
144.9541726507
  0
LINE
  5
2F1
100
AcDbEntity
  8
FASEN
100
AcDbLine
 62
7
  6
CONTINUOUS
 10
126.0957145377
 20
78.7225906171
 11
125.3678601705
 21
78.8270169043
  0
LWPOLYLINE
  5
2F2
100
AcDbEntity
  8
FASEN
100
AcDbPolyline
 62
7
  6
CONTINUOUS
 90
4
 70
0
 10
125.3678601705
 20
78.8270169043
 10
124.8395128207
 20
78.9243527673
 10
124.0107705945
 20
79.1511288861
 10
123.2682662087
 20
79.4542539941
  0
LINE
  5
2F3
100
AcDbEntity
  8
FASEN
100
AcDbLine
 62
7
  6
CONTINUOUS
 10
42.2420474038
 20
153.976645003
 11
47.5041143223
 21
142.291740291
  0
LINE
  5
2F4
100
AcDbEntity
  8
FASEN
100
AcDbLine
 62
7
  6
CONTINUOUS
 10
50.8654966026
 20
139.2796042371
 11
50.1982299913
 21
140.761331264
  0
LWPOLYLINE
  5
2F5
100
AcDbEntity
  8
FASEN
100
AcDbPolyline
 62
7
  6
CONTINUOUS
 90
13
 70
0
 10
83.6395869588
 20
167.0441591176
 10
83.9210267447
 20
167.1969152307
 10
84.20969616
 20
167.3231099643
 10
84.5095823223
 20
167.4239466104
 10
84.8087238786
 20
167.495815293
 10
85.0987556828
 20
167.5354076242
 10
85.3728762315
 20
167.5430224328
 10
85.623304416
 20
167.5172260017
 10
85.8446139058
 20
167.4599075809
 10
86.0298940921
 20
167.3713487887
 10
86.1758167017
 20
167.2549388024
 10
86.2770467111
 20
167.1126461442
 10
86.2901181085
 20
167.0866300767
  0
LWPOLYLINE
  5
2F6
100
AcDbEntity
  8
FASEN
100
AcDbPolyline
 62
7
  6
CONTINUOUS
 90
14
 70
0
 10
65.9893682814
 20
156.6069289565
 10
64.2358400063
 20
155.9496262126
 10
62.5056074189
 20
155.210944949
 10
60.8105942751
 20
154.3959760302
 10
59.1624780274
 20
153.510334182
 10
57.5726124554
 20
152.5601201716
 10
56.0519568453
 20
151.5518836449
 10
54.6109920226
 20
150.4925738264
 10
53.2596472352
 20
149.3894904789
 10
52.0072363977
 20
148.2502371388
 10
50.8623841873
 20
147.0826595518
 10
49.8329759701
 20
145.8947982017
 10
48.9261089363
 20
144.6948406083
 10
48.5000173201
 20
144.0609677888
  0
LWPOLYLINE
  5
2F7
100
AcDbEntity
  8
FASEN
100
AcDbPolyline
 62
7
  6
CONTINUOUS
 90
13
 70
0
 10
66.1376377151
 20
156.5327861967
 10
64.3404589388
 20
155.8605265362
 10
62.5793416511
 20
155.1102717816
 10
60.8484232505
 20
154.2790319505
 10
59.1652915415
 20
153.3757769895
 10
57.5420342286
 20
152.4060092158
 10
55.9892890105
 20
151.3771415359
 10
54.5186348808
 20
150.2957569979
 10
53.1393356593
 20
149.1698474942
 10
51.8619357875
 20
148.0068016875
 10
50.6941723934
 20
146.8150123155
 10
49.6452981081
 20
145.6024784319
 10
48.7213108631
 20
144.3777697515
  0
LINE
  5
2F8
100
AcDbEntity
  8
FASEN
100
AcDbLine
 62
7
  6
CONTINUOUS
 10
123.2682662087
 20
79.4542539941
 11
38.1495230543
 21
121.0309625337
  0
LWPOLYLINE
  5
2F9
100
AcDbEntity
  8
FASEN
100
AcDbPolyline
 62
7
  6
CONTINUOUS
 90
7
 70
0
 10
38.1495230543
 20
121.0309625337
 10
36.4411012707
 20
121.9810392724
 10
34.9262352296
 20
123.0670489055
 10
33.6142746561
 20
124.2823091748
 10
32.5133314781
 20
125.6193274385
 10
31.6302091323
 20
127.0698598236
 10
31.373327768
 20
127.6033938306
  0
LINE
  5
2FA
100
AcDbEntity
  8
FASEN
100
AcDbLine
 62
7
  6
CONTINUOUS
 10
83.6596428666
 20
161.16916176
 11
83.9131622275
 21
161.6602101132
  0
LWPOLYLINE
  5
2FB
100
AcDbEntity
  8
FASEN
100
AcDbPolyline
 62
7
  6
CONTINUOUS
 90
27
 70
0
 10
118.0061992903
 20
91.1391587061
 10
118.748703676
 20
90.8360335981
 10
119.5774459022
 20
90.6092574793
 10
120.4833693734
 20
90.4613275958
 10
121.4565446324
 20
90.3938809466
 10
122.4863048602
 20
90.4076671773
 10
123.5613578003
 20
90.5025417222
 10
124.6699078009
 20
90.6774664452
 10
125.7998046525
 20
90.9305245832
 10
126.9386540496
 20
91.2589389871
 10
128.0739881927
 20
91.6591127123
 10
129.1933727032
 20
92.1266629521
 10
130.2845442878
 20
92.65646818
 10
131.3355513868
 20
93.2427268577
 10
132.3348727927
 20
93.8790138836
 10
133.271556293
 20
94.5583566054
 10
134.1353360806
 20
95.273309946
 10
134.9167458795
 20
96.0160383851
 10
135.6072227112
 20
96.7784018663
 10
136.1991997355
 20
97.5520434891
 10
136.6861951949
 20
98.3284897638
 10
137.0628748641
 20
99.0992342843
 10
137.3251134963
 20
99.8558360256
 10
137.4700377717
 20
100.5900116109
 10
137.4960559988
 20
101.2937077902
 10
137.4028834592
 20
101.9592122568
 10
137.1950658582
 20
102.5714348728
  0
LINE
  5
2FC
100
AcDbEntity
  8
FASEN
100
AcDbLine
 62
7
  6
CONTINUOUS
 10
60.7273013629
 20
168.2918336685
 11
60.5986199061
 21
168.8326858935
  0
LINE
  5
2FD
100
AcDbEntity
  8
FASEN
100
AcDbLine
 62
7
  6
CONTINUOUS
 10
84.3663184759
 20
164.7483959946
 11
83.6596428666
 21
161.16916176
  0
LINE
  5
2FE
100
AcDbEntity
  8
FASEN
100
AcDbLine
 62
7
  6
CONTINUOUS
 10
84.6048823642
 20
165.1636965238
 11
83.9131622275
 21
161.6602101132
  0
LWPOLYLINE
  5
2FF
100
AcDbEntity
  8
FASEN
100
AcDbPolyline
 62
7
  6
CONTINUOUS
 90
11
 70
0
 10
95.3632427589
 20
155.4524753576
 10
95.7786445718
 20
155.6161765686
 10
96.1980902042
 20
155.7525004084
 10
96.6161650861
 20
155.8597697666
 10
97.0281424959
 20
155.9368209957
 10
97.429360307
 20
155.9827275751
 10
97.8145503935
 20
155.9967994147
 10
98.1792051345
 20
155.9787575076
 10
98.5175122389
 20
155.9288870699
 10
98.8243623227
 20
155.8483046572
 10
99.0967334469
 20
155.7383351699
  0
LWPOLYLINE
  5
300
100
AcDbEntity
  8
FASEN
100
AcDbPolyline
 62
7
  6
CONTINUOUS
 90
9
 70
0
 10
95.3828823415
 20
156.0577635481
 10
95.934230908
 20
156.2512158655
 10
96.4766106064
 20
156.3980923047
 10
97.0143216887
 20
156.4990600988
 10
97.5344633986
 20
156.5521175482
 10
98.0291919112
 20
156.5548521574
 10
98.4876366834
 20
156.5091635464
 10
98.8946269198
 20
156.416284102
 10
99.2552195522
 20
156.2758030285
  0
LWPOLYLINE
  5
301
100
AcDbEntity
  8
FASEN
100
AcDbPolyline
 62
7
  6
CONTINUOUS
 90
26
 70
0
 10
118.1646853956
 20
91.6766265648
 10
118.8860565765
 20
91.3828539235
 10
119.6817410088
 20
91.1649999718
 10
120.5566967287
 20
91.022490314
 10
121.4960496276
 20
90.957048137
 10
122.4904817731
 20
90.970681262
 10
123.5282826729
 20
91.0619613912
 10
124.5986913423
 20
91.2311640756
 10
125.6895413272
 20
91.4751855896
 10
126.7891060689
 20
91.792558797
 10
127.8853048966
 20
92.1786494803
 10
128.96597898
 20
92.6303236346
 10
130.0196362378
 20
93.1416134861
 10
131.0341977204
 20
93.7078548796
 10
131.9992652025
 20
94.3220029542
 10
132.9033608939
 20
94.9780614699
 10
133.7376445395
 20
95.6682204084
 10
134.491749105
 20
96.385415572
 10
135.158777137
 20
97.121413259
 10
135.7299260726
 20
97.8683892095
 10
136.200544206
 20
98.6180509009
 10
136.5637822577
 20
99.3621620475
 10
136.8174303851
 20
100.0927296788
 10
136.9568852053
 20
100.8014676139
 10
136.9824780595
 20
101.4810191975
 10
136.8920484499
 20
102.1233938465
  0
LINE
  5
302
100
AcDbEntity
  8
FASEN
100
AcDbLine
 62
7
  6
CONTINUOUS
 10
32.8874561358
 20
132.7158672458
 11
118.0061992903
 21
91.1391587061
  0
LINE
  5
303
100
AcDbEntity
  8
FASEN
100
AcDbLine
 62
7
  6
CONTINUOUS
 10
33.0459422411
 20
133.2533351044
 11
118.1646853956
 21
91.6766265648
  0
LINE
  5
304
100
AcDbEntity
  8
FASEN
100
AcDbLine
 62
7
  6
CONTINUOUS
 10
71.6363344232
 20
133.4305899332
 11
70.4184725083
 21
136.1349645922
  0
LINE
  5
305
100
AcDbEntity
  8
FASEN
100
AcDbLine
 62
7
  6
CONTINUOUS
 10
60.7273013629
 20
168.2918336685
 11
65.9893682814
 21
156.6069289565
  0
LWPOLYLINE
  5
306
100
AcDbEntity
  8
FASEN
100
AcDbPolyline
 62
7
  6
CONTINUOUS
 90
8
 70
0
 10
70.1335262234
 20
134.4909009138
 10
70.1112774893
 20
134.5437680236
 10
70.0464844423
 20
134.7775673773
 10
70.028410263
 20
135.028180852
 10
70.0571891891
 20
135.2923943459
 10
70.1324355648
 20
135.5671179788
 10
70.2533435585
 20
135.8491729662
 10
70.4184725083
 20
136.1349645922
  0
LINE
  5
307
100
AcDbEntity
  8
FASEN
100
AcDbLine
 62
9
  6
CONTINUOUS
 10
134.7945322294
 20
104.5549670751
 11
135.2299692252
 21
104.4774399489
  0
LWPOLYLINE
  5
308
100
AcDbEntity
  8
FASEN
100
AcDbPolyline
 62
7
  6
CONTINUOUS
 90
8
 70
0
 10
70.0710130281
 20
134.0960095211
 10
69.8315586613
 20
134.3190678802
 10
69.6556720965
 20
134.5831908367
 10
69.5483740109
 20
134.8798858429
 10
69.5147502624
 20
135.2034187221
 10
69.5529317501
 20
135.5483452108
 10
69.6627229324
 20
135.9063901965
 10
69.8441889897
 20
136.2803120502
  0
LINE
  5
309
100
AcDbEntity
  8
FASEN
100
AcDbLine
 62
9
  6
CONTINUOUS
 10
99.2552195522
 20
156.2758030285
 11
99.0967334469
 21
155.7383351699
  0
LINE
  5
30A
100
AcDbEntity
  8
FASEN
100
AcDbLine
 62
7
  6
CONTINUOUS
 10
101.0407114902
 20
143.9312718566
 11
100.6253096774
 21
143.7675706456
  0
LINE
  5
30B
100
AcDbEntity
  8
FASEN
100
AcDbLine
 62
7
  6
CONTINUOUS
 10
49.7859701901
 20
140.8275373646
 11
41.2506845428
 21
144.9966436097
  0
LINE
  5
30C
100
AcDbEntity
  8
FASEN
100
AcDbLine
 62
7
  6
CONTINUOUS
 10
50.1982299913
 20
140.761331264
 11
41.7092987333
 21
144.907795458
  0
LWPOLYLINE
  5
30D
100
AcDbEntity
  8
FASEN
100
AcDbPolyline
 62
7
  6
CONTINUOUS
 90
5
 70
0
 10
70.811145752
 20
133.8336577841
 10
70.5747726913
 20
133.9723023494
 10
70.3775591279
 20
134.1381598758
 10
70.2221824671
 20
134.3295515058
 10
70.1335262234
 20
134.4909009138
  0
LINE
  5
30E
100
AcDbEntity
  8
FASEN
100
AcDbLine
 62
7
  6
CONTINUOUS
 10
70.3757087562
 20
133.9111849103
 11
70.0710130281
 21
134.0960095211
  0
LINE
  5
30F
100
AcDbEntity
  8
FASEN
100
AcDbLine
 62
7
  6
CONTINUOUS
 10
77.2228292403
 20
159.1230520019
 11
71.9607623218
 21
170.8079567139
  0
LWPOLYLINE
  5
310
100
AcDbEntity
  8
FASEN
100
AcDbPolyline
 62
7
  6
CONTINUOUS
 90
7
 70
0
 10
75.5070591172
 20
172.3533650277
 10
75.5518855136
 20
172.1986277774
 10
75.5548562418
 20
172.0159167812
 10
75.5087737175
 20
171.8204400513
 10
75.4169832772
 20
171.6179579291
 10
75.2824934195
 20
171.4164533602
 10
75.1043013115
 20
171.2132653627
  0
LINE
  5
311
100
AcDbEntity
  8
FASEN
100
AcDbLine
 62
7
  6
CONTINUOUS
 10
95.3632427589
 20
155.4524753576
 11
95.3717738727
 21
155.7507819313
  0
LINE
  5
312
100
AcDbEntity
  8
FASEN
100
AcDbLine
 62
7
  6
CONTINUOUS
 10
95.3717738727
 20
155.7507819313
 11
95.3828823415
 21
156.0577635481
  0
LINE
  5
313
100
AcDbEntity
  8
FASEN
100
AcDbLine
 62
7
  6
CONTINUOUS
 10
168.2642547232
 20
111.3783826253
 11
167.536400356
 21
111.4828089125
  0
LINE
  5
314
100
AcDbEntity
  8
FASEN
100
AcDbLine
 62
9
  6
CONTINUOUS
 10
82.9926955844
 20
127.7483497395
 11
83.4281325802
 21
127.6708226133
  0
LWPOLYLINE
  5
315
100
AcDbEntity
  8
FASEN
100
AcDbPolyline
 62
7
  6
CONTINUOUS
 90
4
 70
0
 10
167.536400356
 20
111.4828089125
 10
167.0080530063
 20
111.5801447755
 10
166.17931078
 20
111.8069208942
 10
165.4368063943
 20
112.1100460023
  0
LINE
  5
316
100
AcDbEntity
  8
FASEN
100
AcDbLine
 62
7
  6
CONTINUOUS
 10
83.7891369384
 20
127.5104812857
 11
83.3532861091
 21
127.6078692192
  0
LINE
  5
317
100
AcDbEntity
  8
FASEN
100
AcDbLine
 62
7
  6
CONTINUOUS
 10
83.9516297148
 20
127.4949044304
 11
83.7005028288
 21
127.5608534143
  0
LINE
  5
318
100
AcDbEntity
  8
FASEN
100
AcDbLine
 62
7
  6
CONTINUOUS
 10
83.3532861091
 20
127.6078692192
 11
82.9926955844
 21
127.7483497395
  0
LINE
  5
319
100
AcDbEntity
  8
FASEN
100
AcDbLine
 62
7
  6
CONTINUOUS
 10
83.7005028288
 20
127.5608534143
 11
83.4281325802
 21
127.6708226133
  0
LINE
  5
31A
100
AcDbEntity
  8
FASEN
100
AcDbLine
 62
7
  6
CONTINUOUS
 10
82.9926955844
 20
127.7483497395
 11
70.3757087562
 21
133.9111849103
  0
LINE
  5
31B
100
AcDbEntity
  8
FASEN
100
AcDbLine
 62
7
  6
CONTINUOUS
 10
83.4281325802
 20
127.6708226133
 11
70.811145752
 21
133.8336577841
  0
LINE
  5
31C
100
AcDbEntity
  8
FASEN
100
AcDbLine
 62
7
  6
CONTINUOUS
 10
134.7945322294
 20
104.5549670751
 11
86.8650327951
 21
127.9663892199
  0
LINE
  5
31D
100
AcDbEntity
  8
FASEN
100
AcDbLine
 62
7
  6
CONTINUOUS
 10
69.8441889897
 20
136.2803120502
 11
58.3744688757
 21
141.8827586153
  0
LINE
  5
31E
100
AcDbEntity
  8
FASEN
100
AcDbLine
 62
7
  6
CONTINUOUS
 10
135.2299692252
 20
104.4774399489
 11
87.1616232682
 21
127.9566824256
  0
LINE
  5
31F
100
AcDbEntity
  8
FASEN
100
AcDbLine
 62
7
  6
CONTINUOUS
 10
70.4184725083
 20
136.1349645922
 11
58.714872616
 21
141.8516509946
  0
LINE
  5
320
100
AcDbEntity
  8
FASEN
100
AcDbLine
 62
7
  6
CONTINUOUS
 10
42.2420474038
 20
153.976645003
 11
41.7362261101
 21
154.2254358946
  0
LINE
  5
321
100
AcDbEntity
  8
FASEN
100
AcDbLine
 62
7
  6
CONTINUOUS
 10
135.4231261793
 20
104.1893412804
 11
134.7945322294
 21
104.5549670751
  0
LINE
  5
322
100
AcDbEntity
  8
FASEN
100
AcDbLine
 62
7
  6
CONTINUOUS
 10
80.2310593192
 20
158.9795717665
 11
74.9689924007
 21
170.6644764785
  0
LINE
  5
323
100
AcDbEntity
  8
FASEN
100
AcDbLine
 62
7
  6
CONTINUOUS
 10
88.9217097851
 20
149.484257048
 11
83.6596428666
 21
161.16916176
  0
LWPOLYLINE
  5
324
100
AcDbEntity
  8
FASEN
100
AcDbPolyline
 62
7
  6
CONTINUOUS
 90
12
 70
0
 10
86.2901181085
 20
167.0866300767
 10
86.3326937623
 20
166.949014398
 10
86.3395432358
 20
166.7674988816
 10
86.2992328911
 20
166.5733329156
 10
86.2109916278
 20
166.3711007797
 10
86.0788314059
 20
166.1662049145
 10
85.9045060743
 20
165.9639041254
 10
85.694018866
 20
165.7692135975
 10
85.451334833
 20
165.5874831316
 10
85.1843223672
 20
165.4229676852
 10
84.9033203038
 20
165.2824602606
 10
84.6048823642
 20
165.1636965238
  0
LINE
  5
325
100
AcDbEntity
  8
FASEN
100
AcDbLine
 62
7
  6
CONTINUOUS
 10
112.2715217662
 20
147.5599834225
 11
112.1164661028
 21
147.2897502873
  0
LINE
  5
326
100
AcDbEntity
  8
FASEN
100
AcDbLine
 62
7
  6
CONTINUOUS
 10
112.3284949642
 20
147.6232577042
 11
112.403726147
 21
147.7438407178
  0
LINE
  5
327
100
AcDbEntity
  8
FASEN
100
AcDbLine
 62
7
  6
CONTINUOUS
 10
112.2538624653
 20
147.5047887785
 11
112.3284949642
 21
147.6232577042
  0
LINE
  5
328
100
AcDbEntity
  8
FASEN
100
AcDbLine
 62
7
  6
CONTINUOUS
 10
112.1359487954
 20
147.3200290865
 11
112.2538624653
 21
147.5047887785
  0
LINE
  5
329
100
AcDbEntity
  8
FASEN
100
AcDbLine
 62
7
  6
CONTINUOUS
 10
112.1063935189
 20
147.274193191
 11
112.1359487954
 21
147.3200290865
  0
LINE
  5
32A
100
AcDbEntity
  8
0
100
AcDbLine
 62
7
  6
CONTINUOUS
 10
127.4852706727
 20
148.4401700196
 11
124.5156551667
 21
146.1404663571
  0
LINE
  5
32B
100
AcDbEntity
  8
0
100
AcDbLine
 62
7
  6
CONTINUOUS
 10
127.5129657618
 20
148.3786705212
 11
124.581336597
 21
146.1083839087
  0
LINE
  5
32C
100
AcDbEntity
  8
0
100
AcDbLine
 62
7
  6
CONTINUOUS
 10
124.9758311178
 20
145.9156909353
 11
126.2776969274
 21
146.9238704671
  0
LINE
  5
32D
100
AcDbEntity
  8
0
100
AcDbLine
 62
7
  6
CONTINUOUS
 10
126.7456878446
 20
147.2862878993
 11
127.9454466238
 21
148.2153945978
  0
LINE
  5
32E
100
AcDbEntity
  8
0
100
AcDbLine
 62
7
  6
CONTINUOUS
 10
128.8657984576
 20
147.7658437876
 11
127.6660396784
 21
146.8367370891
  0
LINE
  5
32F
100
AcDbEntity
  8
0
100
AcDbLine
 62
7
  6
CONTINUOUS
 10
127.1980487612
 20
146.4743196569
 11
125.8961829516
 21
145.4661401251
  0
LINE
  5
330
100
AcDbEntity
  8
0
100
AcDbLine
 62
7
  6
CONTINUOUS
 10
128.8934935467
 20
147.7043442892
 11
127.6937347674
 21
146.7752375906
  0
LINE
  5
331
100
AcDbEntity
  8
0
100
AcDbLine
 62
7
  6
CONTINUOUS
 10
127.2257438502
 20
146.4128201584
 11
125.9618643819
 21
145.4340576767
  0
LINE
  5
332
100
AcDbEntity
  8
0
100
AcDbLine
 62
7
  6
CONTINUOUS
 10
133.7652555329
 20
152.7512518709
 11
130.4548861787
 21
150.7398736822
  0
LINE
  5
333
100
AcDbEntity
  8
0
100
AcDbLine
 62
7
  6
CONTINUOUS
 10
133.792950622
 20
152.6897523724
 11
130.5263488668
 21
150.7049673473
  0
LINE
  5
334
100
AcDbEntity
  8
0
100
AcDbLine
 62
7
  6
CONTINUOUS
 10
132.1652911119
 20
149.9044171804
 11
134.1173861378
 21
151.0905088026
  0
LINE
  5
335
100
AcDbEntity
  8
0
100
AcDbLine
 62
7
  6
CONTINUOUS
 10
137.7197969583
 20
150.8196348127
 11
135.8259577464
 21
149.6689393838
  0
LINE
  5
336
100
AcDbEntity
  8
0
100
AcDbLine
 62
7
  6
CONTINUOUS
 10
137.7474920473
 20
150.7581353142
 11
135.8536528354
 21
149.6074398853
  0
LINE
  5
337
100
AcDbEntity
  8
0
100
AcDbLine
 62
7
  6
CONTINUOUS
 10
136.168012958
 20
147.9492661362
 11
139.4783823122
 21
149.960644325
  0
LINE
  5
338
100
AcDbEntity
  8
0
100
AcDbLine
 62
7
  6
CONTINUOUS
 10
132.0805276073
 20
143.8960250568
 11
133.6377970024
 21
144.6827405204
  0
LINE
  5
339
100
AcDbEntity
  8
0
100
AcDbLine
 62
7
  6
CONTINUOUS
 10
130.5998385071
 20
143.1686142353
 11
131.4810579492
 21
143.5978290679
  0
LINE
  5
33A
100
AcDbEntity
  8
0
100
AcDbLine
 62
7
  6
CONTINUOUS
 10
133.9868993263
 20
145.2644144863
 11
130.1232274796
 21
143.4014174587
  0
LINE
  5
33B
100
AcDbEntity
  8
0
100
AcDbLine
 62
7
  6
CONTINUOUS
 10
134.0145944153
 20
145.2029149878
 11
130.2003453835
 21
143.3637488032
  0
LWPOLYLINE
  5
33C
100
AcDbEntity
  8
FASEN
100
AcDbPolyline
 62
7
  6
CONTINUOUS
 90
6
 70
0
 10
86.8650327951
 20
127.9663892199
 10
86.3136758721
 20
127.7729348151
 10
85.7712920975
 20
127.6260576084
 10
85.2335823547
 20
127.5250907794
 10
84.713443994
 20
127.4720347891
 10
84.2187173396
 20
127.4693009213
  0
LINE
  5
33D
100
AcDbEntity
  8
FASEN
100
AcDbLine
 62
7
  6
CONTINUOUS
 10
87.1616232682
 20
127.9566824256
 11
87.0168624419
 21
127.9609051632
  0
LINE
  5
33E
100
AcDbEntity
  8
FASEN
100
AcDbLine
 62
7
  6
CONTINUOUS
 10
87.0168624419
 20
127.9609051632
 11
86.8650327951
 21
127.9663892199
  0
LINE
  5
33F
100
AcDbEntity
  8
FASEN
100
AcDbLine
 62
7
  6
CONTINUOUS
 10
84.2187173396
 20
127.4693009213
 11
83.7891369384
 21
127.5104812857
  0
LINE
  5
340
100
AcDbEntity
  8
FASEN
100
AcDbLine
 62
9
  6
CONTINUOUS
 10
70.3757087562
 20
133.9111849103
 11
70.811145752
 21
133.8336577841
  0
LINE
  5
341
100
AcDbEntity
  8
FASEN
100
AcDbLine
 62
7
  6
CONTINUOUS
 10
70.4184725083
 20
136.1349645922
 11
69.8441889897
 21
136.2803120502
  0
LINE
  5
342
100
AcDbEntity
  8
FASEN
100
AcDbLine
 62
7
  6
CONTINUOUS
 10
84.3323388241
 20
164.5762927959
 11
83.4579236587
 21
166.5180122845
  0
LINE
  5
343
100
AcDbEntity
  8
FASEN
100
AcDbLine
 62
9
  6
CONTINUOUS
 10
123.2682662087
 20
79.4542539941
 11
118.0061992903
 21
91.1391587061
  0
LINE
  5
344
100
AcDbEntity
  8
FASEN
100
AcDbLine
 62
9
  6
CONTINUOUS
 10
111.8722063805
 20
150.1129678577
 11
111.7137202751
 21
149.5754999991
  0
LWPOLYLINE
  5
345
100
AcDbEntity
  8
FASEN
100
AcDbPolyline
 62
7
  6
CONTINUOUS
 90
3
 70
0
 10
112.6949840538
 20
148.4758107202
 10
112.5851927762
 20
148.1177646274
 10
112.403726147
 20
147.7438407178
  0
LINE
  5
346
100
AcDbEntity
  8
0
100
AcDbLine
 62
7
  6
CONTINUOUS
 10
126.3563589369
 20
145.2413646866
 11
129.3259744429
 21
147.5410683491
  0
LINE
  5
347
100
AcDbEntity
  8
0
100
AcDbLine
 62
7
  6
CONTINUOUS
 10
129.6185148301
 20
147.3981754214
 11
129.1505238245
 21
147.0357579207
  0
LINE
  5
348
100
AcDbEntity
  8
0
100
AcDbLine
 62
7
  6
CONTINUOUS
 10
129.6462099192
 20
147.3366759229
 11
129.2162052548
 21
147.0036754723
  0
LINE
  5
349
100
AcDbEntity
  8
0
100
AcDbLine
 62
7
  6
CONTINUOUS
 10
129.8079181282
 20
146.7146501323
 11
127.3062936278
 21
144.7773639705
  0
LINE
  5
34A
100
AcDbEntity
  8
0
100
AcDbLine
 62
7
  6
CONTINUOUS
 10
129.8356132173
 20
146.6531506338
 11
127.3719750581
 21
144.7452815221
  0
LINE
  5
34B
100
AcDbEntity
  8
0
100
AcDbLine
 62
7
  6
CONTINUOUS
 10
127.7664693396
 20
144.5525886656
 11
130.26809384
 21
146.4898748274
  0
LINE
  5
34C
100
AcDbEntity
  8
0
100
AcDbLine
 62
7
  6
CONTINUOUS
 10
130.9254881437
 20
146.1687670391
 11
131.3934791494
 21
146.5311845398
  0
LINE
  5
34D
100
AcDbEntity
  8
0
100
AcDbLine
 62
7
  6
CONTINUOUS
 10
131.6860196734
 20
146.3882915452
 11
128.7164041673
 21
144.0885878827
  0
LINE
  5
34E
100
AcDbEntity
  8
0
100
AcDbLine
 62
7
  6
CONTINUOUS
 10
131.7137147624
 20
146.3267920467
 11
128.7820855976
 21
144.0565054343
  0
LINE
  5
34F
100
AcDbEntity
  8
0
100
AcDbLine
 62
7
  6
CONTINUOUS
 10
129.6445708405
 20
144.2262300442
 11
132.1461953851
 21
146.1635162403
  0
LINE
  5
350
100
AcDbEntity
  8
0
100
AcDbLine
 62
7
  6
CONTINUOUS
 10
130.067349266
 20
143.4287114731
 11
130.5353402274
 21
143.7911289395
  0
LWPOLYLINE
  5
351
100
AcDbEntity
  8
0
100
AcDbPolyline
 62
7
  6
CONTINUOUS
 90
11
 70
0
 10
134.5775222144
 20
143.0900616848
 10
134.7870488937
 20
143.2374215978
 10
134.9964265713
 20
143.3619201754
 10
135.207876673
 20
143.463667379
 10
135.414734921
 20
143.5423333246
 10
135.6109422111
 20
143.5970984202
 10
135.7969044485
 20
143.6295417508
 10
135.9708514613
 20
143.6411277307
 10
136.1332523774
 20
143.6313807798
 10
136.2839711515
 20
143.6003150258
 10
136.423053132
 20
143.5479257596
  0
LINE
  5
352
100
AcDbEntity
  8
0
100
AcDbLine
 62
7
  6
CONTINUOUS
 10
134.4139171672
 20
143.4620817776
 11
134.0827747336
 21
143.2300239319
  0
LINE
  5
353
100
AcDbEntity
  8
0
100
AcDbLine
 62
7
  6
CONTINUOUS
 10
140.2969428825
 20
149.5608140056
 11
137.0355470276
 21
147.5255144474
  0
LINE
  5
354
100
AcDbEntity
  8
0
100
AcDbLine
 62
7
  6
CONTINUOUS
 10
140.3246379715
 20
149.4993145072
 11
137.1063622191
 21
147.4909243857
  0
LINE
  5
355
100
AcDbEntity
  8
0
100
AcDbLine
 62
7
  6
CONTINUOUS
 10
139.3361173846
 20
147.349334066
 11
139.7684205707
 21
147.6191162461
  0
LINE
  5
356
100
AcDbEntity
  8
0
100
AcDbLine
 62
7
  6
CONTINUOUS
 10
140.5802904739
 20
148.1257700007
 11
140.9737734331
 21
148.371326115
  0
LINE
  5
357
100
AcDbEntity
  8
0
100
AcDbLine
 62
7
  6
CONTINUOUS
 10
141.7988811554
 20
146.6273268375
 11
142.6107510586
 21
147.1339805922
  0
LINE
  5
358
100
AcDbEntity
  8
0
100
AcDbLine
 62
7
  6
CONTINUOUS
 10
143.4791553071
 20
147.1475588447
 11
144.2511788347
 21
147.6293461574
  0
LINE
  5
359
100
AcDbEntity
  8
0
100
AcDbLine
 62
7
  6
CONTINUOUS
 10
141.11367549
 20
145.5335306353
 11
141.9653917688
 21
146.0650508319
  0
LINE
  5
35A
100
AcDbEntity
  8
0
100
AcDbLine
 62
7
  6
CONTINUOUS
 10
145.0117411893
 20
147.257845379
 11
143.2591662366
 21
146.178782225
  0
LINE
  5
35B
100
AcDbEntity
  8
0
100
AcDbLine
 62
7
  6
CONTINUOUS
 10
145.0394362783
 20
147.1963458805
 11
143.2868613257
 21
146.1172827265
  0
LINE
  5
35C
100
AcDbEntity
  8
0
100
AcDbLine
 62
7
  6
CONTINUOUS
 10
165.922207173
 20
136.9960439633
 11
162.5440935867
 21
136.9920028594
  0
LINE
  5
35D
100
AcDbEntity
  8
0
100
AcDbLine
 62
7
  6
CONTINUOUS
 10
165.894512084
 20
137.0575434618
 11
162.5163984977
 21
137.0535023579
  0
LINE
  5
35E
100
AcDbEntity
  8
FASEN
100
AcDbLine
 62
7
  6
CONTINUOUS
 10
65.9893682814
 20
156.6069289565
 11
66.1376377151
 21
156.5327861967
  0
LINE
  5
35F
100
AcDbEntity
  8
FASEN
100
AcDbLine
 62
7
  6
CONTINUOUS
 10
100.6253096774
 20
143.7675706456
 11
95.3632427589
 21
155.4524753576
  0
LINE
  5
360
100
AcDbEntity
  8
FASEN
100
AcDbLine
 62
9
  6
CONTINUOUS
 10
99.0967334469
 20
155.7383351699
 11
104.3588003654
 21
144.0534304578
  0
LINE
  5
361
100
AcDbEntity
  8
0
100
AcDbLine
 62
7
  6
CONTINUOUS
 10
133.6377970024
 20
144.6827405204
 11
132.7510699995
 21
143.5684950138
  0
LINE
  5
362
100
AcDbEntity
  8
0
100
AcDbLine
 62
7
  6
CONTINUOUS
 10
133.6654920914
 20
144.6212410219
 11
132.7787650886
 21
143.5069955154
  0
LWPOLYLINE
  5
363
100
AcDbEntity
  8
0
100
AcDbPolyline
 62
7
  6
CONTINUOUS
 90
7
 70
0
 10
137.2114392672
 20
141.0244518789
 10
137.3317885628
 20
141.130069703
 10
137.4241827563
 20
141.2353765486
 10
137.4889879228
 20
141.3412301839
 10
137.5251058372
 20
141.4450573046
 10
137.5321842065
 20
141.5451795044
 10
137.5063158639
 20
141.6443889064
  0
LINE
  5
364
100
AcDbEntity
  8
0
100
AcDbLine
 62
7
  6
CONTINUOUS
 10
136.8922011643
 20
141.2842449246
 11
136.8002309388
 21
141.2042011894
  0
LWPOLYLINE
  5
365
100
AcDbEntity
  8
0
100
AcDbPolyline
 62
7
  6
CONTINUOUS
 90
8
 70
0
 10
134.0827747336
 20
143.2300239319
 10
133.8125681215
 20
142.9977386875
 10
133.6034913835
 20
142.7840198432
 10
133.4594173972
 20
142.5911998902
 10
133.3687275298
 20
142.4122813551
 10
133.3190520421
 20
142.2416252225
 10
133.3165171313
 20
142.0774886104
 10
133.3452536718
 20
141.9735632156
  0
LWPOLYLINE
  5
366
100
AcDbEntity
  8
0
100
AcDbPolyline
 62
7
  6
CONTINUOUS
 90
8
 70
0
 10
138.491077531
 20
142.1025895086
 10
138.6345529782
 20
142.2257339092
 10
138.7433693036
 20
142.3431832386
 10
138.8167131232
 20
142.4552523554
 10
138.8570245886
 20
142.5609966834
 10
138.8657072494
 20
142.6592548616
 10
138.8450575269
 20
142.7509921021
 10
138.8379194418
 20
142.7680522011
  0
LWPOLYLINE
  5
367
100
AcDbEntity
  8
0
100
AcDbPolyline
 62
7
  6
CONTINUOUS
 90
8
 70
0
 10
134.0550796446
 20
143.2915234303
 10
133.7898097266
 20
143.0668553272
 10
133.5806961485
 20
142.8512872757
 10
133.428336897
 20
142.6440717137
 10
133.3309380112
 20
142.4474513279
 10
133.2874446499
 20
142.2638765157
 10
133.2962374398
 20
142.0919765827
 10
133.3353372158
 20
141.970821204
  0
LINE
  5
368
100
AcDbEntity
  8
0
100
AcDbLine
 62
7
  6
CONTINUOUS
 10
134.4454083134
 20
141.3439531523
 11
134.9234588147
 21
141.739066745
  0
LINE
  5
369
100
AcDbEntity
  8
0
100
AcDbLine
 62
7
  6
CONTINUOUS
 10
137.7110370601
 20
143.4453393522
 11
134.7414215541
 21
141.1456356896
  0
LINE
  5
36A
100
AcDbEntity
  8
0
100
AcDbLine
 62
7
  6
CONTINUOUS
 10
137.7387321492
 20
143.3838398537
 11
134.8071029844
 21
141.1135532413
  0
LINE
  5
36B
100
AcDbEntity
  8
0
100
AcDbLine
 62
7
  6
CONTINUOUS
 10
135.6695893213
 20
141.2832773168
 11
136.5289909934
 21
141.9488076419
  0
LINE
  5
36C
100
AcDbEntity
  8
0
100
AcDbLine
 62
7
  6
CONTINUOUS
 10
136.9714550866
 20
142.2914568143
 11
137.7032228602
 21
142.8581460122
  0
LINE
  5
36D
100
AcDbEntity
  8
0
100
AcDbLine
 62
7
  6
CONTINUOUS
 10
136.7619706739
 20
143.1835852464
 11
137.2968669233
 21
143.5563050785
  0
LWPOLYLINE
  5
36E
100
AcDbEntity
  8
0
100
AcDbPolyline
 62
7
  6
CONTINUOUS
 90
11
 70
0
 10
136.7725358498
 20
141.2657006879
 10
136.6824753003
 20
141.2033366292
 10
136.5908122083
 20
141.1539192213
 10
136.4968584112
 20
141.1175515925
 10
136.4026783968
 20
141.093924358
 10
136.309957126
 20
141.0832998068
 10
136.2191450167
 20
141.0840660461
 10
136.1312286162
 20
141.0951334892
 10
136.0462844963
 20
141.1151975061
 10
135.964768756
 20
141.1423817933
 10
135.8865293622
 20
141.1773117854
  0
LWPOLYLINE
  5
36F
100
AcDbEntity
  8
0
100
AcDbPolyline
 62
7
  6
CONTINUOUS
 90
11
 70
0
 10
137.9543215244
 20
142.2680601714
 10
137.8747824584
 20
142.2131222309
 10
137.7933442066
 20
142.1698307538
 10
137.7093654893
 20
142.1382491383
 10
137.624770146
 20
142.11818719
 10
137.5410114996
 20
142.1100123876
 10
137.458859821
 20
142.1121151101
 10
137.3796518607
 20
142.1234458238
 10
137.3031415028
 20
142.1426917446
 10
137.2295531483
 20
142.1679824156
 10
137.1588119969
 20
142.1999413224
  0
LWPOLYLINE
  5
370
100
AcDbEntity
  8
0
100
AcDbPolyline
 62
7
  6
CONTINUOUS
 90
11
 70
0
 10
136.8002309388
 20
141.2042011894
 10
136.7084529815
 20
141.1415677901
 10
136.6187964928
 20
141.0925537335
 10
136.5322419532
 20
141.0578588487
 10
136.4458479209
 20
141.0353836487
 10
136.3563208119
 20
141.0230296744
 10
136.2656975339
 20
141.0214936722
 10
136.1741888699
 20
141.031253337
 10
136.0839796096
 20
141.0508673642
 10
135.9976066847
 20
141.0788934217
 10
135.9142244512
 20
141.1158122869
  0
LWPOLYLINE
  5
371
100
AcDbEntity
  8
0
100
AcDbPolyline
 62
7
  6
CONTINUOUS
 90
8
 70
0
 10
137.9820166134
 20
142.2065606729
 10
137.9002833183
 20
142.1510683796
 10
137.8202249579
 20
142.1079618624
 10
137.7426876494
 20
142.0778679277
 10
137.6651330409
 20
142.0589061566
 10
137.5846980423
 20
142.0492433356
 10
137.5032029855
 20
142.0493646547
 10
137.4208663856
 20
142.0596357833
  0
LWPOLYLINE
  5
372
100
AcDbEntity
  8
0
100
AcDbPolyline
 62
7
  6
CONTINUOUS
 90
9
 70
0
 10
143.2868613257
 20
146.1172827265
 10
143.0242321211
 20
145.9433649881
 10
142.8189688201
 20
145.7866401013
 10
142.6753836757
 20
145.6495421046
 10
142.5805399289
 20
145.5247688824
 10
142.5225609074
 20
145.4071100773
 10
142.5025786044
 20
145.2927244541
 10
142.5173127487
 20
145.1755532695
 10
142.5181332665
 20
145.1732616597
  0
LWPOLYLINE
  5
373
100
AcDbEntity
  8
0
100
AcDbPolyline
 62
7
  6
CONTINUOUS
 90
9
 70
0
 10
143.2591662366
 20
146.178782225
 10
143.0296260304
 20
146.0291008674
 10
142.8425721923
 20
145.8907428365
 10
142.7006383205
 20
145.7678665955
 10
142.5959236204
 20
145.6479967541
 10
142.5175533667
 20
145.5166761867
 10
142.4770829502
 20
145.3840085612
 10
142.486814108
 20
145.2544071089
 10
142.5130780597
 20
145.1714516276
  0
LINE
  5
374
100
AcDbEntity
  8
0
100
AcDbLine
 62
7
  6
CONTINUOUS
 10
147.9223426642
 20
143.9010285833
 11
149.6749176168
 21
144.9800917373
  0
LINE
  5
375
100
AcDbEntity
  8
0
100
AcDbLine
 62
7
  6
CONTINUOUS
 10
144.8993369561
 20
145.6166096763
 11
146.4365050572
 21
146.561911794
  0
LINE
  5
376
100
AcDbEntity
  8
0
100
AcDbLine
 62
7
  6
CONTINUOUS
 10
148.2812902966
 20
145.6128448248
 11
146.8077010344
 21
144.7066413658
  0
LWPOLYLINE
  5
377
100
AcDbEntity
  8
0
100
AcDbPolyline
 62
7
  6
CONTINUOUS
 90
13
 70
0
 10
148.2535952076
 20
145.6743443233
 10
146.5846526541
 20
144.648997408
 10
146.3945301946
 20
144.5416346991
 10
146.2099142973
 20
144.4440785836
 10
146.0299777707
 20
144.3622515232
 10
145.8539150924
 20
144.3001463829
 10
145.6819369864
 20
144.2615777985
 10
145.5135495557
 20
144.2539964413
 10
145.3500611406
 20
144.2704870701
 10
145.1935004698
 20
144.3087304542
 10
145.0412124808
 20
144.3623892334
 10
144.8909710017
 20
144.4234641664
 10
144.74351809
 20
144.4946216669
  0
LINE
  5
378
100
AcDbEntity
  8
0
100
AcDbLine
 62
7
  6
CONTINUOUS
 10
150.1188657786
 20
144.7632428666
 11
149.3407768963
 21
144.2910651792
  0
LINE
  5
379
100
AcDbEntity
  8
0
100
AcDbLine
 62
7
  6
CONTINUOUS
 10
150.1465608676
 20
144.7017433681
 11
149.4122698121
 21
144.2561440794
  0
LINE
  5
37A
100
AcDbEntity
  8
0
100
AcDbLine
 62
7
  6
CONTINUOUS
 10
150.5315215781
 20
143.7094395261
 11
147.996954823
 21
142.1713557721
  0
LINE
  5
37B
100
AcDbEntity
  8
0
100
AcDbLine
 62
7
  6
CONTINUOUS
 10
150.5592166672
 20
143.6479400276
 11
148.0684477388
 21
142.1364346723
  0
LINE
  5
37C
100
AcDbEntity
  8
0
100
AcDbLine
 62
7
  6
CONTINUOUS
 10
149.4423674426
 20
141.4653361931
 11
151.9769341977
 21
143.0034199471
  0
LWPOLYLINE
  5
37D
100
AcDbEntity
  8
0
100
AcDbPolyline
 62
7
  6
CONTINUOUS
 90
13
 70
0
 10
146.8077010344
 20
144.7066413658
 10
146.5756955112
 20
144.5659434419
 10
146.3594141903
 20
144.4459828267
 10
146.1584038944
 20
144.3454625336
 10
145.9740241556
 20
144.2682735222
 10
145.8101144071
 20
144.2191984763
 10
145.6587817678
 20
144.1942652363
 10
145.5150460763
 20
144.1919283048
 10
145.3740086058
 20
144.2096903789
 10
145.2287031484
 20
144.2455058273
 10
145.0803519854
 20
144.2964741369
 10
144.9277178554
 20
144.3585651185
 10
144.771213179
 20
144.4331221684
  0
LINE
  5
37E
100
AcDbEntity
  8
0
100
AcDbLine
 62
7
  6
CONTINUOUS
 10
163.9579426716
 20
136.2314883259
 11
167.7425753619
 21
136.1548470001
  0
LWPOLYLINE
  5
37F
100
AcDbEntity
  8
0
100
AcDbPolyline
 62
7
  6
CONTINUOUS
 90
7
 70
0
 10
134.9234588147
 20
141.739066745
 10
134.8164815286
 20
141.7450255783
 10
134.71025352
 20
141.7588725177
 10
134.6045036368
 20
141.7808559113
 10
134.5000453358
 20
141.8102307152
 10
134.3976920743
 20
141.8462518856
 10
134.2971726999
 20
141.8891677703
  0
LINE
  5
380
100
AcDbEntity
  8
FASEN
100
AcDbLine
 62
7
  6
CONTINUOUS
 10
58.714872616
 20
141.8516509946
 11
58.3744688757
 21
141.8827586153
  0
LWPOLYLINE
  5
381
100
AcDbEntity
  8
FASEN
100
AcDbPolyline
 62
7
  6
CONTINUOUS
 90
3
 70
0
 10
104.3588003654
 20
144.0534304578
 10
104.0864292412
 20
144.1633999452
 10
103.7795791574
 20
144.2439823579
  0
LINE
  5
382
100
AcDbEntity
  8
FASEN
100
AcDbLine
 62
7
  6
CONTINUOUS
 10
165.4368063943
 20
112.1100460023
 11
117.3684604373
 21
135.589288479
  0
LINE
  5
383
100
AcDbEntity
  8
FASEN
100
AcDbLine
 62
7
  6
CONTINUOUS
 10
100.6253096774
 20
143.7675706456
 11
88.9217097851
 21
149.484257048
  0
LINE
  5
384
100
AcDbEntity
  8
FASEN
100
AcDbLine
 62
7
  6
CONTINUOUS
 10
116.1505985224
 20
138.2936631379
 11
104.3588003654
 21
144.0534304578
  0
LINE
  5
385
100
AcDbEntity
  8
0
100
AcDbLine
 62
7
  6
CONTINUOUS
 10
132.4372554945
 20
142.2711180116
 11
134.5062407524
 21
145.0107393696
  0
LINE
  5
386
100
AcDbEntity
  8
0
100
AcDbLine
 62
7
  6
CONTINUOUS
 10
132.411270781
 20
143.1434616002
 11
131.9277749296
 21
142.5199765376
  0
LINE
  5
387
100
AcDbEntity
  8
0
100
AcDbLine
 62
7
  6
CONTINUOUS
 10
132.4389658701
 20
143.0819621017
 11
131.9748513932
 21
142.4834700096
  0
LINE
  5
388
100
AcDbEntity
  8
0
100
AcDbLine
 62
7
  6
CONTINUOUS
 10
154.4275719684
 20
142.6586321217
 11
151.2034401873
 21
140.6051307259
  0
LINE
  5
389
100
AcDbEntity
  8
0
100
AcDbLine
 62
7
  6
CONTINUOUS
 10
154.4552670575
 20
142.5971326232
 11
151.273762697
 21
140.5707813173
  0
LINE
  5
38A
100
AcDbEntity
  8
0
100
AcDbLine
 62
7
  6
CONTINUOUS
 10
152.7899526103
 20
139.830190188
 11
154.0446147452
 21
140.6293046847
  0
LINE
  5
38B
100
AcDbEntity
  8
0
100
AcDbLine
 62
7
  6
CONTINUOUS
 10
154.465236771
 20
140.8972056192
 11
155.318683419
 21
141.440779518
  0
LINE
  5
38C
100
AcDbEntity
  8
0
100
AcDbLine
 62
7
  6
CONTINUOUS
 10
153.1676788796
 20
142.4217942939
 11
153.9457677619
 21
142.8939719813
  0
LWPOLYLINE
  5
38D
100
AcDbEntity
  8
0
100
AcDbPolyline
 62
7
  6
CONTINUOUS
 90
19
 70
0
 10
156.2564984371
 20
140.5024764661
 10
156.163147264
 20
140.4523357382
 10
156.0675008905
 20
140.4171058049
 10
155.9681315501
 20
140.3977071033
 10
155.8693225419
 20
140.3913783217
 10
155.7766095611
 20
140.3963852836
 10
155.6848076519
 20
140.4105670202
 10
155.5894598895
 20
140.4316451043
 10
155.4939178757
 20
140.4582377351
 10
155.4011868361
 20
140.4880081621
 10
155.3078489749
 20
140.5215428071
 10
155.2110118252
 20
140.5588739526
 10
155.1121046262
 20
140.599327266
 10
155.0120164529
 20
140.6421100399
 10
154.9094753312
 20
140.6876096812
 10
154.803431446
 20
140.7360072473
 10
154.6941073947
 20
140.787129079
 10
154.5813599187
 20
140.8408477063
 10
154.465236771
 20
140.8972056192
  0
LWPOLYLINE
  5
38E
100
AcDbEntity
  8
0
100
AcDbPolyline
 62
7
  6
CONTINUOUS
 90
19
 70
0
 10
156.2841935261
 20
140.4409769676
 10
156.194944019
 20
140.3935042675
 10
156.1077481234
 20
140.3592998309
 10
156.0234511986
 20
140.3392986161
 10
155.9395171666
 20
140.330695748
 10
155.8535805063
 20
140.3312565023
 10
155.7659749053
 20
140.3402053857
 10
155.6763202982
 20
140.3562644873
 10
155.5843924223
 20
140.3787063367
 10
155.4899040773
 20
140.4065141957
 10
155.3926640115
 20
140.4392779573
 10
155.2924419406
 20
140.4763237375
 10
155.1890677624
 20
140.5174261289
 10
155.0823465967
 20
140.5621752139
 10
154.9721224943
 20
140.6104506388
 10
154.8582267248
 20
140.6620130784
 10
154.7405027523
 20
140.7168095284
 10
154.6187112
 20
140.7746906117
 10
154.4929318601
 20
140.8357061207
  0
LWPOLYLINE
  5
38F
100
AcDbEntity
  8
FASEN
100
AcDbPolyline
 62
7
  6
CONTINUOUS
 90
6
 70
0
 10
103.5682097201
 20
144.2549524606
 10
103.0734812075
 20
144.2522178514
 10
102.5533394977
 20
144.199160402
 10
102.0156284153
 20
144.0981926078
 10
101.473248717
 20
143.9513161686
 10
100.9219001505
 20
143.7578638512
  0
LINE
  5
390
100
AcDbEntity
  8
FASEN
100
AcDbLine
 62
7
  6
CONTINUOUS
 10
100.6253096774
 20
143.7675706456
 11
100.7700752568
 21
143.7633477524
  0
LINE
  5
391
100
AcDbEntity
  8
FASEN
100
AcDbLine
 62
7
  6
CONTINUOUS
 10
100.7700752568
 20
143.7633477524
 11
100.9219001505
 21
143.7578638512
  0
LWPOLYLINE
  5
392
100
AcDbEntity
  8
0
100
AcDbPolyline
 62
7
  6
CONTINUOUS
 90
5
 70
0
 10
134.8541191683
 20
141.6817568233
 10
134.7654215844
 20
141.6927356607
 10
134.6573285044
 20
141.7137996209
 10
134.5449426114
 20
141.7434898341
 10
134.4348546813
 20
141.7814010199
  0
LWPOLYLINE
  5
393
100
AcDbEntity
  8
FASEN
100
AcDbPolyline
 62
7
  6
CONTINUOUS
 90
8
 70
0
 10
103.6348024475
 20
144.2697191095
 10
103.441272053
 20
144.2938527956
 10
103.076617312
 20
144.3118947027
 10
102.6914272255
 20
144.2978228631
 10
102.2902094143
 20
144.2519162837
 10
101.8782320046
 20
144.1748650546
 10
101.4601571227
 20
144.0675956963
 10
101.0407114902
 20
143.9312718566
  0
LWPOLYLINE
  5
394
100
AcDbEntity
  8
0
100
AcDbPolyline
 62
7
  6
CONTINUOUS
 90
9
 70
0
 10
137.3619842537
 20
141.8051958489
 10
137.5085312822
 20
141.7842496698
 10
137.6559997027
 20
141.7814734851
 10
137.8058402297
 20
141.7977043677
 10
137.9537007196
 20
141.8304310989
 10
138.0951945053
 20
141.8773685378
 10
138.2318758713
 20
141.9386755231
 10
138.3638483877
 20
142.0136738207
 10
138.491077531
 20
142.1025895086
  0
LINE
  5
395
100
AcDbEntity
  8
FASEN
100
AcDbLine
 62
7
  6
CONTINUOUS
 10
103.7795791574
 20
144.2439823579
 11
103.6348024475
 21
144.2697191095
  0
LINE
  5
396
100
AcDbEntity
  8
FASEN
100
AcDbLine
 62
9
  6
CONTINUOUS
 10
176.9630724149
 20
137.2107590833
 11
177.3985094107
 21
137.1332319571
  0
LWPOLYLINE
  5
397
100
AcDbEntity
  8
0
100
AcDbPolyline
 62
7
  6
CONTINUOUS
 90
4
 70
0
 10
137.4208663856
 20
142.0596357833
 10
137.339630603
 20
142.0785820689
 10
137.2617627362
 20
142.1046816539
 10
137.1865070859
 20
142.1384418239
  0
LWPOLYLINE
  5
398
100
AcDbEntity
  8
FASEN
100
AcDbPolyline
 62
7
  6
CONTINUOUS
 90
26
 70
0
 10
160.3332255812
 20
124.332418573
 10
161.0545967621
 20
124.0386459317
 10
161.8502811944
 20
123.82079198
 10
162.7252369143
 20
123.6782823222
 10
163.6645898132
 20
123.6128401452
 10
164.6590219586
 20
123.6264732702
 10
165.6968228585
 20
123.7177533994
 10
166.7672315279
 20
123.8869560838
 10
167.8580815127
 20
124.1309775978
 10
168.9576462545
 20
124.4483508052
 10
170.0538450821
 20
124.8344414885
 10
171.1345191655
 20
125.2861156428
 10
172.1881764233
 20
125.7974054943
 10
173.2027379059
 20
126.3636468878
 10
174.167805388
 20
126.9777949624
 10
175.0719010795
 20
127.6338534781
 10
175.9061847251
 20
128.3240124166
 10
176.6602892906
 20
129.0412075802
 10
177.3273173226
 20
129.7772052672
 10
177.8984662582
 20
130.5241812176
 10
178.3690843915
 20
131.2738429091
 10
178.7323224432
 20
132.0179540557
 10
178.9859705707
 20
132.748521687
 10
179.1254253909
 20
133.457259622
 10
179.151018245
 20
134.1368112057
 10
179.0605886354
 20
134.7791858546
  0
LWPOLYLINE
  5
399
100
AcDbEntity
  8
FASEN
100
AcDbPolyline
 62
7
  6
CONTINUOUS
 90
27
 70
0
 10
160.1747394758
 20
123.7949507143
 10
160.9172438615
 20
123.4918256063
 10
161.7459860878
 20
123.2650494875
 10
162.6519095589
 20
123.117119604
 10
163.625084818
 20
123.0496729547
 10
164.6548450458
 20
123.0634591855
 10
165.7298979858
 20
123.1583337304
 10
166.8384479864
 20
123.3332584534
 10
167.9683448381
 20
123.5863165914
 10
169.1071942351
 20
123.9147309953
 10
170.2425283783
 20
124.3149047204
 10
171.3619128888
 20
124.7824549603
 10
172.4530844733
 20
125.3122601881
 10
173.5040915723
 20
125.8985188659
 10
174.5034129783
 20
126.5348058918
 10
175.4400964785
 20
127.2141486136
 10
176.3038762661
 20
127.9291019542
 10
177.085286065
 20
128.6718303932
 10
177.7757628968
 20
129.4341938745
 10
178.367739921
 20
130.2078354973
 10
178.8547353804
 20
130.984281772
 10
179.2314150496
 20
131.7550262925
 10
179.4936536818
 20
132.5116280338
 10
179.6385779573
 20
133.2458036191
 10
179.6645961844
 20
133.9494997983
 10
179.5714236448
 20
134.615004265
 10
179.3636060438
 20
135.227226881
  0
LINE
  5
39A
100
AcDbEntity
  8
FASEN
100
AcDbLine
 62
7
  6
CONTINUOUS
 10
85.8905867969
 20
156.2151450881
 11
80.2310593192
 21
158.9795717665
  0
LINE
  5
39B
100
AcDbEntity
  8
FASEN
100
AcDbLine
 62
7
  6
CONTINUOUS
 10
83.6596428666
 20
161.16916176
 11
95.3632427589
 21
155.4524753576
  0
LINE
  5
39C
100
AcDbEntity
  8
FASEN
100
AcDbLine
 62
7
  6
CONTINUOUS
 10
112.1063935189
 20
147.274193191
 11
160.1747394758
 21
123.7949507143
  0
LINE
  5
39D
100
AcDbEntity
  8
FASEN
100
AcDbLine
 62
7
  6
CONTINUOUS
 10
83.9131622275
 20
161.6602101132
 11
95.3828823415
 21
156.0577635481
  0
LINE
  5
39E
100
AcDbEntity
  8
FASEN
100
AcDbLine
 62
7
  6
CONTINUOUS
 10
112.403726147
 20
147.7438407178
 11
160.3332255812
 21
124.332418573
  0
LWPOLYLINE
  5
39F
100
AcDbEntity
  8
FASEN
100
AcDbPolyline
 62
7
  6
CONTINUOUS
 90
4
 70
0
 10
136.6884685101
 20
102.7222071639
 10
136.3721267616
 20
103.2701207797
 10
135.9483135427
 20
103.7620060303
 10
135.4231261793
 20
104.1893412804
  0
LWPOLYLINE
  5
3A0
100
AcDbEntity
  8
FASEN
100
AcDbPolyline
 62
7
  6
CONTINUOUS
 90
5
 70
0
 10
137.1950658582
 20
102.5714348728
 10
136.8643724893
 20
103.1469437888
 10
136.4249636627
 20
103.6561524331
 10
135.8781607871
 20
104.1012712184
 10
135.2299692252
 20
104.4774399489
  0
LINE
  5
3A1
100
AcDbEntity
  8
FASEN
100
AcDbLine
 62
7
  6
CONTINUOUS
 10
117.3684604373
 20
135.589288479
 11
112.1063935189
 21
147.274193191
  0
LINE
  5
3A2
100
AcDbEntity
  8
FASEN
100
AcDbLine
 62
9
  6
CONTINUOUS
 10
111.7137202751
 20
149.5754999991
 11
112.4309757011
 21
147.9827682006
  0
LINE
  5
3A3
100
AcDbEntity
  8
0
100
AcDbLine
 62
7
  6
CONTINUOUS
 10
142.4571327767
 20
90.8865301608
 11
137.1950658582
 21
102.5714348728
  0
LWPOLYLINE
  5
3A4
100
AcDbEntity
  8
FASEN
100
AcDbPolyline
 62
7
  6
CONTINUOUS
 90
7
 70
0
 10
112.3913398038
 20
148.9182568694
 10
112.4135881944
 20
148.8653906356
 10
112.47838138
 20
148.6315916039
 10
112.4964557875
 20
148.3809780528
 10
112.4676767822
 20
148.1167631481
 10
112.3924298908
 20
147.8420381819
 10
112.2715217662
 20
147.5599834225
  0
LINE
  5
3A5
100
AcDbEntity
  8
FASEN
100
AcDbLine
 62
9
  6
CONTINUOUS
 10
118.1646853956
 20
91.6766265648
 11
118.0061992903
 21
91.1391587061
  0
LWPOLYLINE
  5
3A6
100
AcDbEntity
  8
0
100
AcDbPolyline
 62
7
  6
CONTINUOUS
 90
4
 70
0
 10
138.1511563877
 20
142.3940674592
 10
138.1175350134
 20
142.3382196322
 10
138.0608035968
 20
142.2754203486
 10
137.9820166134
 20
142.2065606729
  0
LWPOLYLINE
  5
3A7
100
AcDbEntity
  8
0
100
AcDbPolyline
 62
7
  6
CONTINUOUS
 90
17
 70
0
 10
158.0405436831
 20
139.7631627806
 10
157.902898972
 20
139.6694026477
 10
157.7644804544
 20
139.5964947671
 10
157.6261900596
 20
139.5454091966
 10
157.4853219995
 20
139.5132357629
 10
157.3379023846
 20
139.497918736
 10
157.1886374491
 20
139.4978648443
 10
157.0415004064
 20
139.5115251322
 10
156.8947164302
 20
139.536710922
 10
156.747492206
 20
139.5711865599
 10
156.6008564113
 20
139.6135440201
 10
156.4566841061
 20
139.6614334531
 10
156.3116428282
 20
139.7154446765
 10
156.1627004308
 20
139.7755736226
 10
156.0108310266
 20
139.8412520978
 10
155.8559934371
 20
139.911839359
 10
155.6982013883
 20
139.9875489872
  0
LINE
  5
3A8
100
AcDbEntity
  8
0
100
AcDbLine
 62
7
  6
CONTINUOUS
 10
159.9201399229
 20
139.9757577216
 11
156.6409448039
 21
137.9491523098
  0
LINE
  5
3A9
100
AcDbEntity
  8
0
100
AcDbLine
 62
7
  6
CONTINUOUS
 10
159.947835012
 20
139.9142582231
 11
156.711995326
 21
137.9144472996
  0
LINE
  5
3AA
100
AcDbEntity
  8
0
100
AcDbLine
 62
7
  6
CONTINUOUS
 10
158.3307009854
 20
137.123781802
 11
161.6098961044
 21
139.1503872138
  0
LINE
  5
3AB
100
AcDbEntity
  8
0
100
AcDbLine
 62
7
  6
CONTINUOUS
 10
162.4668193003
 20
138.7318184634
 11
159.1256779262
 21
136.7354710335
  0
LINE
  5
3AC
100
AcDbEntity
  8
0
100
AcDbLine
 62
7
  6
CONTINUOUS
 10
162.4945143894
 20
138.6703189649
 11
159.1975474623
 21
136.7003659715
  0
LINE
  5
3AD
100
AcDbEntity
  8
0
100
AcDbLine
 62
7
  6
CONTINUOUS
 10
160.6984245147
 20
135.9672544916
 11
162.1970246898
 21
136.86267503
  0
LINE
  5
3AE
100
AcDbEntity
  8
0
100
AcDbLine
 62
7
  6
CONTINUOUS
 10
162.5163984977
 20
137.0535023579
 11
164.0395658888
 21
137.9636019215
  0
LINE
  5
3AF
100
AcDbEntity
  8
FASEN
100
AcDbLine
 62
7
  6
CONTINUOUS
 10
58.3744688757
 20
141.8827586153
 11
52.9826316185
 21
140.6750697268
  0
LWPOLYLINE
  5
3B0
100
AcDbEntity
  8
0
100
AcDbPolyline
 62
7
  6
CONTINUOUS
 90
10
 70
0
 10
136.9285995409
 20
143.8440274383
 10
136.6502507005
 20
143.9474664994
 10
136.3754783805
 20
144.0103186669
 10
136.1050438436
 20
144.0300692455
 10
135.8366633016
 20
144.0142623206
 10
135.5704433558
 20
143.9707773702
 10
135.2999740999
 20
143.8960935217
 10
135.0203006075
 20
143.7921605852
 10
134.7271645395
 20
143.6504459912
 10
134.4139171672
 20
143.4620817776
  0
LWPOLYLINE
  5
3B1
100
AcDbEntity
  8
0
100
AcDbPolyline
 62
7
  6
CONTINUOUS
 90
11
 70
0
 10
136.9009044518
 20
143.9055269368
 10
136.6485521682
 20
144.004988109
 10
136.3833445326
 20
144.0666148381
 10
136.1025832743
 20
144.0897061656
 10
135.8143632059
 20
144.0763649671
 10
135.5269100663
 20
144.0281080983
 10
135.2371328053
 20
143.9459926605
 10
134.9444236853
 20
143.831869605
 10
134.6495585074
 20
143.6848742371
 10
134.3531821466
 20
143.5047278816
 10
134.0550796446
 20
143.2915234303
  0
LWPOLYLINE
  5
3B2
100
AcDbEntity
  8
0
100
AcDbPolyline
 62
7
  6
CONTINUOUS
 90
11
 70
0
 10
135.543442643
 20
140.7538841691
 10
135.6959764352
 20
140.6906413542
 10
135.8564647093
 20
140.6470079961
 10
136.0267399341
 20
140.6225443813
 10
136.2013047026
 20
140.6185696507
 10
136.375779369
 20
140.6369111877
 10
136.5486431183
 20
140.6756045509
 10
136.7156503792
 20
140.7329529234
 10
136.8805957747
 20
140.8099808162
 10
137.0461561664
 20
140.9072044979
 10
137.2114392672
 20
141.0244518789
  0
LINE
  5
3B3
100
AcDbEntity
  8
0
100
AcDbLine
 62
7
  6
CONTINUOUS
 10
134.4348546813
 20
141.7814010199
 11
134.3248677889
 21
141.8276682719
  0
LWPOLYLINE
  5
3B4
100
AcDbEntity
  8
0
100
AcDbPolyline
 62
7
  6
CONTINUOUS
 90
7
 70
0
 10
133.8291817385
 20
141.5267503039
 10
133.9155874743
 20
141.4887378931
 10
134.0089204345
 20
141.4539286014
 10
134.109562882
 20
141.4224955206
 10
134.2163680282
 20
141.3939193748
 10
134.3281890843
 20
141.367680888
 10
134.4454083134
 20
141.3439531523
  0
LINE
  5
3B5
100
AcDbEntity
  8
FASEN
100
AcDbLine
 62
7
  6
CONTINUOUS
 10
99.0967334469
 20
155.7383351699
 11
111.7137202751
 21
149.5754999991
  0
LINE
  5
3B6
100
AcDbEntity
  8
FASEN
100
AcDbLine
 62
7
  6
CONTINUOUS
 10
99.2552195522
 20
156.2758030285
 11
111.8722063805
 21
150.1129678577
  0
LINE
  5
3B7
100
AcDbEntity
  8
0
100
AcDbLine
 62
7
  6
CONTINUOUS
 10
124.5156551667
 20
146.1404663571
 11
124.9758311178
 21
145.9156909353
  0
LINE
  5
3B8
100
AcDbEntity
  8
0
100
AcDbLine
 62
7
  6
CONTINUOUS
 10
125.8961829516
 20
145.4661401251
 11
126.3563589369
 21
145.2413646866
  0
LINE
  5
3B9
100
AcDbEntity
  8
0
100
AcDbLine
 62
7
  6
CONTINUOUS
 10
127.3062936278
 20
144.7773639705
 11
127.7664693396
 21
144.5525886656
  0
LINE
  5
3BA
100
AcDbEntity
  8
0
100
AcDbLine
 62
7
  6
CONTINUOUS
 10
128.7164041673
 20
144.0885878827
 11
130.067349266
 21
143.4287114731
  0
LINE
  5
3BB
100
AcDbEntity
  8
0
100
AcDbLine
 62
7
  6
CONTINUOUS
 10
130.1232274796
 20
143.4014174587
 11
130.5998385071
 21
143.1686142353
  0
LINE
  5
3BC
100
AcDbEntity
  8
0
100
AcDbLine
 62
7
  6
CONTINUOUS
 10
131.9277749296
 20
142.5199765376
 11
132.4372554945
 21
142.2711180116
  0
LINE
  5
3BD
100
AcDbEntity
  8
0
100
AcDbLine
 62
7
  6
CONTINUOUS
 10
134.7414215541
 20
141.1456356896
 11
135.543442643
 21
140.7538841691
  0
LINE
  5
3BE
100
AcDbEntity
  8
FASEN
100
AcDbLine
 62
7
  6
CONTINUOUS
 10
74.9689924007
 20
170.6644764785
 11
83.4579236587
 21
166.5180122845
  0
LINE
  5
3BF
100
AcDbEntity
  8
0
100
AcDbLine
 62
7
  6
CONTINUOUS
 10
135.9142244512
 20
141.1158122869
 11
135.6972844103
 21
141.2217778183
  0
LINE
  5
3C0
100
AcDbEntity
  8
0
100
AcDbLine
 62
7
  6
CONTINUOUS
 10
130.4973538862
 20
143.7617118894
 11
129.6722659296
 21
144.1647305457
  0
LINE
  5
3C1
100
AcDbEntity
  8
0
100
AcDbLine
 62
7
  6
CONTINUOUS
 10
135.8865293622
 20
141.1773117854
 11
135.6695893213
 21
141.2832773168
  0
LINE
  5
3C2
100
AcDbEntity
  8
0
100
AcDbLine
 62
7
  6
CONTINUOUS
 10
130.5353402274
 20
143.7911289395
 11
129.6445708405
 21
144.2262300442
  0
LINE
  5
3C3
100
AcDbEntity
  8
0
100
AcDbLine
 62
7
  6
CONTINUOUS
 10
131.4810579492
 20
143.5978290679
 11
132.411270781
 21
143.1434616002
  0
LINE
  5
3C4
100
AcDbEntity
  8
FASEN
100
AcDbLine
 62
7
  6
CONTINUOUS
 10
75.1043013115
 20
171.2132653627
 11
83.6395869588
 21
167.0441591176
  0
LINE
  5
3C5
100
AcDbEntity
  8
0
100
AcDbLine
 62
7
  6
CONTINUOUS
 10
132.7787650886
 20
143.5069955154
 11
132.1082226963
 21
143.8345255584
  0
LINE
  5
3C6
100
AcDbEntity
  8
0
100
AcDbLine
 62
7
  6
CONTINUOUS
 10
132.7510699995
 20
143.5684950138
 11
132.0805276073
 21
143.8960250568
  0
LINE
  5
3C7
100
AcDbEntity
  8
0
100
AcDbLine
 62
7
  6
CONTINUOUS
 10
126.2776969274
 20
146.9238704671
 11
127.1980487612
 21
146.4743196569
  0
LINE
  5
3C8
100
AcDbEntity
  8
0
100
AcDbLine
 62
7
  6
CONTINUOUS
 10
136.5289909934
 20
141.9488076419
 11
136.7459310344
 21
141.8428421105
  0
LINE
  5
3C9
100
AcDbEntity
  8
0
100
AcDbLine
 62
7
  6
CONTINUOUS
 10
137.1865070859
 20
142.1384418239
 11
136.9991501757
 21
142.2299573159
  0
LINE
  5
3CA
100
AcDbEntity
  8
0
100
AcDbLine
 62
7
  6
CONTINUOUS
 10
127.6937347674
 20
146.7752375906
 11
126.7733829336
 21
147.2247884008
  0
LINE
  5
3CB
100
AcDbEntity
  8
0
100
AcDbLine
 62
7
  6
CONTINUOUS
 10
137.1588119969
 20
142.1999413224
 11
136.9714550866
 21
142.2914568143
  0
LINE
  5
3CC
100
AcDbEntity
  8
0
100
AcDbLine
 62
7
  6
CONTINUOUS
 10
127.6660396784
 20
146.8367370891
 11
126.7456878446
 21
147.2862878993
  0
LINE
  5
3CD
100
AcDbEntity
  8
0
100
AcDbLine
 62
7
  6
CONTINUOUS
 10
129.1505238245
 20
147.0357579207
 11
129.8079181282
 21
146.7146501323
  0
LINE
  5
3CE
100
AcDbEntity
  8
0
100
AcDbLine
 62
7
  6
CONTINUOUS
 10
130.26809384
 20
146.4898748274
 11
130.9254881437
 21
146.1687670391
  0
LINE
  5
3CF
100
AcDbEntity
  8
0
100
AcDbLine
 62
7
  6
CONTINUOUS
 10
137.7032228602
 20
142.8581460122
 11
137.8807183623
 21
142.7714473783
  0
LWPOLYLINE
  5
3D0
100
AcDbEntity
  8
0
100
AcDbPolyline
 62
7
  6
CONTINUOUS
 90
6
 70
0
 10
137.8807183623
 20
142.7714473783
 10
137.9537427643
 20
142.7353152592
 10
138.0165122139
 20
142.6959177783
 10
138.0708226661
 20
142.6535520631
 10
138.1112862558
 20
142.607326731
 10
138.1252462982
 20
142.5821737795
  0
LWPOLYLINE
  5
3D1
100
AcDbEntity
  8
0
100
AcDbPolyline
 62
7
  6
CONTINUOUS
 90
5
 70
0
 10
136.7459310344
 20
141.8428421105
 10
136.8242144099
 20
141.8022259105
 10
136.889180413
 20
141.7573210645
 10
136.9423473209
 20
141.7081945271
 10
136.9815976807
 20
141.6494385094
  0
LWPOLYLINE
  5
3D2
100
AcDbEntity
  8
FASEN
100
AcDbPolyline
 62
7
  6
CONTINUOUS
 90
5
 70
0
 10
111.7137202751
 20
149.5754999991
 10
111.9500932622
 20
149.4368554855
 10
112.1473067043
 20
149.2709981046
 10
112.3026832208
 20
149.079606794
 10
112.3913398038
 20
148.9182568694
  0
LWPOLYLINE
  5
3D3
100
AcDbEntity
  8
FASEN
100
AcDbPolyline
 62
7
  6
CONTINUOUS
 90
7
 70
0
 10
111.8722063805
 20
150.1129678577
 10
112.1769016225
 20
149.92814358
 10
112.4163557321
 20
149.7050857537
 10
112.5922422589
 20
149.4409636441
 10
112.6995405542
 20
149.1442694555
 10
112.7331649746
 20
148.8207371944
 10
112.6949840538
 20
148.4758107202
  0
LWPOLYLINE
  5
3D4
100
AcDbEntity
  8
0
100
AcDbPolyline
 62
7
  6
CONTINUOUS
 90
3
 70
0
 10
134.2971726999
 20
141.8891677703
 10
134.1715430693
 20
141.9680156569
 10
134.0818563353
 20
142.0588030507
  0
LWPOLYLINE
  5
3D5
100
AcDbEntity
  8
0
100
AcDbPolyline
 62
7
  6
CONTINUOUS
 90
3
 70
0
 10
134.3248677889
 20
141.8276682719
 10
134.199467852
 20
141.90775556
 10
134.109913604
 20
141.9968056542
  0
LINE
  5
3D6
100
AcDbEntity
  8
FASEN
100
AcDbLine
 62
7
  6
CONTINUOUS
 10
136.8920484499
 20
102.1233938465
 11
136.6884685101
 21
102.7222071639
  0
LWPOLYLINE
  5
3D7
100
AcDbEntity
  8
FASEN
100
AcDbPolyline
 62
7
  6
CONTINUOUS
 90
8
 70
0
 10
142.4571327767
 20
90.8865301608
 10
142.6649503777
 20
90.2743075448
 10
142.7581229173
 20
89.6088030781
 10
142.7321046902
 20
88.9051068989
 10
142.5871804148
 20
88.1709313136
 10
142.3249417826
 20
87.4143295723
 10
141.9482621134
 20
86.6435850518
 10
141.6599990438
 20
86.1638610729
  0
LINE
  5
3D8
100
AcDbEntity
  8
0
100
AcDbLine
 62
7
  6
CONTINUOUS
 10
134.1173861378
 20
151.0905088026
 11
134.1272279974
 21
148.9460985418
  0
LINE
  5
3D9
100
AcDbEntity
  8
0
100
AcDbLine
 62
7
  6
CONTINUOUS
 10
134.1450812268
 20
151.0290093041
 11
134.1546402546
 21
148.9462243515
  0
LINE
  5
3DA
100
AcDbEntity
  8
0
100
AcDbLine
 62
7
  6
CONTINUOUS
 10
137.0234754678
 20
141.5384998215
 11
137.0212915678
 21
141.4814053549
  0
LINE
  5
3DB
100
AcDbEntity
  8
0
100
AcDbLine
 62
7
  6
CONTINUOUS
 10
135.8259577464
 20
149.6689393838
 11
135.9402573796
 21
151.6888605045
  0
LWPOLYLINE
  5
3DC
100
AcDbEntity
  8
0
100
AcDbPolyline
 62
7
  6
CONTINUOUS
 90
4
 70
0
 10
137.0212915678
 20
141.4814053549
 10
137.001349946
 20
141.4218725277
 10
136.9597013444
 20
141.3571268639
 10
136.8922011643
 20
141.2842449246
  0
LWPOLYLINE
  5
3DD
100
AcDbEntity
  8
0
100
AcDbPolyline
 62
7
  6
CONTINUOUS
 90
3
 70
0
 10
156.404219396
 20
140.5404666622
 10
156.3547239057
 20
140.4927670481
 10
156.2841935261
 20
140.4409769676
  0
LWPOLYLINE
  5
3DE
100
AcDbEntity
  8
0
100
AcDbPolyline
 62
7
  6
CONTINUOUS
 90
17
 70
0
 10
144.0836542775
 20
144.0828285004
 10
144.331618371
 20
143.9635777124
 10
144.574994395
 20
143.8526800102
 10
144.8135152143
 20
143.7496367495
 10
145.047982234
 20
143.6559438636
 10
145.2774818939
 20
143.5725194662
 10
145.5068919547
 20
143.5005983718
 10
145.7422597322
 20
143.4401148012
 10
145.9791629998
 20
143.3958886488
 10
146.2140080059
 20
143.3719466612
 10
146.4503566409
 20
143.3706025021
 10
146.692982163
 20
143.3964303379
 10
146.9346567165
 20
143.4466754068
 10
147.1639621642
 20
143.5186869816
 10
147.3982426092
 20
143.6167271256
 10
147.6527283664
 20
143.744596637
 10
147.9223426642
 20
143.9010285833
  0
LINE
  5
3DF
100
AcDbEntity
  8
0
100
AcDbLine
 62
7
  6
CONTINUOUS
 10
138.540753238
 20
142.9920883332
 11
137.7387321492
 21
143.3838398537
  0
LINE
  5
3E0
100
AcDbEntity
  8
0
100
AcDbLine
 62
7
  6
CONTINUOUS
 10
134.4873224241
 20
144.9720084459
 11
134.0145944153
 21
145.2029149878
  0
LINE
  5
3E1
100
AcDbEntity
  8
0
100
AcDbLine
 62
7
  6
CONTINUOUS
 10
132.1082090439
 20
146.1340991902
 11
131.7137147624
 21
146.3267920467
  0
LINE
  5
3E2
100
AcDbEntity
  8
0
100
AcDbLine
 62
7
  6
CONTINUOUS
 10
131.3554928081
 20
146.5017674897
 11
129.6462099192
 21
147.3366759229
  0
LINE
  5
3E3
100
AcDbEntity
  8
0
100
AcDbLine
 62
7
  6
CONTINUOUS
 10
129.2879881016
 20
147.5116512991
 11
128.8934935467
 21
147.7043442892
  0
LINE
  5
3E4
100
AcDbEntity
  8
0
100
AcDbLine
 62
7
  6
CONTINUOUS
 10
127.9074602826
 20
148.1859775477
 11
127.5129657618
 21
148.3786705212
  0
LINE
  5
3E5
100
AcDbEntity
  8
0
100
AcDbLine
 62
7
  6
CONTINUOUS
 10
138.513058149
 20
143.0535878317
 11
137.7110370601
 21
143.4453393522
  0
LINE
  5
3E6
100
AcDbEntity
  8
0
100
AcDbLine
 62
7
  6
CONTINUOUS
 10
134.5062407524
 20
145.0107393696
 11
133.9868993263
 21
145.2644144863
  0
LINE
  5
3E7
100
AcDbEntity
  8
0
100
AcDbLine
 62
7
  6
CONTINUOUS
 10
132.1461953851
 20
146.1635162403
 11
131.6860196734
 21
146.3882915452
  0
LINE
  5
3E8
100
AcDbEntity
  8
0
100
AcDbLine
 62
7
  6
CONTINUOUS
 10
131.3934791494
 20
146.5311845398
 11
129.6185148301
 21
147.3981754214
  0
LINE
  5
3E9
100
AcDbEntity
  8
0
100
AcDbLine
 62
7
  6
CONTINUOUS
 10
129.3259744429
 20
147.5410683491
 11
128.8657984576
 21
147.7658437876
  0
LINE
  5
3EA
100
AcDbEntity
  8
0
100
AcDbLine
 62
7
  6
CONTINUOUS
 10
127.9454466238
 20
148.2153945978
 11
127.4852706727
 21
148.4401700196
  0
LINE
  5
3EB
100
AcDbEntity
  8
0
100
AcDbLine
 62
7
  6
CONTINUOUS
 10
130.4548861787
 20
150.7398736822
 11
132.1652911119
 21
149.9044171804
  0
LINE
  5
3EC
100
AcDbEntity
  8
0
100
AcDbLine
 62
7
  6
CONTINUOUS
 10
134.1272279974
 20
148.9460985418
 11
136.168012958
 21
147.9492661362
  0
LINE
  5
3ED
100
AcDbEntity
  8
0
100
AcDbLine
 62
7
  6
CONTINUOUS
 10
137.0355470276
 20
147.5255144474
 11
141.11367549
 21
145.5335306353
  0
LINE
  5
3EE
100
AcDbEntity
  8
0
100
AcDbLine
 62
7
  6
CONTINUOUS
 10
147.996954823
 20
142.1713557721
 11
149.4423674426
 21
141.4653361931
  0
LINE
  5
3EF
100
AcDbEntity
  8
0
100
AcDbLine
 62
7
  6
CONTINUOUS
 10
151.2034401873
 20
140.6051307259
 11
152.7899526103
 21
139.830190188
  0
LINE
  5
3F0
100
AcDbEntity
  8
0
100
AcDbLine
 62
7
  6
CONTINUOUS
 10
154.2078335609
 20
139.137618601
 11
156.1212845526
 21
138.2029831584
  0
LINE
  5
3F1
100
AcDbEntity
  8
0
100
AcDbLine
 62
7
  6
CONTINUOUS
 10
156.6409448039
 20
137.9491523098
 11
158.3307009854
 21
137.123781802
  0
LINE
  5
3F2
100
AcDbEntity
  8
0
100
AcDbLine
 62
7
  6
CONTINUOUS
 10
159.1256779262
 20
136.7354710335
 11
160.6984245147
 21
135.9672544916
  0
LINE
  5
3F3
100
AcDbEntity
  8
0
100
AcDbLine
 62
7
  6
CONTINUOUS
 10
162.6049925891
 20
135.035981047
 11
164.5907142117
 21
134.0660446254
  0
LINE
  5
3F4
100
AcDbEntity
  8
0
100
AcDbLine
 62
7
  6
CONTINUOUS
 10
141.9222716664
 20
146.0381413951
 11
139.3638124737
 21
147.2878345676
  0
LINE
  5
3F5
100
AcDbEntity
  8
0
100
AcDbLine
 62
7
  6
CONTINUOUS
 10
141.9653917688
 20
146.0650508319
 11
139.3361173846
 21
147.349334066
  0
LINE
  5
3F6
100
AcDbEntity
  8
0
100
AcDbLine
 62
7
  6
CONTINUOUS
 10
139.7684205707
 20
147.6191162461
 11
141.7988811554
 21
146.6273268375
  0
LINE
  5
3F7
100
AcDbEntity
  8
0
100
AcDbLine
 62
7
  6
CONTINUOUS
 10
142.5676309561
 20
147.1070711554
 11
140.607985563
 21
148.0642705023
  0
LINE
  5
3F8
100
AcDbEntity
  8
0
100
AcDbLine
 62
7
  6
CONTINUOUS
 10
142.6107510586
 20
147.1339805922
 11
140.5802904739
 21
148.1257700007
  0
LINE
  5
3F9
100
AcDbEntity
  8
0
100
AcDbLine
 62
7
  6
CONTINUOUS
 10
140.9737734331
 20
148.371326115
 11
143.4791553071
 21
147.1475588447
  0
LINE
  5
3FA
100
AcDbEntity
  8
0
100
AcDbLine
 62
7
  6
CONTINUOUS
 10
149.3407768963
 20
144.2910651792
 11
150.5315215781
 21
143.7094395261
  0
LINE
  5
3FB
100
AcDbEntity
  8
0
100
AcDbLine
 62
7
  6
CONTINUOUS
 10
151.9769341977
 20
143.0034199471
 11
153.1676788796
 21
142.4217942939
  0
LWPOLYLINE
  5
3FC
100
AcDbEntity
  8
0
100
AcDbPolyline
 62
7
  6
CONTINUOUS
 90
19
 70
0
 10
155.318683419
 20
141.440779518
 10
155.4109523538
 20
141.3954671201
 10
155.499191585
 20
141.3515654063
 10
155.5831900383
 20
141.3092033057
 10
155.6635809361
 20
141.2679940313
 10
155.7412259251
 20
141.2274578012
 10
155.8152286576
 20
141.1880025289
 10
155.8845087627
 20
141.1501780548
 10
155.9504799554
 20
141.1130788158
 10
156.0147955461
 20
141.0756903348
 10
156.0756563782
 20
141.0388891951
 10
156.1314444614
 20
141.0035417888
 10
156.1832696078
 20
140.9686642132
 10
156.2320896651
 20
140.9334912583
 10
156.2767425362
 20
140.8982332373
 10
156.3166200084
 20
140.863086203
 10
156.3510182766
 20
140.8273277253
 10
156.3799003107
 20
140.7904470416
 10
156.398729772
 20
140.7564315191
  0
LWPOLYLINE
  5
3FD
100
AcDbEntity
  8
0
100
AcDbPolyline
 62
7
  6
CONTINUOUS
 90
9
 70
0
 10
144.74351809
 20
144.4946216669
 10
144.6463877883
 20
144.5428431368
 10
144.5556260961
 20
144.5908933276
 10
144.4710289822
 20
144.6383431708
 10
144.3932085399
 20
144.6864798717
 10
144.3213539627
 20
144.7364061082
 10
144.2595299191
 20
144.7882463946
 10
144.2100628134
 20
144.8418860535
 10
144.1807835688
 20
144.8910898395
  0
LWPOLYLINE
  5
3FE
100
AcDbEntity
  8
0
100
AcDbPolyline
 62
7
  6
CONTINUOUS
 90
8
 70
0
 10
144.771213179
 20
144.4331221684
 10
144.6465297324
 20
144.4952932236
 10
144.5344789174
 20
144.5564466397
 10
144.4340337263
 20
144.6164366513
 10
144.3482751819
 20
144.6757005539
 10
144.279288867
 20
144.7345051196
 10
144.2290340939
 20
144.7932161521
 10
144.2084098513
 20
144.8297431017
  0
LWPOLYLINE
  5
3FF
100
AcDbEntity
  8
0
100
AcDbPolyline
 62
7
  6
CONTINUOUS
 90
6
 70
0
 10
136.423053132
 20
143.5479257596
 10
136.5114623303
 20
143.5006799754
 10
136.5867912628
 20
143.4485875033
 10
136.648748283
 20
143.3921586864
 10
136.6982083299
 20
143.3298624954
 10
136.7334630553
 20
143.2658834013
  0
LINE
  5
400
100
AcDbEntity
  8
0
100
AcDbLine
 62
7
  6
CONTINUOUS
 10
138.6533011912
 20
142.9306669795
 11
138.540753238
 21
142.9920883332
  0
LWPOLYLINE
  5
401
100
AcDbEntity
  8
0
100
AcDbPolyline
 62
7
  6
CONTINUOUS
 90
3
 70
0
 10
137.089087217
 20
143.7470299958
 10
137.011770008
 20
143.7984230881
 10
136.9285995409
 20
143.8440274383
  0
LINE
  5
402
100
AcDbEntity
  8
0
100
AcDbLine
 62
7
  6
CONTINUOUS
 10
137.4816694748
 20
141.6601812912
 11
137.3896793427
 21
141.7436963504
  0
LINE
  5
403
100
AcDbEntity
  8
0
100
AcDbLine
 62
7
  6
CONTINUOUS
 10
134.109913604
 20
141.9968056542
 11
134.0426005522
 21
142.1262281249
  0
LWPOLYLINE
  5
404
100
AcDbEntity
  8
0
100
AcDbPolyline
 62
7
  6
CONTINUOUS
 90
5
 70
0
 10
133.3353372158
 20
141.970821204
 10
133.3555583641
 20
141.9304652893
 10
133.4647685129
 20
141.7815396684
 10
133.6224898567
 20
141.6471890425
 10
133.8291817385
 20
141.5267503039
  0
LINE
  5
405
100
AcDbEntity
  8
0
100
AcDbLine
 62
7
  6
CONTINUOUS
 10
126.7456878446
 20
147.2862878993
 11
126.7733829336
 21
147.2247884008
  0
LINE
  5
406
100
AcDbEntity
  8
0
100
AcDbLine
 62
7
  6
CONTINUOUS
 10
127.1980487612
 20
146.4743196569
 11
127.2257438502
 21
146.4128201584
  0
LINE
  5
407
100
AcDbEntity
  8
0
100
AcDbLine
 62
7
  6
CONTINUOUS
 10
127.6660396784
 20
146.8367370891
 11
127.6937347674
 21
146.7752375906
  0
LINE
  5
408
100
AcDbEntity
  8
0
100
AcDbLine
 62
7
  6
CONTINUOUS
 10
127.4852706727
 20
148.4401700196
 11
127.5129657618
 21
148.3786705212
  0
LINE
  5
409
100
AcDbEntity
  8
0
100
AcDbLine
 62
7
  6
CONTINUOUS
 10
129.6445708405
 20
144.2262300442
 11
129.6722659296
 21
144.1647305457
  0
LINE
  5
40A
100
AcDbEntity
  8
0
100
AcDbLine
 62
7
  6
CONTINUOUS
 10
128.8657984576
 20
147.7658437876
 11
128.8934935467
 21
147.7043442892
  0
LINE
  5
40B
100
AcDbEntity
  8
0
100
AcDbLine
 62
7
  6
CONTINUOUS
 10
129.8079181282
 20
146.7146501323
 11
129.8356132173
 21
146.6531506338
  0
LINE
  5
40C
100
AcDbEntity
  8
0
100
AcDbLine
 62
7
  6
CONTINUOUS
 10
129.6185148301
 20
147.3981754214
 11
129.6462099192
 21
147.3366759229
  0
LINE
  5
40D
100
AcDbEntity
  8
0
100
AcDbLine
 62
7
  6
CONTINUOUS
 10
132.411270781
 20
143.1434616002
 11
132.4389658701
 21
143.0819621017
  0
LINE
  5
40E
100
AcDbEntity
  8
0
100
AcDbLine
 62
7
  6
CONTINUOUS
 10
132.0805276073
 20
143.8960250568
 11
132.1082226963
 21
143.8345255584
  0
LINE
  5
40F
100
AcDbEntity
  8
0
100
AcDbLine
 62
7
  6
CONTINUOUS
 10
132.7510699995
 20
143.5684950138
 11
132.7787650886
 21
143.5069955154
  0
LINE
  5
410
100
AcDbEntity
  8
0
100
AcDbLine
 62
7
  6
CONTINUOUS
 10
131.6860196734
 20
146.3882915452
 11
131.7137147624
 21
146.3267920467
  0
LINE
  5
411
100
AcDbEntity
  8
0
100
AcDbLine
 62
9
  6
CONTINUOUS
 10
134.2971726999
 20
141.8891677703
 11
134.3248677889
 21
141.8276682719
  0
LINE
  5
412
100
AcDbEntity
  8
0
100
AcDbLine
 62
9
  6
CONTINUOUS
 10
134.0550796446
 20
143.2915234303
 11
134.0827747336
 21
143.2300239319
  0
LINE
  5
413
100
AcDbEntity
  8
0
100
AcDbLine
 62
7
  6
CONTINUOUS
 10
133.6377970024
 20
144.6827405204
 11
133.6654920914
 21
144.6212410219
  0
LWPOLYLINE
  5
414
100
AcDbEntity
  8
0
100
AcDbPolyline
 62
7
  6
CONTINUOUS
 90
9
 70
0
 10
134.0426005522
 20
142.1262281249
 10
134.0288204539
 20
142.1627035523
 10
134.0103115571
 20
142.2761963601
 10
134.0245545033
 20
142.3958289805
 10
134.0712110706
 20
142.5225700901
 10
134.148990201
 20
142.656772161
 10
134.2589752613
 20
142.7968313122
 10
134.4019008926
 20
142.9410753547
 10
134.5775222144
 20
143.0900616848
  0
LWPOLYLINE
  5
415
100
AcDbEntity
  8
FASEN
100
AcDbPolyline
 62
7
  6
CONTINUOUS
 90
10
 70
0
 10
79.5637927079
 20
160.4612987934
 10
79.2954382682
 20
160.4000375062
 10
78.9951443547
 20
160.3013836293
 10
78.7005766398
 20
160.1758165787
 10
78.4196663551
 20
160.0255777841
 10
78.1589967057
 20
159.8553991398
 10
77.9261423408
 20
159.6688673196
 10
77.7260601594
 20
159.4716594153
 10
77.5671671658
 20
159.2715071579
 10
77.446657692
 20
159.0658333037
  0
LINE
  5
416
100
AcDbEntity
  8
FASEN
100
AcDbLine
 62
7
  6
CONTINUOUS
 10
77.446657692
 20
159.0658333037
 11
66.1376377151
 21
156.5327861967
  0
LINE
  5
417
100
AcDbEntity
  8
FASEN
100
AcDbLine
 62
7
  6
CONTINUOUS
 10
77.2228292403
 20
159.1230520019
 11
65.9893682814
 21
156.6069289565
  0
LINE
  5
418
100
AcDbEntity
  8
0
100
AcDbLine
 62
7
  6
CONTINUOUS
 10
167.6401165851
 20
136.1569218584
 11
165.922207173
 21
136.9960439633
  0
LINE
  5
419
100
AcDbEntity
  8
0
100
AcDbLine
 62
7
  6
CONTINUOUS
 10
163.9953914418
 20
137.937207485
 11
162.4945143894
 21
138.6703189649
  0
LINE
  5
41A
100
AcDbEntity
  8
0
100
AcDbLine
 62
7
  6
CONTINUOUS
 10
161.5665406714
 20
139.1235927255
 11
159.947835012
 21
139.9142582231
  0
LINE
  5
41B
100
AcDbEntity
  8
0
100
AcDbLine
 62
7
  6
CONTINUOUS
 10
156.3033303354
 20
141.6944361615
 11
154.4552670575
 21
142.5971326232
  0
LINE
  5
41C
100
AcDbEntity
  8
0
100
AcDbLine
 62
7
  6
CONTINUOUS
 10
153.9019699352
 20
142.8673935826
 11
150.1465608676
 21
144.7017433681
  0
LINE
  5
41D
100
AcDbEntity
  8
0
100
AcDbLine
 62
7
  6
CONTINUOUS
 10
149.6314711822
 20
144.9533416992
 11
148.2812902966
 21
145.6128448248
  0
LINE
  5
41E
100
AcDbEntity
  8
0
100
AcDbLine
 62
7
  6
CONTINUOUS
 10
146.3930295574
 20
146.5351759529
 11
145.0394362783
 21
147.1963458805
  0
LINE
  5
41F
100
AcDbEntity
  8
0
100
AcDbLine
 62
7
  6
CONTINUOUS
 10
144.2080587322
 20
147.6024367207
 11
140.3246379715
 21
149.4993145072
  0
LINE
  5
420
100
AcDbEntity
  8
0
100
AcDbLine
 62
7
  6
CONTINUOUS
 10
139.4346147132
 20
149.9340511613
 11
137.7474920473
 21
150.7581353142
  0
LINE
  5
421
100
AcDbEntity
  8
0
100
AcDbLine
 62
7
  6
CONTINUOUS
 10
135.9213390513
 20
151.6501295807
 11
133.792950622
 21
152.6897523724
  0
LINE
  5
422
100
AcDbEntity
  8
0
100
AcDbLine
 62
7
  6
CONTINUOUS
 10
167.7425753619
 20
136.1548470001
 11
165.894512084
 21
137.0575434618
  0
LINE
  5
423
100
AcDbEntity
  8
0
100
AcDbLine
 62
7
  6
CONTINUOUS
 10
164.0395658888
 20
137.9636019215
 11
162.4668193003
 21
138.7318184634
  0
LINE
  5
424
100
AcDbEntity
  8
0
100
AcDbLine
 62
7
  6
CONTINUOUS
 10
161.6098961044
 20
139.1503872138
 11
159.9201399229
 21
139.9757577216
  0
LINE
  5
425
100
AcDbEntity
  8
0
100
AcDbLine
 62
7
  6
CONTINUOUS
 10
153.9457677619
 20
142.8939719813
 11
150.1188657786
 21
144.7632428666
  0
LINE
  5
426
100
AcDbEntity
  8
0
100
AcDbLine
 62
7
  6
CONTINUOUS
 10
149.6749176168
 20
144.9800917373
 11
148.2535952076
 21
145.6743443233
  0
LINE
  5
427
100
AcDbEntity
  8
0
100
AcDbLine
 62
7
  6
CONTINUOUS
 10
146.4365050572
 20
146.561911794
 11
145.0117411893
 21
147.257845379
  0
LINE
  5
428
100
AcDbEntity
  8
0
100
AcDbLine
 62
7
  6
CONTINUOUS
 10
144.2511788347
 20
147.6293461574
 11
140.2969428825
 21
149.5608140056
  0
LINE
  5
429
100
AcDbEntity
  8
0
100
AcDbLine
 62
7
  6
CONTINUOUS
 10
139.4783823122
 20
149.960644325
 11
137.7197969583
 21
150.8196348127
  0
LINE
  5
42A
100
AcDbEntity
  8
0
100
AcDbLine
 62
7
  6
CONTINUOUS
 10
135.9402573796
 20
151.6888605045
 11
133.7652555329
 21
152.7512518709
  0
LINE
  5
42B
100
AcDbEntity
  8
FASEN
100
AcDbLine
 62
7
  6
CONTINUOUS
 10
176.9630724149
 20
137.2107590833
 11
91.8443292604
 21
178.7874676229
  0
LINE
  5
42C
100
AcDbEntity
  8
FASEN
100
AcDbLine
 62
7
  6
CONTINUOUS
 10
177.3985094107
 20
137.1332319571
 11
92.2797662562
 21
178.7099404967
  0
LWPOLYLINE
  5
42D
100
AcDbEntity
  8
0
100
AcDbPolyline
 62
7
  6
CONTINUOUS
 90
18
 70
0
 10
154.4275719684
 20
142.6586321217
 10
156.4604683725
 20
141.6647086444
 10
156.6362580569
 20
141.5758940763
 10
156.8024536802
 20
141.4898321417
 10
156.9607071008
 20
141.4055022826
 10
157.1132981232
 20
141.3215910475
 10
157.2577922901
 20
141.2393173018
 10
157.3914030921
 20
141.1602296129
 10
157.5174664907
 20
141.0820254243
 10
157.6397443171
 20
141.0021564729
 10
157.7541724533
 20
140.9229084468
 10
157.8569477929
 20
140.8466961789
 10
157.9510491323
 20
140.7705839716
 10
158.0393046558
 20
140.6919676645
 10
158.1183630938
 20
140.6122674786
 10
158.1863205208
 20
140.5316944159
 10
158.2416630887
 20
140.451271974
 10
158.2771836226
 20
140.3838354228
  0
LWPOLYLINE
  5
42E
100
AcDbEntity
  8
0
100
AcDbPolyline
 62
7
  6
CONTINUOUS
 90
3
 70
0
 10
137.5063158639
 20
141.6443889064
 10
137.4513693471
 20
141.7261436741
 10
137.3619842537
 20
141.8051958489
  0
LWPOLYLINE
  5
42F
100
AcDbEntity
  8
0
100
AcDbPolyline
 62
7
  6
CONTINUOUS
 90
7
 70
0
 10
137.2968669233
 20
143.5563050785
 10
137.2540276142
 20
143.621894951
 10
137.2016850119
 20
143.6849257274
 10
137.1396126926
 20
143.7457680912
 10
137.0684899277
 20
143.803309992
 10
136.9889959887
 20
143.8564393794
 10
136.9009044518
 20
143.9055269368
  0
LWPOLYLINE
  5
430
100
AcDbEntity
  8
0
100
AcDbPolyline
 62
7
  6
CONTINUOUS
 90
4
 70
0
 10
138.8489047961
 20
142.7339004505
 10
138.8207226375
 20
142.7800261816
 10
138.7459533322
 20
142.8602634941
 10
138.6533011912
 20
142.9306669795
  0
LWPOLYLINE
  5
431
100
AcDbEntity
  8
0
100
AcDbPolyline
 62
7
  6
CONTINUOUS
 90
5
 70
0
 10
138.8379194418
 20
142.7680522011
 10
138.7969949193
 20
142.8371304257
 10
138.7240537449
 20
142.9166380452
 10
138.6298049237
 20
142.988699958
 10
138.513058149
 20
143.0535878317
  0
LINE
  5
432
100
AcDbEntity
  8
0
100
AcDbLine
 62
7
  6
CONTINUOUS
 10
135.6695893213
 20
141.2832773168
 11
135.6972844103
 21
141.2217778183
  0
LINE
  5
433
100
AcDbEntity
  8
0
100
AcDbLine
 62
7
  6
CONTINUOUS
 10
133.9868993263
 20
145.2644144863
 11
134.0145944153
 21
145.2029149878
  0
LINE
  5
434
100
AcDbEntity
  8
0
100
AcDbLine
 62
9
  6
CONTINUOUS
 10
135.8865293622
 20
141.1773117854
 11
135.9142244512
 21
141.1158122869
  0
LINE
  5
435
100
AcDbEntity
  8
0
100
AcDbLine
 62
9
  6
CONTINUOUS
 10
136.7725358498
 20
141.2657006879
 11
136.8002309388
 21
141.2042011894
  0
LINE
  5
436
100
AcDbEntity
  8
0
100
AcDbLine
 62
7
  6
CONTINUOUS
 10
137.0092737251
 20
141.5879813149
 11
136.9815786361
 21
141.6494808134
  0
LINE
  5
437
100
AcDbEntity
  8
0
100
AcDbLine
 62
7
  6
CONTINUOUS
 10
136.9714550866
 20
142.2914568143
 11
136.9991501757
 21
142.2299573159
  0
LINE
  5
438
100
AcDbEntity
  8
0
100
AcDbLine
 62
9
  6
CONTINUOUS
 10
137.1588119969
 20
142.1999413224
 11
137.1865070859
 21
142.1384418239
  0
LINE
  5
439
100
AcDbEntity
  8
0
100
AcDbLine
 62
7
  6
CONTINUOUS
 10
137.3619842537
 20
141.8051958489
 11
137.3896793427
 21
141.7436963504
  0
LINE
  5
43A
100
AcDbEntity
  8
0
100
AcDbLine
 62
9
  6
CONTINUOUS
 10
136.9009044518
 20
143.9055269368
 11
136.9285995409
 21
143.8440274383
  0
LINE
  5
43B
100
AcDbEntity
  8
0
100
AcDbLine
 62
9
  6
CONTINUOUS
 10
137.9543215244
 20
142.2680601714
 11
137.9820166134
 21
142.2065606729
  0
LINE
  5
43C
100
AcDbEntity
  8
0
100
AcDbLine
 62
7
  6
CONTINUOUS
 10
134.1173861378
 20
151.0905088026
 11
134.1450812268
 21
151.0290093041
  0
LINE
  5
43D
100
AcDbEntity
  8
0
100
AcDbLine
 62
7
  6
CONTINUOUS
 10
137.7110370601
 20
143.4453393522
 11
137.7387321492
 21
143.3838398537
  0
LINE
  5
43E
100
AcDbEntity
  8
0
100
AcDbLine
 62
7
  6
CONTINUOUS
 10
138.1528672447
 20
142.5208391709
 11
138.1251721556
 21
142.5823386694
  0
LINE
  5
43F
100
AcDbEntity
  8
0
100
AcDbLine
 62
7
  6
CONTINUOUS
 10
133.7652555329
 20
152.7512518709
 11
133.792950622
 21
152.6897523724
  0
LINE
  5
440
100
AcDbEntity
  8
0
100
AcDbLine
 62
9
  6
CONTINUOUS
 10
138.513058149
 20
143.0535878317
 11
138.540753238
 21
142.9920883332
  0
LINE
  5
441
100
AcDbEntity
  8
0
100
AcDbLine
 62
7
  6
CONTINUOUS
 10
135.8259577464
 20
149.6689393838
 11
135.8536528354
 21
149.6074398853
  0
LINE
  5
442
100
AcDbEntity
  8
0
100
AcDbLine
 62
7
  6
CONTINUOUS
 10
137.7197969583
 20
150.8196348127
 11
137.7474920473
 21
150.7581353142
  0
LINE
  5
443
100
AcDbEntity
  8
0
100
AcDbLine
 62
7
  6
CONTINUOUS
 10
139.3361173846
 20
147.349334066
 11
139.3638124737
 21
147.2878345676
  0
LINE
  5
444
100
AcDbEntity
  8
0
100
AcDbLine
 62
7
  6
CONTINUOUS
 10
136.7334630553
 20
143.2658834013
 11
136.7619706739
 21
143.1835852464
  0
LWPOLYLINE
  5
445
100
AcDbEntity
  8
0
100
AcDbPolyline
 62
7
  6
CONTINUOUS
 90
4
 70
0
 10
138.1529034024
 20
142.5207588201
 10
138.1614968137
 20
142.4955608713
 10
138.1648311458
 20
142.4456370238
 10
138.1511563877
 20
142.3940674592
  0
LWPOLYLINE
  5
446
100
AcDbEntity
  8
0
100
AcDbPolyline
 62
7
  6
CONTINUOUS
 90
7
 70
0
 10
138.1252462982
 20
142.5821737795
 10
138.133225338
 20
142.5556963788
 10
138.1363052086
 20
142.5009201953
 10
138.1176868194
 20
142.4448348338
 10
138.080205557
 20
142.3871624984
 10
138.0259865883
 20
142.3282794136
 10
137.9543215244
 20
142.2680601714
  0
LINE
  5
447
100
AcDbEntity
  8
0
100
AcDbLine
 62
7
  6
CONTINUOUS
 10
137.0092854998
 20
141.5879551629
 11
137.0234754678
 21
141.5384998215
  0
LWPOLYLINE
  5
448
100
AcDbEntity
  8
0
100
AcDbPolyline
 62
7
  6
CONTINUOUS
 90
7
 70
0
 10
136.9815976807
 20
141.6494385094
 10
136.9954851033
 20
141.5959355463
 10
136.9915782647
 20
141.5337439499
 10
136.9656158453
 20
141.4695175832
 10
136.9197050327
 20
141.4032146561
 10
136.8555324351
 20
141.3353307563
 10
136.7725358498
 20
141.2657006879
  0
LWPOLYLINE
  5
449
100
AcDbEntity
  8
FASEN
100
AcDbPolyline
 62
7
  6
CONTINUOUS
 90
4
 70
0
 10
91.8443292604
 20
178.7874676229
 10
89.9653585003
 20
179.5896066045
 10
87.9294726829
 20
180.2426645946
 10
85.72967938
 20
180.7479687854
  0
LWPOLYLINE
  5
44A
100
AcDbEntity
  8
FASEN
100
AcDbPolyline
 62
7
  6
CONTINUOUS
 90
4
 70
0
 10
92.2797662562
 20
178.7099404967
 10
90.3882887008
 20
179.5182542386
 10
88.3253621308
 20
180.1798373969
 10
86.1036862783
 20
180.6906019797
  0
LINE
  5
44B
100
AcDbEntity
  8
FASEN
100
AcDbLine
 62
7
  6
CONTINUOUS
 10
177.5916663648
 20
136.8451332886
 11
176.9630724149
 21
137.2107590833
  0
LWPOLYLINE
  5
44C
100
AcDbEntity
  8
0
100
AcDbPolyline
 62
7
  6
CONTINUOUS
 90
12
 70
0
 10
142.5130780597
 20
145.1714516276
 10
142.5336330763
 20
145.1304860138
 10
142.609303585
 20
145.0187186701
 10
142.7114948898
 20
144.9119406793
 10
142.8369508463
 20
144.8041360478
 10
142.9802113843
 20
144.6983329543
 10
143.1341516178
 20
144.5964183783
 10
143.3005098497
 20
144.495799924
 10
143.4786159975
 20
144.3946305258
 10
143.6685703305
 20
144.2925611725
 10
143.8702343707
 20
144.1885065765
 10
144.0836542775
 20
144.0828285004
  0
LINE
  5
44D
100
AcDbEntity
  8
0
100
AcDbLine
 62
7
  6
CONTINUOUS
 10
140.5802904739
 20
148.1257700007
 11
140.607985563
 21
148.0642705023
  0
LINE
  5
44E
100
AcDbEntity
  8
0
100
AcDbLine
 62
7
  6
CONTINUOUS
 10
140.2969428825
 20
149.5608140056
 11
140.3246379715
 21
149.4993145072
  0
LINE
  5
44F
100
AcDbEntity
  8
0
100
AcDbLine
 62
9
  6
CONTINUOUS
 10
143.2591662366
 20
146.178782225
 11
143.2868613257
 21
146.1172827265
  0
LINE
  5
450
100
AcDbEntity
  8
0
100
AcDbLine
 62
7
  6
CONTINUOUS
 10
144.1807427146
 20
144.8911805023
 11
144.2084378036
 21
144.8296810038
  0
LINE
  5
451
100
AcDbEntity
  8
0
100
AcDbLine
 62
9
  6
CONTINUOUS
 10
144.74351809
 20
144.4946216669
 11
144.771213179
 21
144.4331221684
  0
LINE
  5
452
100
AcDbEntity
  8
0
100
AcDbLine
 62
7
  6
CONTINUOUS
 10
145.0117411893
 20
147.257845379
 11
145.0394362783
 21
147.1963458805
  0
LINE
  5
453
100
AcDbEntity
  8
0
100
AcDbLine
 62
9
  6
CONTINUOUS
 10
146.7800059453
 20
144.7681408643
 11
146.8077010344
 21
144.7066413658
  0
LWPOLYLINE
  5
454
100
AcDbEntity
  8
0
100
AcDbPolyline
 62
7
  6
CONTINUOUS
 90
12
 70
0
 10
144.1807835688
 20
144.8910898395
 10
144.1773566326
 20
144.899145339
 10
144.1665606711
 20
144.9629934477
 10
144.1777654104
 20
145.0298688749
 10
144.2136683181
 20
145.0961070434
 10
144.2715977296
 20
145.1649863674
 10
144.3533725259
 20
145.2406631796
 10
144.4482185372
 20
145.3168391471
 10
144.5426635833
 20
145.3858440757
 10
144.6466205761
 20
145.4559498813
 10
144.7661894735
 20
145.5335861462
 10
144.8993369561
 20
145.6166096763
  0
LINE
  5
455
100
AcDbEntity
  8
0
100
AcDbLine
 62
7
  6
CONTINUOUS
 10
154.0446147452
 20
140.6293046847
 11
154.2078335609
 21
139.137618601
  0
LINE
  5
456
100
AcDbEntity
  8
FASEN
100
AcDbLine
 62
7
  6
CONTINUOUS
 10
60.7273013629
 20
168.2918336685
 11
71.9607623218
 21
170.8079567139
  0
LINE
  5
457
100
AcDbEntity
  8
FASEN
100
AcDbLine
 62
7
  6
CONTINUOUS
 10
60.5986199061
 20
168.8326858935
 11
71.907639883
 21
171.3657330006
  0
LWPOLYLINE
  5
458
100
AcDbEntity
  8
FASEN
100
AcDbPolyline
 62
7
  6
CONTINUOUS
 90
24
 70
0
 10
84.678489199
 20
180.9284574153
 10
83.3869558762
 20
181.1015375998
 10
80.9144902932
 20
181.2997631568
 10
78.3286576915
 20
181.3428515598
 10
75.6444338825
 20
181.22909316
 10
72.879204736
 20
180.9606273335
 10
70.0493648582
 20
180.5376861668
 10
67.1728638511
 20
179.9642818802
 10
64.2670844251
 20
179.2425753546
 10
61.35012186
 20
178.3783526948
 10
58.4399312608
 20
177.375645622
 10
55.5543158614
 20
176.2418781685
 10
52.711377513
 20
174.9828593361
 10
49.9281754691
 20
173.6074659367
 10
47.222505511
 20
172.1231418841
 10
44.6102599071
 20
170.5399948747
 10
42.1084829509
 20
168.8669167156
 10
39.7315143484
 20
167.1149989891
 10
37.4952305311
 20
165.2943629683
 10
35.412065616
 20
163.416811388
 10
33.4963383681
 20
161.4934461164
 10
31.7582712748
 20
159.5364910258
 10
30.2102732924
 20
157.5577552052
 10
29.0594025174
 20
155.8832580001
  0
LINE
  5
459
100
AcDbEntity
  8
FASEN
100
AcDbLine
 62
7
  6
CONTINUOUS
 10
86.1036862783
 20
180.6906019797
 11
84.678489199
 21
180.9284574153
  0
LINE
  5
45A
100
AcDbEntity
  8
FASEN
100
AcDbLine
 62
9
  6
CONTINUOUS
 10
91.8443292604
 20
178.7874676229
 11
92.2797662562
 21
178.7099404967
  0
LWPOLYLINE
  5
45B
100
AcDbEntity
  8
0
100
AcDbPolyline
 62
7
  6
CONTINUOUS
 90
12
 70
0
 10
158.1636868043
 20
140.5312996795
 10
158.0719981652
 20
140.6257615448
 10
157.9635623037
 20
140.7218354652
 10
157.8388555232
 20
140.8197396405
 10
157.6985500237
 20
140.9197043522
 10
157.5429440603
 20
141.0219331502
 10
157.3725112332
 20
141.1266405663
 10
157.1873977071
 20
141.2340239357
 10
156.9879169276
 20
141.344279485
 10
156.7740406526
 20
141.4576250723
 10
156.5458546519
 20
141.5743793728
 10
156.3033303354
 20
141.6944361615
  0
LINE
  5
45C
100
AcDbEntity
  8
0
100
AcDbLine
 62
7
  6
CONTINUOUS
 10
148.2535952076
 20
145.6743443233
 11
148.2812902966
 21
145.6128448248
  0
LINE
  5
45D
100
AcDbEntity
  8
0
100
AcDbLine
 62
7
  6
CONTINUOUS
 10
150.5315215781
 20
143.7094395261
 11
150.5592166672
 21
143.6479400276
  0
LINE
  5
45E
100
AcDbEntity
  8
0
100
AcDbLine
 62
7
  6
CONTINUOUS
 10
150.1188657786
 20
144.7632428666
 11
150.1465608676
 21
144.7017433681
  0
LINE
  5
45F
100
AcDbEntity
  8
FASEN
100
AcDbLine
 62
9
  6
CONTINUOUS
 10
165.4368063943
 20
112.1100460023
 11
160.1747394758
 21
123.7949507143
  0
LINE
  5
460
100
AcDbEntity
  8
0
100
AcDbLine
 62
7
  6
CONTINUOUS
 10
154.0446147452
 20
140.6293046847
 11
154.0723098343
 21
140.5678051862
  0
LINE
  5
461
100
AcDbEntity
  8
0
100
AcDbLine
 62
7
  6
CONTINUOUS
 10
154.465236771
 20
140.8972056192
 11
154.4929318601
 21
140.8357061207
  0
LINE
  5
462
100
AcDbEntity
  8
0
100
AcDbLine
 62
7
  6
CONTINUOUS
 10
154.4275719684
 20
142.6586321217
 11
154.4552670575
 21
142.5971326232
  0
LINE
  5
463
100
AcDbEntity
  8
0
100
AcDbLine
 62
9
  6
CONTINUOUS
 10
156.2564984371
 20
140.5024764661
 11
156.2841935261
 21
140.4409769676
  0
LINE
  5
464
100
AcDbEntity
  8
0
100
AcDbLine
 62
7
  6
CONTINUOUS
 10
156.4264430634
 20
140.6948916129
 11
156.3987479743
 21
140.7563911114
  0
LWPOLYLINE
  5
465
100
AcDbEntity
  8
0
100
AcDbPolyline
 62
7
  6
CONTINUOUS
 90
8
 70
0
 10
156.398729772
 20
140.7564315191
 10
156.4006575739
 20
140.7520052021
 10
156.4114567105
 20
140.7108857319
 10
156.4099351478
 20
140.6686104434
 10
156.3925837486
 20
140.6262115426
 10
156.361008851
 20
140.5840413732
 10
156.3157016587
 20
140.5428833993
 10
156.2564984371
 20
140.5024764661
  0
LINE
  5
466
100
AcDbEntity
  8
FASEN
100
AcDbLine
 62
9
  6
CONTINUOUS
 10
160.3332255812
 20
124.332418573
 11
160.1747394758
 21
123.7949507143
  0
LINE
  5
467
100
AcDbEntity
  8
FASEN
100
AcDbLine
 62
7
  6
CONTINUOUS
 10
141.6599990438
 20
86.1638610729
 11
141.461266654
 21
85.8671387771
  0
LWPOLYLINE
  5
468
100
AcDbEntity
  8
FASEN
100
AcDbPolyline
 62
7
  6
CONTINUOUS
 90
18
 70
0
 10
141.4609285084
 20
85.8549670341
 10
141.2689438816
 20
85.5684895126
 10
140.697794946
 20
84.8215135621
 10
140.030766914
 20
84.0855158751
 10
139.2766623485
 20
83.3683207116
 10
138.4423787029
 20
82.678161773
 10
137.5382830114
 20
82.0221032573
 10
136.5732155293
 20
81.4079551828
 10
135.5586540467
 20
80.8417137892
 10
134.5049967889
 20
80.3304239378
 10
133.4243227055
 20
79.8787497835
 10
132.3281238779
 20
79.4926591001
 10
131.2285591361
 20
79.1752858927
 10
130.1377091513
 20
78.9312643788
 10
129.0673004819
 20
78.7620616943
 10
128.029499582
 20
78.6707815652
 10
127.0350674366
 20
78.6571484402
 10
126.0957145377
 20
78.7225906171
  0
LWPOLYLINE
  5
469
100
AcDbEntity
  8
FASEN
100
AcDbPolyline
 62
7
  6
CONTINUOUS
 90
17
 70
0
 10
141.461266654
 20
85.8671387771
 10
140.8692896297
 20
85.0934971543
 10
140.178812798
 20
84.331133673
 10
139.3974029991
 20
83.588405234
 10
138.5336232115
 20
82.8734518934
 10
137.5969397112
 20
82.1941091716
 10
136.5976183053
 20
81.5578221457
 10
135.5466112063
 20
80.9715634679
 10
134.4554396217
 20
80.4417582401
 10
133.3360551112
 20
79.9742080002
 10
132.2007209681
 20
79.5740342751
 10
131.061871571
 20
79.2456198712
 10
129.9319747194
 20
78.9925617332
 10
128.8234247188
 20
78.8176370102
 10
127.7483717787
 20
78.7227624653
 10
126.7186115509
 20
78.7089762345
 10
125.7454362919
 20
78.7764228838
  0
LWPOLYLINE
  5
46A
100
AcDbEntity
  8
0
100
AcDbPolyline
 62
7
  6
CONTINUOUS
 90
9
 70
0
 10
158.2771836226
 20
140.3838354228
 10
158.2824659791
 20
140.3734782593
 10
158.3080581767
 20
140.2941604472
 10
158.3184436785
 20
140.2089453384
 10
158.3096726297
 20
140.1209721644
 10
158.2777368516
 20
140.0317244559
 10
158.222815313
 20
139.9417961158
 10
158.1436062872
 20
139.8524116091
 10
158.0405436831
 20
139.7631627806
  0
LINE
  5
46B
100
AcDbEntity
  8
0
100
AcDbLine
 62
9
  6
CONTINUOUS
 10
156.2756352464
 20
141.75593566
 11
156.3033303354
 21
141.6944361615
  0
LINE
  5
46C
100
AcDbEntity
  8
0
100
AcDbLine
 62
7
  6
CONTINUOUS
 10
159.9201399229
 20
139.9757577216
 11
159.947835012
 21
139.9142582231
  0
LINE
  5
46D
100
AcDbEntity
  8
0
100
AcDbLine
 62
7
  6
CONTINUOUS
 10
162.1970246898
 20
136.86267503
 11
162.2247197789
 21
136.8011755315
  0
LINE
  5
46E
100
AcDbEntity
  8
0
100
AcDbLine
 62
7
  6
CONTINUOUS
 10
162.5163984977
 20
137.0535023579
 11
162.5440935867
 21
136.9920028594
  0
LINE
  5
46F
100
AcDbEntity
  8
0
100
AcDbLine
 62
7
  6
CONTINUOUS
 10
162.4668193003
 20
138.7318184634
 11
162.4945143894
 21
138.6703189649
  0
LWPOLYLINE
  5
470
100
AcDbEntity
  8
0
100
AcDbPolyline
 62
7
  6
CONTINUOUS
 90
5
 70
0
 10
156.4264534068
 20
140.6948686405
 10
156.4370269234
 20
140.664366524
 10
156.4401057084
 20
140.6235944914
 10
156.4308296424
 20
140.5831499786
 10
156.404219396
 20
140.5404666622
  0
LINE
  5
471
100
AcDbEntity
  8
0
100
AcDbLine
 62
7
  6
CONTINUOUS
 10
156.1212845526
 20
138.2029831584
 11
155.6982013883
 21
139.9875489872
  0
LINE
  5
472
100
AcDbEntity
  8
0
100
AcDbLine
 62
7
  6
CONTINUOUS
 10
162.1970246898
 20
136.86267503
 11
162.6049925891
 21
135.035981047
  0
LINE
  5
473
100
AcDbEntity
  8
0
100
AcDbLine
 62
7
  6
CONTINUOUS
 10
165.894512084
 20
137.0575434618
 11
165.922207173
 21
136.9960439633
  0
LINE
  5
474
100
AcDbEntity
  8
0
100
AcDbLine
 62
7
  6
CONTINUOUS
 10
164.5907142117
 20
134.0660446254
 11
163.9579426716
 21
136.2314883259
  0
LWPOLYLINE
  5
475
100
AcDbEntity
  8
FASEN
100
AcDbPolyline
 62
7
  6
CONTINUOUS
 90
17
 70
0
 10
183.6298068395
 20
118.5229307852
 10
183.0378298152
 20
117.7492891625
 10
182.3473529835
 20
116.9869256812
 10
181.5659431846
 20
116.2441972422
 10
180.702163397
 20
115.5292439016
 10
179.7654798968
 20
114.8499011798
 10
178.7661584908
 20
114.2136141538
 10
177.7151513918
 20
113.6273554761
 10
176.6239798073
 20
113.0975502483
 10
175.5045952967
 20
112.6300000084
 10
174.3692611536
 20
112.2298262833
 10
173.2304117566
 20
111.9014118794
 10
172.1005149049
 20
111.6483537414
 10
170.9919649043
 20
111.4734290184
 10
169.9169119643
 20
111.3785544734
 10
168.8871517365
 20
111.3647682427
 10
167.9139764774
 20
111.432214892
  0
LWPOLYLINE
  5
476
100
AcDbEntity
  8
FASEN
100
AcDbPolyline
 62
7
  6
CONTINUOUS
 90
4
 70
0
 10
178.8570086956
 20
135.3779991721
 10
178.5406669472
 20
135.9259127879
 10
178.1168537282
 20
136.4177980385
 10
177.5916663648
 20
136.8451332886
  0
LWPOLYLINE
  5
477
100
AcDbEntity
  8
FASEN
100
AcDbPolyline
 62
7
  6
CONTINUOUS
 90
5
 70
0
 10
179.3636060438
 20
135.227226881
 10
179.0329126748
 20
135.802735797
 10
178.5935038483
 20
136.3119444413
 10
178.0467009726
 20
136.7570632266
 10
177.3985094107
 20
137.1332319571
  0
LINE
  5
478
100
AcDbEntity
  8
0
100
AcDbLine
 62
7
  6
CONTINUOUS
 10
184.6256729622
 20
123.542322169
 11
179.3636060438
 21
135.227226881
  0
LINE
  5
479
100
AcDbEntity
  8
FASEN
100
AcDbLine
 62
7
  6
CONTINUOUS
 10
183.8285392294
 20
118.8196530811
 11
183.6298068395
 21
118.5229307852
  0
LWPOLYLINE
  5
47A
100
AcDbEntity
  8
FASEN
100
AcDbPolyline
 62
7
  6
CONTINUOUS
 90
18
 70
0
 10
183.6294686939
 20
118.5107590423
 10
183.4374840671
 20
118.2242815208
 10
182.8663351315
 20
117.4773055703
 10
182.1993070995
 20
116.7413078833
 10
181.445202534
 20
116.0241127198
 10
180.6109188884
 20
115.3339537812
 10
179.7068231969
 20
114.6778952655
 10
178.7417557149
 20
114.0637471909
 10
177.7271942322
 20
113.4975057974
 10
176.6735369744
 20
112.9862159459
 10
175.592862891
 20
112.5345417916
 10
174.4966640634
 20
112.1484511083
 10
173.3970993217
 20
111.8310779009
 10
172.3062493368
 20
111.5870563869
 10
171.2358406674
 20
111.4178537025
 10
170.1980397676
 20
111.3265735734
 10
169.2036076221
 20
111.3129404484
 10
168.2642547232
 20
111.3783826253
  0
LINE
  5
47B
100
AcDbEntity
  8
FASEN
100
AcDbLine
 62
7
  6
CONTINUOUS
 10
179.0605886354
 20
134.7791858546
 11
178.8570086956
 21
135.3779991721
  0
LWPOLYLINE
  5
47C
100
AcDbEntity
  8
FASEN
100
AcDbPolyline
 62
7
  6
CONTINUOUS
 90
8
 70
0
 10
184.6256729622
 20
123.542322169
 10
184.8334905633
 20
122.930099553
 10
184.9266631029
 20
122.2645950863
 10
184.9006448758
 20
121.560898907
 10
184.7557206003
 20
120.8267233218
 10
184.4934819681
 20
120.0701215805
 10
184.1168022989
 20
119.29937706
 10
183.8285392294
 20
118.8196530811
  0
LINE
  5
47D
100
AcDbEntity
  8
FASEN
100
AcDbLine
 62
7
  6
CONTINUOUS
 10
40.1848414549
 20
246.3517966409
 11
44.4816458471
 21
250.6486010332
  0
LINE
  5
47E
100
AcDbEntity
  8
FASEN
100
AcDbLine
 62
7
  6
CONTINUOUS
 10
40.340684616
 20
246.2247970896
 11
44.6087807452
 21
250.4928932188
  0
LINE
  5
47F
100
AcDbEntity
  8
FASEN
100
AcDbLine
 62
7
  6
CONTINUOUS
 10
44.4816458471
 20
229.3513989668
 11
40.1848414549
 21
233.6482033591
  0
LINE
  5
480
100
AcDbEntity
  8
FASEN
100
AcDbLine
 62
7
  6
CONTINUOUS
 10
44.6087807452
 20
229.5071067812
 11
40.340684616
 21
233.7752029104
  0
LINE
  5
481
100
AcDbEntity
  8
DEFAULT_1
100
AcDbLine
 62
7
  6
CENTER
 10
50.0158875264
 20
240.0
 11
50.0158875264
 21
217.8553969486
  0
LINE
  5
482
100
AcDbEntity
  8
FASEN
100
AcDbLine
 62
9
  6
CONTINUOUS
 10
50.0158875264
 20
220.2
 11
50.0158875264
 21
220.0
  0
LINE
  5
483
100
AcDbEntity
  8
FASEN
100
AcDbLine
 62
9
  6
CONTINUOUS
 10
50.0158875264
 20
259.8
 11
50.0158875264
 21
260.0
  0
LINE
  5
484
100
AcDbEntity
  8
DEFAULT_1
100
AcDbLine
 62
7
  6
CENTER
 10
50.0158875264
 20
240.0
 11
50.0158875264
 21
262.1446030514
  0
LINE
  5
485
100
AcDbEntity
  8
FASEN
100
AcDbLine
 62
7
  6
CONTINUOUS
 10
57.5158875264
 20
248.4
 11
57.5987302389
 21
248.6
  0
LINE
  5
486
100
AcDbEntity
  8
FASEN
100
AcDbLine
 62
7
  6
CONTINUOUS
 10
57.5158875264
 20
231.6
 11
57.5987302389
 21
231.4
  0
LINE
  5
487
100
AcDbEntity
  8
FASEN
100
AcDbLine
 62
7
  6
CONTINUOUS
 10
40.340684616
 20
233.7752029104
 11
40.1848414549
 21
233.6482033591
  0
LINE
  5
488
100
AcDbEntity
  8
FASEN
100
AcDbLine
 62
7
  6
CONTINUOUS
 10
50.0158875264
 20
220.0
 11
124.2158875264
 21
220.0
  0
LINE
  5
489
100
AcDbEntity
  8
FASEN
100
AcDbLine
 62
7
  6
CONTINUOUS
 10
50.0158875264
 20
220.2
 11
124.2158875264
 21
220.2
  0
LINE
  5
48A
100
AcDbEntity
  8
FASEN
100
AcDbLine
 62
7
  6
CONTINUOUS
 10
40.340684616
 20
246.2247970896
 11
40.1848414549
 21
246.3517966409
  0
LWPOLYLINE
  5
48B
100
AcDbEntity
  8
FASEN
100
AcDbPolyline
 62
7
  6
CONTINUOUS
 90
9
 70
0
 10
67.5971536286
 20
248.6
 10
67.7583450694
 20
248.8467911023
 10
67.9468922472
 20
249.0664069153
 10
68.164633312
 20
249.2603234635
 10
68.4060538131
 20
249.4241126733
 10
68.6686260717
 20
249.554444692
 10
68.9452279211
 20
249.6495008808
 10
69.2268990438
 20
249.7059865765
 10
69.5166262124
 20
249.725
  0
LINE
  5
48C
100
AcDbEntity
  8
FASEN
100
AcDbLine
 62
9
  6
CONTINUOUS
 10
69.5166262124
 20
249.725
 11
69.5166262124
 21
249.525
  0
LINE
  5
48D
100
AcDbEntity
  8
FASEN
100
AcDbLine
 62
9
  6
CONTINUOUS
 10
69.5166262124
 20
230.275
 11
69.5166262124
 21
230.475
  0
LINE
  5
48E
100
AcDbEntity
  8
FASEN
100
AcDbLine
 62
7
  6
CONTINUOUS
 10
53.7360916293
 20
228.6
 11
46.2956834235
 21
228.6
  0
LINE
  5
48F
100
AcDbEntity
  8
FASEN
100
AcDbLine
 62
7
  6
CONTINUOUS
 10
53.7158875264
 20
228.8
 11
46.3158875264
 21
228.8
  0
LWPOLYLINE
  5
490
100
AcDbEntity
  8
FASEN
100
AcDbPolyline
 62
7
  6
CONTINUOUS
 90
9
 70
0
 10
69.5166262124
 20
230.275
 10
69.2261698764
 20
230.2941958132
 10
68.9441969301
 20
230.3507766792
 10
68.6678587029
 20
230.4458163407
 10
68.4057012066
 20
230.5760935695
 10
68.1644012654
 20
230.739875158
 10
67.9467177717
 20
230.9337707867
 10
67.7582582887
 20
231.1533163938
 10
67.5971536286
 20
231.4
  0
LINE
  5
491
100
AcDbEntity
  8
FASEN
100
AcDbLine
 62
7
  6
CONTINUOUS
 10
57.5158875264
 20
231.6
 11
55.4229943076
 21
229.5071067812
  0
LINE
  5
492
100
AcDbEntity
  8
FASEN
100
AcDbLine
 62
7
  6
CONTINUOUS
 10
57.5987302389
 20
231.4
 11
55.5501292057
 21
229.3513989668
  0
LINE
  5
493
100
AcDbEntity
  8
FASEN
100
AcDbLine
 62
7
  6
CONTINUOUS
 10
80.5151488404
 20
230.275
 11
69.5166262124
 21
230.275
  0
LINE
  5
494
100
AcDbEntity
  8
FASEN
100
AcDbLine
 62
7
  6
CONTINUOUS
 10
80.5151488404
 20
230.475
 11
69.5166262124
 21
230.475
  0
LINE
  5
495
100
AcDbEntity
  8
FASEN
100
AcDbLine
 62
7
  6
CONTINUOUS
 10
124.2158875264
 20
231.4
 11
82.4346214243
 21
231.4
  0
LINE
  5
496
100
AcDbEntity
  8
FASEN
100
AcDbLine
 62
7
  6
CONTINUOUS
 10
67.5971536286
 20
231.4
 11
57.5987302389
 21
231.4
  0
LINE
  5
497
100
AcDbEntity
  8
FASEN
100
AcDbLine
 62
7
  6
CONTINUOUS
 10
124.2158875264
 20
231.6
 11
82.3135856617
 21
231.6
  0
LINE
  5
498
100
AcDbEntity
  8
FASEN
100
AcDbLine
 62
7
  6
CONTINUOUS
 10
67.7181893911
 20
231.6
 11
57.5158875264
 21
231.6
  0
LINE
  5
499
100
AcDbEntity
  8
FASEN
100
AcDbLine
 62
7
  6
CONTINUOUS
 10
55.4229943076
 20
250.4928932188
 11
57.5158875264
 21
248.4
  0
LINE
  5
49A
100
AcDbEntity
  8
FASEN
100
AcDbLine
 62
7
  6
CONTINUOUS
 10
55.5501292057
 20
250.6486010332
 11
57.5987302389
 21
248.6
  0
LWPOLYLINE
  5
49B
100
AcDbEntity
  8
FASEN
100
AcDbPolyline
 62
7
  6
CONTINUOUS
 90
5
 70
0
 10
67.7181893911
 20
231.6
 10
67.687891716
 20
231.5511567987
 10
67.6576198638
 20
231.5015423982
 10
67.6273738347
 20
231.4511567987
 10
67.5971536286
 20
231.4
  0
LWPOLYLINE
  5
49C
100
AcDbEntity
  8
0
100
AcDbPolyline
 62
7
  6
CONTINUOUS
 90
7
 70
0
 10
98.6176066376
 20
251.2638968468
 10
98.5563081076
 20
251.2392077911
 10
98.4899651573
 20
251.2189206513
 10
98.4182614127
 20
251.203097238
 10
98.3421459958
 20
251.1915521193
 10
98.2625680287
 20
251.184099863
 10
98.1792111374
 20
251.1808022797
  0
LWPOLYLINE
  5
49D
100
AcDbEntity
  8
0
100
AcDbPolyline
 62
7
  6
CONTINUOUS
 90
9
 70
0
 10
99.8754868485
 20
251.9343840122
 10
99.9682829731
 20
251.9613879712
 10
100.0490293669
 20
251.9983220206
 10
100.1179237082
 20
252.0460104741
 10
100.1743729622
 20
252.1019803906
 10
100.2176095838
 20
252.1638704035
 10
100.2483547822
 20
252.232170103
 10
100.2671320885
 20
252.3065447655
 10
100.2737669922
 20
252.3871059656
  0
LWPOLYLINE
  5
49E
100
AcDbEntity
  8
FASEN
100
AcDbPolyline
 62
7
  6
CONTINUOUS
 90
5
 70
0
 10
67.7181893911
 20
248.4
 10
67.6879249365
 20
248.4487883068
 10
67.6576641578
 20
248.498384409
 10
67.6274070552
 20
248.5487883068
 10
67.5971536286
 20
248.6
  0
LWPOLYLINE
  5
49F
100
AcDbEntity
  8
FASEN
100
AcDbPolyline
 62
7
  6
CONTINUOUS
 90
5
 70
0
 10
82.3135856617
 20
248.4
 10
82.3438728437
 20
248.4488258619
 10
82.3741411981
 20
248.4984344826
 10
82.404390725
 20
248.5488258619
 10
82.4346214243
 20
248.6
  0
LINE
  5
4A0
100
AcDbEntity
  8
DEFAULT_1
100
AcDbLine
 62
7
  6
CENTER
 10
50.0158875264
 20
240.0
 11
27.871284475
 21
240.0
  0
LINE
  5
4A1
100
AcDbEntity
  8
DEFAULT_1
100
AcDbLine
 62
7
  6
CENTER
 10
50.0158875264
 20
240.0
 11
69.1491734683
 21
240.0
  0
LINE
  5
4A2
100
AcDbEntity
  8
DEFAULT_1
100
AcDbLine
 62
7
  6
CENTER
 10
79.330965273
 20
240.0
 11
133.0995920663
 21
240.0
  0
LWPOLYLINE
  5
4A3
100
AcDbEntity
  8
FASEN
100
AcDbPolyline
 62
7
  6
CONTINUOUS
 90
5
 70
0
 10
82.3135856617
 20
231.6
 10
82.3438475038
 20
231.5512160102
 10
82.3741074116
 20
231.501621347
 10
82.4043653851
 20
231.4512160102
 10
82.4346214243
 20
231.4
  0
LINE
  5
4A4
100
AcDbEntity
  8
FASEN
100
AcDbLine
 62
9
  6
CONTINUOUS
 10
80.5151488404
 20
249.725
 11
80.5151488404
 21
249.525
  0
LINE
  5
4A5
100
AcDbEntity
  8
FASEN
100
AcDbLine
 62
9
  6
CONTINUOUS
 10
80.5151488404
 20
230.275
 11
80.5151488404
 21
230.475
  0
LINE
  5
4A6
100
AcDbEntity
  8
0
100
AcDbLine
 62
7
  6
CONTINUOUS
 10
118.4048875264
 20
256.835
 11
116.6018875264
 21
255.9528676471
  0
LINE
  5
4A7
100
AcDbEntity
  8
0
100
AcDbLine
 62
7
  6
CONTINUOUS
 10
117.9398875264
 20
255.89
 11
120.0158875264
 21
256.835
  0
LINE
  5
4A8
100
AcDbEntity
  8
0
100
AcDbLine
 62
7
  6
CONTINUOUS
 10
90.3970628366
 20
256.835
 11
90.0158875264
 21
254.9
  0
LWPOLYLINE
  5
4A9
100
AcDbEntity
  8
FASEN
100
AcDbPolyline
 62
7
  6
CONTINUOUS
 90
9
 70
0
 10
82.4346214243
 20
231.4
 10
82.2734269572
 20
231.1532056077
 10
82.0848781304
 20
230.9335883235
 10
81.8671371153
 20
230.739672639
 10
81.6257173974
 20
230.5758850797
 10
81.3631456203
 20
230.4455539405
 10
81.08654448
 20
230.350498406
 10
80.8048745005
 20
230.2940131695
 10
80.5151488404
 20
230.275
  0
LINE
  5
4AA
100
AcDbEntity
  8
0
100
AcDbLine
 62
7
  6
CONTINUOUS
 10
90.0158875264
 20
252.9
 11
90.0158875264
 21
250.9
  0
LINE
  5
4AB
100
AcDbEntity
  8
0
100
AcDbLine
 62
7
  6
CONTINUOUS
 10
90.4170336701
 20
250.9
 11
90.4170336701
 21
251.7767908216
  0
LINE
  5
4AC
100
AcDbEntity
  8
0
100
AcDbLine
 62
7
  6
CONTINUOUS
 10
90.4170336701
 20
252.0919770241
 11
90.4170336701
 21
252.9
  0
LINE
  5
4AD
100
AcDbEntity
  8
0
100
AcDbLine
 62
7
  6
CONTINUOUS
 10
91.2193258978
 20
252.9
 11
91.2193258978
 21
252.0919770241
  0
LINE
  5
4AE
100
AcDbEntity
  8
0
100
AcDbLine
 62
7
  6
CONTINUOUS
 10
91.2193258978
 20
251.7767908216
 11
91.2193258978
 21
250.9
  0
LINE
  5
4AF
100
AcDbEntity
  8
0
100
AcDbLine
 62
7
  6
CONTINUOUS
 10
91.5068875264
 20
254.9
 11
91.7316631775
 21
256.0410520914
  0
LINE
  5
4B0
100
AcDbEntity
  8
0
100
AcDbLine
 62
7
  6
CONTINUOUS
 10
93.8443291247
 20
256.835
 11
93.6262613891
 21
255.728
  0
LINE
  5
4B1
100
AcDbEntity
  8
0
100
AcDbLine
 62
7
  6
CONTINUOUS
 10
95.6090106942
 20
251.6736389637
 11
95.8984088875
 21
252.4988538265
  0
LINE
  5
4B2
100
AcDbEntity
  8
0
100
AcDbLine
 62
7
  6
CONTINUOUS
 10
95.3196125008
 20
250.9
 11
95.494397638
 21
251.3584527314
  0
LINE
  5
4B3
100
AcDbEntity
  8
0
100
AcDbLine
 62
7
  6
CONTINUOUS
 10
95.6835093476
 20
252.9
 11
94.9041395165
 21
250.9
  0
LWPOLYLINE
  5
4B4
100
AcDbEntity
  8
0
100
AcDbPolyline
 62
7
  6
CONTINUOUS
 90
11
 70
0
 10
99.6290678956
 20
250.9
 10
99.7542605257
 20
250.9060066409
 10
99.8701693797
 20
250.9245431141
 10
99.9780775367
 20
250.9558522667
 10
100.0741357591
 20
250.9992055579
 10
100.1547414883
 20
251.0544366626
 10
100.220437766
 20
251.1201017801
 10
100.2701263663
 20
251.1941900519
 10
100.3051285333
 20
251.2782363258
 10
100.3265188317
 20
251.3732132339
 10
100.3339390732
 20
251.4787965655
  0
LWPOLYLINE
  5
4B5
100
AcDbEntity
  8
0
100
AcDbPolyline
 62
7
  6
CONTINUOUS
 90
7
 70
0
 10
98.1792111374
 20
250.8656160474
 10
98.2516387662
 20
250.8678521439
 10
98.3255583532
 20
250.8736009647
 10
98.4010547584
 20
250.8830543969
 10
98.4778734019
 20
250.895636779
 10
98.555759704
 20
250.9107724496
 10
98.6347985245
 20
250.9286532957
  0
LINE
  5
4B6
100
AcDbEntity
  8
FASEN
100
AcDbLine
 62
7
  6
CONTINUOUS
 10
57.5158875264
 20
248.4
 11
67.7181893911
 21
248.4
  0
LINE
  5
4B7
100
AcDbEntity
  8
FASEN
100
AcDbLine
 62
7
  6
CONTINUOUS
 10
82.3135856617
 20
248.4
 11
124.2158875264
 21
248.4
  0
LINE
  5
4B8
100
AcDbEntity
  8
FASEN
100
AcDbLine
 62
7
  6
CONTINUOUS
 10
57.5987302389
 20
248.6
 11
67.5971536286
 21
248.6
  0
LINE
  5
4B9
100
AcDbEntity
  8
FASEN
100
AcDbLine
 62
7
  6
CONTINUOUS
 10
82.4346214243
 20
248.6
 11
124.2158875264
 21
248.6
  0
LINE
  5
4BA
100
AcDbEntity
  8
FASEN
100
AcDbLine
 62
7
  6
CONTINUOUS
 10
69.5166262124
 20
249.525
 11
80.5151488404
 21
249.525
  0
LINE
  5
4BB
100
AcDbEntity
  8
FASEN
100
AcDbLine
 62
7
  6
CONTINUOUS
 10
69.5166262124
 20
249.725
 11
80.5151488404
 21
249.725
  0
LINE
  5
4BC
100
AcDbEntity
  8
0
100
AcDbLine
 62
7
  6
CONTINUOUS
 10
90.0158875264
 20
250.9
 11
90.4170336701
 21
250.9
  0
LINE
  5
4BD
100
AcDbEntity
  8
0
100
AcDbLine
 62
7
  6
CONTINUOUS
 10
91.2193258978
 20
250.9
 11
91.6204720713
 21
250.9
  0
LINE
  5
4BE
100
AcDbEntity
  8
0
100
AcDbLine
 62
7
  6
CONTINUOUS
 10
92.4485523678
 20
250.9
 11
92.8496983029
 21
250.9
  0
LINE
  5
4BF
100
AcDbEntity
  8
0
100
AcDbLine
 62
7
  6
CONTINUOUS
 10
93.6777787186
 20
250.9
 11
94.8554291703
 21
250.9
  0
LINE
  5
4C0
100
AcDbEntity
  8
0
100
AcDbLine
 62
7
  6
CONTINUOUS
 10
94.9041395165
 20
250.9
 11
95.3196125008
 21
250.9
  0
LINE
  5
4C1
100
AcDbEntity
  8
0
100
AcDbLine
 62
7
  6
CONTINUOUS
 10
96.4772057511
 20
250.9
 11
96.9213318802
 21
250.9
  0
LINE
  5
4C2
100
AcDbEntity
  8
0
100
AcDbLine
 62
7
  6
CONTINUOUS
 10
98.9299273468
 20
250.9
 11
99.6290678956
 21
250.9
  0
LINE
  5
4C3
100
AcDbEntity
  8
FASEN
100
AcDbLine
 62
7
  6
CONTINUOUS
 10
46.3158875264
 20
251.2
 11
53.7158875264
 21
251.2
  0
LINE
  5
4C4
100
AcDbEntity
  8
0
100
AcDbLine
 62
7
  6
CONTINUOUS
 10
99.5201859452
 20
251.2151862323
 11
99.3310742356
 21
251.2151862323
  0
LINE
  5
4C5
100
AcDbEntity
  8
0
100
AcDbLine
 62
7
  6
CONTINUOUS
 10
94.8554291703
 20
251.2151862323
 11
94.0789246537
 21
251.2151862323
  0
LWPOLYLINE
  5
4C6
100
AcDbEntity
  8
FASEN
100
AcDbPolyline
 62
7
  6
CONTINUOUS
 90
9
 70
0
 10
80.5151488404
 20
249.725
 10
80.8056046867
 20
249.7058042378
 10
81.0875771278
 20
249.649223589
 10
81.36391475
 20
249.5541843691
 10
81.626071794
 20
249.4239076311
 10
81.8673716678
 20
249.2601265472
 10
82.0850554545
 20
249.0662310739
 10
82.2735156507
 20
248.8466848516
 10
82.4346214243
 20
248.6
  0
LINE
  5
4C7
100
AcDbEntity
  8
0
100
AcDbLine
 62
7
  6
CONTINUOUS
 10
91.6204720713
 20
250.9
 11
91.6204720713
 21
252.9
  0
LINE
  5
4C8
100
AcDbEntity
  8
0
100
AcDbLine
 62
7
  6
CONTINUOUS
 10
91.8754863717
 20
252.9
 11
91.8754863717
 21
252.5848137379
  0
LINE
  5
4C9
100
AcDbEntity
  8
0
100
AcDbLine
 62
7
  6
CONTINUOUS
 10
92.4485523678
 20
252.5848137379
 11
92.4485523678
 21
250.9
  0
LINE
  5
4CA
100
AcDbEntity
  8
0
100
AcDbLine
 62
7
  6
CONTINUOUS
 10
92.8496983029
 20
250.9
 11
92.8496983029
 21
252.5848137379
  0
LINE
  5
4CB
100
AcDbEntity
  8
0
100
AcDbLine
 62
7
  6
CONTINUOUS
 10
93.4227642991
 20
252.5848137379
 11
93.4227642991
 21
252.9
  0
LINE
  5
4CC
100
AcDbEntity
  8
0
100
AcDbLine
 62
7
  6
CONTINUOUS
 10
93.6777787186
 20
252.9
 11
93.6777787186
 21
250.9
  0
LINE
  5
4CD
100
AcDbEntity
  8
0
100
AcDbLine
 62
7
  6
CONTINUOUS
 10
94.0789246537
 20
251.2151862323
 11
94.0789246537
 21
252.9
  0
LINE
  5
4CE
100
AcDbEntity
  8
0
100
AcDbLine
 62
7
  6
CONTINUOUS
 10
96.0908875264
 20
256.835
 11
95.7524035614
 21
254.9
  0
LINE
  5
4CF
100
AcDbEntity
  8
0
100
AcDbLine
 62
7
  6
CONTINUOUS
 10
97.1037989344
 20
255.4053268824
 11
97.1486655201
 21
255.6618141971
  0
LINE
  5
4D0
100
AcDbEntity
  8
0
100
AcDbLine
 62
7
  6
CONTINUOUS
 10
97.232925437
 20
256.1435000557
 11
97.2737630655
 21
256.3769551651
  0
LINE
  5
4D1
100
AcDbEntity
  8
0
100
AcDbLine
 62
7
  6
CONTINUOUS
 10
94.9961538145
 20
254.9
 11
95.3773291247
 21
256.835
  0
LWPOLYLINE
  5
4D2
100
AcDbEntity
  8
0
100
AcDbPolyline
 62
7
  6
CONTINUOUS
 90
11
 70
0
 10
98.1792111374
 20
252.9343840122
 10
97.9756594028
 20
252.9216905666
 10
97.7913518822
 20
252.885471242
 10
97.6253300531
 20
252.8246493343
 10
97.4804694833
 20
252.7424549564
 10
97.3601202422
 20
252.6418398016
 10
97.2619003027
 20
252.5225624239
 10
97.1842071323
 20
252.3854516255
 10
97.128052316
 20
252.2302483552
 10
97.0939729372
 20
252.0569719812
 10
97.0817899682
 20
251.8656160474
  0
LWPOLYLINE
  5
4D3
100
AcDbEntity
  8
0
100
AcDbPolyline
 62
7
  6
CONTINUOUS
 90
17
 70
0
 10
101.8964035614
 20
254.9
 10
102.1112698123
 20
254.9009965308
 10
102.317917571
 20
254.9052526063
 10
102.51654824
 20
254.9124327121
 10
102.7065576116
 20
254.9235433916
 10
102.8868235878
 20
254.9388362991
 10
103.0591012428
 20
254.9602405879
 10
103.2266686086
 20
254.9892964655
 10
103.3838347141
 20
255.0274224237
 10
103.5258989425
 20
255.0758297803
 10
103.6531682615
 20
255.136680264
 10
103.7650368171
 20
255.2136566853
 10
103.8595424577
 20
255.3034071168
 10
103.9324112811
 20
255.4015435706
 10
103.9899726852
 20
255.5148570381
 10
104.0377445291
 20
255.649341889
 10
104.0738875264
 20
255.803
  0
LINE
  5
4D4
100
AcDbEntity
  8
0
100
AcDbLine
 62
7
  6
CONTINUOUS
 10
95.494397638
 20
251.3584527314
 11
96.3052859284
 21
251.3584527314
  0
LINE
  5
4D5
100
AcDbEntity
  8
FASEN
100
AcDbLine
 62
7
  6
CONTINUOUS
 10
46.2956834235
 20
251.4
 11
53.7360916293
 21
251.4
  0
LINE
  5
4D6
100
AcDbEntity
  8
0
100
AcDbLine
 62
7
  6
CONTINUOUS
 10
96.1935381867
 20
251.6736389637
 11
95.6090106942
 21
251.6736389637
  0
LINE
  5
4D7
100
AcDbEntity
  8
0
100
AcDbLine
 62
7
  6
CONTINUOUS
 10
90.4170336701
 20
251.7767908216
 11
91.2193258978
 21
251.7767908216
  0
LINE
  5
4D8
100
AcDbEntity
  8
0
100
AcDbLine
 62
7
  6
CONTINUOUS
 10
99.3310742356
 20
251.7939828277
 11
99.5201859452
 21
251.7939828277
  0
LINE
  5
4D9
100
AcDbEntity
  8
0
100
AcDbLine
 62
7
  6
CONTINUOUS
 10
99.494397638
 20
252.0919770241
 11
99.3310742356
 21
252.0919770241
  0
LINE
  5
4DA
100
AcDbEntity
  8
0
100
AcDbLine
 62
7
  6
CONTINUOUS
 10
91.2193258978
 20
252.0919770241
 11
90.4170336701
 21
252.0919770241
  0
LINE
  5
4DB
100
AcDbEntity
  8
0
100
AcDbLine
 62
7
  6
CONTINUOUS
 10
91.8754863717
 20
252.5848137379
 11
92.4485523678
 21
252.5848137379
  0
LINE
  5
4DC
100
AcDbEntity
  8
0
100
AcDbLine
 62
7
  6
CONTINUOUS
 10
92.8496983029
 20
252.5848137379
 11
93.4227642991
 21
252.5848137379
  0
LINE
  5
4DD
100
AcDbEntity
  8
0
100
AcDbLine
 62
7
  6
CONTINUOUS
 10
99.6290678956
 20
252.9
 11
98.9299273468
 21
252.9
  0
LINE
  5
4DE
100
AcDbEntity
  8
0
100
AcDbLine
 62
7
  6
CONTINUOUS
 10
96.1362314202
 20
252.9
 11
95.6835093476
 21
252.9
  0
LINE
  5
4DF
100
AcDbEntity
  8
0
100
AcDbLine
 62
7
  6
CONTINUOUS
 10
94.0789246537
 20
252.9
 11
93.6777787186
 21
252.9
  0
LINE
  5
4E0
100
AcDbEntity
  8
0
100
AcDbLine
 62
7
  6
CONTINUOUS
 10
93.4227642991
 20
252.9
 11
91.8754863717
 21
252.9
  0
LINE
  5
4E1
100
AcDbEntity
  8
0
100
AcDbLine
 62
7
  6
CONTINUOUS
 10
91.6204720713
 20
252.9
 11
91.2193258978
 21
252.9
  0
LINE
  5
4E2
100
AcDbEntity
  8
0
100
AcDbLine
 62
7
  6
CONTINUOUS
 10
90.4170336701
 20
252.9
 11
90.0158875264
 21
252.9
  0
LWPOLYLINE
  5
4E3
100
AcDbEntity
  8
0
100
AcDbPolyline
 62
7
  6
CONTINUOUS
 90
11
 70
0
 10
99.3310742356
 20
252.5848137379
 10
99.5497778643
 20
252.5845668427
 10
99.6105266616
 20
252.579907177
 10
99.6688025481
 20
252.5714610341
 10
99.7223407084
 20
252.5573495341
 10
99.7697074321
 20
252.5355300151
 10
99.809164343
 20
252.5071201162
 10
99.837926019
 20
252.4723597721
 10
99.857699887
 20
252.4318394342
 10
99.8693622688
 20
252.3863133361
 10
99.8726210572
 20
252.3355300665
  0
LWPOLYLINE
  5
4E4
100
AcDbEntity
  8
0
100
AcDbPolyline
 62
7
  6
CONTINUOUS
 90
11
 70
0
 10
99.5201859452
 20
251.7939828277
 10
99.5900690477
 20
251.7927144977
 10
99.6557936131
 20
251.7856899378
 10
99.7181250282
 20
251.7733403565
 10
99.774767133
 20
251.7543721283
 10
99.824019528
 20
251.7273146019
 10
99.8648603177
 20
251.6931300634
 10
99.8953157217
 20
251.6521150408
 10
99.9165409954
 20
251.6047961565
 10
99.9290956337
 20
251.5518770585
 10
99.9327931382
 20
251.4931231976
  0
LWPOLYLINE
  5
4E5
100
AcDbEntity
  8
0
100
AcDbPolyline
 62
7
  6
CONTINUOUS
 90
7
 70
0
 10
98.1706156708
 20
252.6191977501
 10
98.2504878149
 20
252.6170315699
 10
98.32671337
 20
252.6088733204
 10
98.3987841589
 20
252.5949191959
 10
98.4682247139
 20
252.5745806132
 10
98.5365595674
 20
252.5472689892
 10
98.603280542
 20
252.5131805182
  0
LWPOLYLINE
  5
4E6
100
AcDbEntity
  8
0
100
AcDbPolyline
 62
7
  6
CONTINUOUS
 90
11
 70
0
 10
98.1792111374
 20
251.1808022797
 10
98.0576285094
 20
251.1901262009
 10
97.9470178315
 20
251.2151803689
 10
97.8469474403
 20
251.2567750839
 10
97.7587123265
 20
251.3124794452
 10
97.683746743
 20
251.3799898218
 10
97.6212012398
 20
251.4597347052
 10
97.5701423722
 20
251.5515657565
 10
97.5322563768
 20
251.6549098349
 10
97.5090902277
 20
251.7690665298
 10
97.5001282669
 20
251.8942693114
  0
LWPOLYLINE
  5
4E7
100
AcDbEntity
  8
0
100
AcDbPolyline
 62
7
  6
CONTINUOUS
 90
11
 70
0
 10
97.0817899682
 20
251.8656160474
 10
97.0950708954
 20
251.6766992188
 10
97.1320889828
 20
251.5072638269
 10
97.1936799099
 20
251.3570669682
 10
97.2773366375
 20
251.2268373537
 10
97.3808038501
 20
251.1176070031
 10
97.5041620566
 20
251.0282230874
 10
97.6473593565
 20
250.9575417016
 10
97.8085376632
 20
250.9065680933
 10
97.9855871669
 20
250.8760042018
 10
98.1792111374
 20
250.8656160474
  0
LINE
  5
4E8
100
AcDbEntity
  8
0
100
AcDbLine
 62
7
  6
CONTINUOUS
 10
94.8554291703
 20
250.9
 11
94.8554291703
 21
251.2151862323
  0
LWPOLYLINE
  5
4E9
100
AcDbEntity
  8
0
100
AcDbPolyline
 62
7
  6
CONTINUOUS
 90
11
 70
0
 10
97.5001282669
 20
251.8942693114
 10
97.5104132769
 20
252.0274368546
 10
97.5363992115
 20
252.148373614
 10
97.579197643
 20
252.2577168996
 10
97.6354738547
 20
252.3535547815
 10
97.7025546611
 20
252.4338718125
 10
97.7795670408
 20
252.4996158555
 10
97.864553892
 20
252.5511067654
 10
97.95809427
 20
252.5882131199
 10
98.060105699
 20
252.6109070143
 10
98.1706156708
 20
252.6191977501
  0
LINE
  5
4EA
100
AcDbEntity
  8
0
100
AcDbLine
 62
7
  6
CONTINUOUS
 10
98.603280542
 20
252.5131805182
 11
98.6319336869
 21
252.8512894154
  0
LWPOLYLINE
  5
4EB
100
AcDbEntity
  8
0
100
AcDbPolyline
 62
7
  6
CONTINUOUS
 90
19
 70
0
 10
100.0088875264
 20
255.803
 10
99.9895066057
 20
255.6633810312
 10
99.9850208177
 20
255.5408682324
 10
99.9939674897
 20
255.4383653515
 10
100.0207346397
 20
255.3471611449
 10
100.0694884933
 20
255.256712818
 10
100.139431755
 20
255.1754187718
 10
100.2340940503
 20
255.108837111
 10
100.3446608414
 20
255.0549459297
 10
100.4622609716
 20
255.0150519984
 10
100.5905939232
 20
254.984727393
 10
100.7320717871
 20
254.9599155738
 10
100.8816855807
 20
254.9408091574
 10
101.0343241245
 20
254.926558484
 10
101.1927061001
 20
254.9162338434
 10
101.3577482916
 20
254.9086756418
 10
101.5297452119
 20
254.9037238706
 10
101.709371982
 20
254.9007636725
 10
101.8964035614
 20
254.9
  0
LINE
  5
4EC
100
AcDbEntity
  8
0
100
AcDbLine
 62
7
  6
CONTINUOUS
 10
98.9186655201
 20
255.6618141971
 11
99.002925437
 21
256.1435000557
  0
LINE
  5
4ED
100
AcDbEntity
  8
0
100
AcDbLine
 62
7
  6
CONTINUOUS
 10
99.4577630655
 20
256.3769551651
 11
99.5378875264
 21
256.835
  0
LINE
  5
4EE
100
AcDbEntity
  8
0
100
AcDbLine
 62
7
  6
CONTINUOUS
 10
99.3074035614
 20
254.9
 11
99.3957989344
 21
255.4053268824
  0
LINE
  5
4EF
100
AcDbEntity
  8
0
100
AcDbLine
 62
7
  6
CONTINUOUS
 10
100.2008875264
 20
256.835
 11
100.0088875264
 21
255.803
  0
LINE
  5
4F0
100
AcDbEntity
  8
0
100
AcDbLine
 62
7
  6
CONTINUOUS
 10
101.2737027597
 20
255.9304469983
 11
101.4428875264
 21
256.835
  0
LINE
  5
4F1
100
AcDbEntity
  8
0
100
AcDbLine
 62
7
  6
CONTINUOUS
 10
90.0158875264
 20
254.9
 11
91.5068875264
 21
254.9
  0
LINE
  5
4F2
100
AcDbEntity
  8
0
100
AcDbLine
 62
7
  6
CONTINUOUS
 10
93.2171538145
 20
254.9
 11
94.9961538145
 21
254.9
  0
LINE
  5
4F3
100
AcDbEntity
  8
0
100
AcDbLine
 62
7
  6
CONTINUOUS
 10
95.7524035614
 20
254.9
 11
99.3074035614
 21
254.9
  0
LINE
  5
4F4
100
AcDbEntity
  8
0
100
AcDbLine
 62
7
  6
CONTINUOUS
 10
105.3077192096
 20
254.9
 11
106.5677192096
 21
254.9
  0
LINE
  5
4F5
100
AcDbEntity
  8
0
100
AcDbLine
 62
7
  6
CONTINUOUS
 10
108.1028875264
 20
254.9
 11
109.4858875264
 21
254.9
  0
LINE
  5
4F6
100
AcDbEntity
  8
0
100
AcDbLine
 62
7
  6
CONTINUOUS
 10
110.7218875264
 20
254.9
 11
112.3898875264
 21
254.9
  0
LINE
  5
4F7
100
AcDbEntity
  8
0
100
AcDbLine
 62
7
  6
CONTINUOUS
 10
112.8428875264
 20
254.9
 11
114.3158875264
 21
254.9
  0
LINE
  5
4F8
100
AcDbEntity
  8
0
100
AcDbLine
 62
7
  6
CONTINUOUS
 10
115.0088875264
 20
254.9
 11
116.3798875264
 21
254.9
  0
LINE
  5
4F9
100
AcDbEntity
  8
0
100
AcDbLine
 62
7
  6
CONTINUOUS
 10
118.0418875264
 20
254.9
 11
119.7728875264
 21
254.9
  0
LINE
  5
4FA
100
AcDbEntity
  8
0
100
AcDbLine
 62
7
  6
CONTINUOUS
 10
99.3957989344
 20
255.4053268824
 11
97.1037989344
 21
255.4053268824
  0
LINE
  5
4FB
100
AcDbEntity
  8
0
100
AcDbLine
 62
7
  6
CONTINUOUS
 10
97.1486655201
 20
255.6618141971
 11
98.9186655201
 21
255.6618141971
  0
LINE
  5
4FC
100
AcDbEntity
  8
0
100
AcDbLine
 62
7
  6
CONTINUOUS
 10
99.002925437
 20
256.1435000557
 11
97.232925437
 21
256.1435000557
  0
LINE
  5
4FD
100
AcDbEntity
  8
0
100
AcDbLine
 62
7
  6
CONTINUOUS
 10
97.2737630655
 20
256.3769551651
 11
99.4577630655
 21
256.3769551651
  0
LINE
  5
4FE
100
AcDbEntity
  8
0
100
AcDbLine
 62
7
  6
CONTINUOUS
 10
104.5628875264
 20
256.3805
 11
105.6008875264
 21
256.3805
  0
LINE
  5
4FF
100
AcDbEntity
  8
0
100
AcDbLine
 62
7
  6
CONTINUOUS
 10
106.8608875264
 20
256.3805
 11
107.8988875264
 21
256.3805
  0
LINE
  5
500
100
AcDbEntity
  8
0
100
AcDbLine
 62
7
  6
CONTINUOUS
 10
120.0158875264
 20
256.835
 11
118.4048875264
 21
256.835
  0
LINE
  5
501
100
AcDbEntity
  8
0
100
AcDbLine
 62
7
  6
CONTINUOUS
 10
116.7878875264
 20
256.835
 11
115.4168875264
 21
256.835
  0
LINE
  5
502
100
AcDbEntity
  8
0
100
AcDbLine
 62
7
  6
CONTINUOUS
 10
114.6698875264
 20
256.835
 11
113.1968875264
 21
256.835
  0
LINE
  5
503
100
AcDbEntity
  8
0
100
AcDbLine
 62
7
  6
CONTINUOUS
 10
107.9888875264
 20
256.835
 11
104.6528875264
 21
256.835
  0
LINE
  5
504
100
AcDbEntity
  8
0
100
AcDbLine
 62
7
  6
CONTINUOUS
 10
104.2658875264
 20
256.835
 11
103.0268875264
 21
256.835
  0
LINE
  5
505
100
AcDbEntity
  8
0
100
AcDbLine
 62
7
  6
CONTINUOUS
 10
101.4428875264
 20
256.835
 11
100.2008875264
 21
256.835
  0
LINE
  5
506
100
AcDbEntity
  8
0
100
AcDbLine
 62
7
  6
CONTINUOUS
 10
99.5378875264
 20
256.835
 11
96.0908875264
 21
256.835
  0
LINE
  5
507
100
AcDbEntity
  8
0
100
AcDbLine
 62
7
  6
CONTINUOUS
 10
95.3773291247
 20
256.835
 11
93.8443291247
 21
256.835
  0
LINE
  5
508
100
AcDbEntity
  8
0
100
AcDbLine
 62
7
  6
CONTINUOUS
 10
92.2930628366
 20
256.835
 11
90.3970628366
 21
256.835
  0
LWPOLYLINE
  5
509
100
AcDbEntity
  8
0
100
AcDbPolyline
 62
7
  6
CONTINUOUS
 90
25
 70
0
 10
108.4088875264
 20
256.835
 10
110.1816626984
 20
256.8344964148
 10
110.3369383995
 20
256.8329236306
 10
110.4851854716
 20
256.830319636
 10
110.6279913892
 20
256.8265704651
 10
110.7674814752
 20
256.8215695279
 10
110.9015130263
 20
256.8153326855
 10
111.0275275634
 20
256.8079599221
 10
111.1488977369
 20
256.7990922794
 10
111.2693934535
 20
256.7883506996
 10
111.385264466
 20
256.7758954651
 10
111.4928109075
 20
256.7620237233
 10
111.5956515447
 20
256.7459458217
 10
111.6970957822
 20
256.7270096834
 10
111.7943718391
 20
256.705099729
 10
111.8863163124
 20
256.6798325256
 10
111.9714134728
 20
256.6513595572
 10
112.0469238267
 20
256.6205009973
 10
112.115355264
 20
256.5848673456
 10
112.1797286249
 20
256.5421274125
 10
112.2357655642
 20
256.4929264405
 10
112.2802994456
 20
256.4370114926
 10
112.3130159824
 20
256.3747459182
 10
112.3323741137
 20
256.3064436336
 10
112.3388875264
 20
256.232
  0
LWPOLYLINE
  5
50A
100
AcDbEntity
  8
0
100
AcDbPolyline
 62
7
  6
CONTINUOUS
 90
19
 70
0
 10
101.9648875264
 20
255.2915
 10
101.879679978
 20
255.2919147219
 10
101.7979950347
 20
255.293897083
 10
101.7200198052
 20
255.2971651119
 10
101.6451929636
 20
255.3025647227
 10
101.5723199395
 20
255.3104727645
 10
101.5034875751
 20
255.3220144613
 10
101.4400186217
 20
255.3377346692
 10
101.3830107817
 20
255.3597513421
 10
101.3331670816
 20
255.3909893136
 10
101.2929943011
 20
255.4295728
 10
101.2664639471
 20
255.4742501526
 10
101.2498848639
 20
255.5260738007
 10
101.2413603381
 20
255.587734127
 10
101.2394785496
 20
255.653065622
 10
101.2423324011
 20
255.7144683471
 10
101.2495110106
 20
255.7789359726
 10
101.2598369741
 20
255.8514864011
 10
101.2737027597
 20
255.9304469983
  0
LWPOLYLINE
  5
50B
100
AcDbEntity
  8
0
100
AcDbPolyline
 62
7
  6
CONTINUOUS
 90
24
 70
0
 10
109.7258875264
 20
256.4176470588
 10
109.8839613126
 20
256.4170903323
 10
109.9581045907
 20
256.4163796536
 10
110.0295236645
 20
256.4153440327
 10
110.0990103129
 20
256.4139520551
 10
110.1658038161
 20
256.4121877683
 10
110.2289471157
 20
256.4100629731
 10
110.2898210071
 20
256.4074629957
 10
110.3500095433
 20
256.4042774913
 10
110.4079458929
 20
256.4005052738
 10
110.4621671026
 20
256.3961869146
 10
110.5139455906
 20
256.3910867965
 10
110.5643215839
 20
256.3850463457
 10
110.6125287036
 20
256.3778750034
 10
110.6581064959
 20
256.3695188892
 10
110.7011774123
 20
256.3594093937
 10
110.7420742241
 20
256.3472644806
 10
110.7797055188
 20
256.3321705504
 10
110.8138619389
 20
256.3130546085
 10
110.8422300912
 20
256.2901128034
 10
110.8622216424
 20
256.2629815034
 10
110.8744520558
 20
256.2322670547
 10
110.8786431029
 20
256.1985152347
 10
110.8748875264
 20
256.1615441176
  0
LWPOLYLINE
  5
50C
100
AcDbEntity
  8
0
100
AcDbPolyline
 62
7
  6
CONTINUOUS
 90
7
 70
0
 10
98.6319336869
 20
252.8512894154
 10
98.5637587431
 20
252.8751091816
 10
98.4922702371
 20
252.8950886318
 10
98.4170912599
 20
252.91136647
 10
98.3393525388
 20
252.9235265846
 10
98.260184801
 20
252.931152864
 10
98.1792111374
 20
252.9343840122
  0
LWPOLYLINE
  5
50D
100
AcDbEntity
  8
0
100
AcDbPolyline
 62
7
  6
CONTINUOUS
 90
9
 70
0
 10
100.3339390732
 20
251.4787965655
 10
100.3253672737
 20
251.5664728723
 10
100.3020665785
 20
251.6467012067
 10
100.2636405806
 20
251.7200343774
 10
100.2112785013
 20
251.7848139584
 10
100.14595058
 20
251.8400530839
 10
100.067917355
 20
251.8842898819
 10
99.9778357718
 20
251.9155096712
 10
99.8754868485
 20
251.9343840122
  0
LWPOLYLINE
  5
50E
100
AcDbEntity
  8
0
100
AcDbPolyline
 62
7
  6
CONTINUOUS
 90
11
 70
0
 10
100.2737669922
 20
252.3871059656
 10
100.2654592744
 20
252.490153427
 10
100.2425554864
 20
252.5811352199
 10
100.2044034909
 20
252.6600073774
 10
100.1529597003
 20
252.7269018001
 10
100.0897760467
 20
252.7815647492
 10
100.0154138345
 20
252.8251091762
 10
99.9302626957
 20
252.8585268128
 10
99.8363895797
 20
252.8819275798
 10
99.7362659163
 20
252.8958070379
 10
99.6290678956
 20
252.9
  0
LINE
  5
50F
100
AcDbEntity
  8
0
100
AcDbLine
 62
7
  6
CONTINUOUS
 10
98.6347985245
 20
250.9286532957
 11
98.6176066376
 21
251.2638968468
  0
LINE
  5
510
100
AcDbEntity
  8
0
100
AcDbLine
 62
7
  6
CONTINUOUS
 10
98.9299273468
 20
252.9
 11
98.9299273468
 21
250.9
  0
LINE
  5
511
100
AcDbEntity
  8
0
100
AcDbLine
 62
7
  6
CONTINUOUS
 10
99.3310742356
 20
251.2151862323
 11
99.3310742356
 21
251.7939828277
  0
LINE
  5
512
100
AcDbEntity
  8
0
100
AcDbLine
 62
7
  6
CONTINUOUS
 10
99.3310742356
 20
252.0919770241
 11
99.3310742356
 21
252.5848137379
  0
LWPOLYLINE
  5
513
100
AcDbEntity
  8
0
100
AcDbPolyline
 62
7
  6
CONTINUOUS
 90
11
 70
0
 10
99.9327931382
 20
251.4931231976
 10
99.9276990272
 20
251.4364041878
 10
99.9128115379
 20
251.3861721859
 10
99.8876916225
 20
251.3423029282
 10
99.8536564246
 20
251.3051692055
 10
99.8114255982
 20
251.2753498185
 10
99.7623525638
 20
251.2521024743
 10
99.7077167984
 20
251.2351030848
 10
99.6484597856
 20
251.2236758361
 10
99.5861204982
 20
251.2169389049
 10
99.5201859452
 20
251.2151862323
  0
LWPOLYLINE
  5
514
100
AcDbEntity
  8
0
100
AcDbPolyline
 62
7
  6
CONTINUOUS
 90
11
 70
0
 10
99.8726210572
 20
252.3355300665
 10
99.8680252111
 20
252.2855121919
 10
99.8543748994
 20
252.2412106603
 10
99.8312835604
 20
252.2024922328
 10
99.7999108793
 20
252.1697566265
 10
99.760780077
 20
252.1435783997
 10
99.7154139852
 20
252.1232997905
 10
99.6652516364
 20
252.1087092971
 10
99.6110676482
 20
252.0990426987
 10
99.5542731023
 20
252.0933609343
 10
99.494397638
 20
252.0919770241
  0
LINE
  5
515
100
AcDbEntity
  8
0
100
AcDbLine
 62
7
  6
CONTINUOUS
 10
104.0738875264
 20
255.803
 11
104.2658875264
 21
256.835
  0
LINE
  5
516
100
AcDbEntity
  8
0
100
AcDbLine
 62
7
  6
CONTINUOUS
 10
103.0268875264
 20
256.835
 11
102.864700414
 21
255.9678602321
  0
LWPOLYLINE
  5
517
100
AcDbEntity
  8
0
100
AcDbPolyline
 62
7
  6
CONTINUOUS
 90
13
 70
0
 10
102.864700414
 20
255.9678602321
 10
102.8425147949
 20
255.8534326275
 10
102.8149934082
 20
255.7466503041
 10
102.7836463533
 20
255.64653227
 10
102.7439433319
 20
255.556021501
 10
102.6926975785
 20
255.4770375619
 10
102.6273885947
 20
255.4116696936
 10
102.5426093642
 20
255.3637626883
 10
102.4438326753
 20
255.3299694565
 10
102.3337438998
 20
255.3095816212
 10
102.2152982712
 20
255.2985278361
 10
102.0928274414
 20
255.291962195
 10
101.9648875264
 20
255.2915
  0
LINE
  5
518
100
AcDbEntity
  8
0
100
AcDbLine
 62
7
  6
CONTINUOUS
 10
104.6528875264
 20
256.835
 11
104.5628875264
 21
256.3805
  0
LINE
  5
519
100
AcDbEntity
  8
0
100
AcDbLine
 62
7
  6
CONTINUOUS
 10
105.6008875264
 20
256.3805
 11
105.3077192096
 21
254.9
  0
LINE
  5
51A
100
AcDbEntity
  8
FASEN
100
AcDbLine
 62
7
  6
CONTINUOUS
 10
124.2158875264
 20
259.8
 11
50.0158875264
 21
259.8
  0
LINE
  5
51B
100
AcDbEntity
  8
FASEN
100
AcDbLine
 62
7
  6
CONTINUOUS
 10
124.2158875264
 20
260.0
 11
50.0158875264
 21
260.0
  0
LINE
  5
51C
100
AcDbEntity
  8
0
100
AcDbLine
 62
7
  6
CONTINUOUS
 10
91.7316631775
 20
256.0410520914
 11
93.2171538145
 21
254.9
  0
LINE
  5
51D
100
AcDbEntity
  8
0
100
AcDbLine
 62
7
  6
CONTINUOUS
 10
93.6262613891
 20
255.728
 11
92.2930628366
 21
256.835
  0
LINE
  5
51E
100
AcDbEntity
  8
0
100
AcDbLine
 62
7
  6
CONTINUOUS
 10
96.9213318802
 20
250.9
 11
96.1362314202
 21
252.9
  0
LINE
  5
51F
100
AcDbEntity
  8
0
100
AcDbLine
 62
7
  6
CONTINUOUS
 10
96.3052859284
 20
251.3584527314
 11
96.4772057511
 21
250.9
  0
LINE
  5
520
100
AcDbEntity
  8
0
100
AcDbLine
 62
7
  6
CONTINUOUS
 10
95.8984088875
 20
252.4988538265
 11
96.1935381867
 21
251.6736389637
  0
LINE
  5
521
100
AcDbEntity
  8
0
100
AcDbLine
 62
7
  6
CONTINUOUS
 10
108.4088875264
 20
256.835
 11
108.1028875264
 21
254.9
  0
LINE
  5
522
100
AcDbEntity
  8
0
100
AcDbLine
 62
7
  6
CONTINUOUS
 10
106.5677192096
 20
254.9
 11
106.8608875264
 21
256.3805
  0
LINE
  5
523
100
AcDbEntity
  8
0
100
AcDbLine
 62
7
  6
CONTINUOUS
 10
107.8988875264
 20
256.3805
 11
107.9888875264
 21
256.835
  0
LWPOLYLINE
  5
524
100
AcDbEntity
  8
0
100
AcDbPolyline
 62
7
  6
CONTINUOUS
 90
19
 70
0
 10
110.8748875264
 20
256.1615441176
 10
110.8595969526
 20
256.1104866341
 10
110.8327869399
 20
256.0667832049
 10
110.7930589146
 20
256.0305527759
 10
110.7446085982
 20
256.0014385094
 10
110.6915921839
 20
255.9799575812
 10
110.6327296838
 20
255.9636068966
 10
110.5672113621
 20
255.9500103678
 10
110.4977826567
 20
255.9393041501
 10
110.4276630247
 20
255.931024895
 10
110.3546206727
 20
255.9245950273
 10
110.2770871329
 20
255.919278294
 10
110.1962918868
 20
255.9150873809
 10
110.1132573794
 20
255.9118311347
 10
110.0270362531
 20
255.9093848187
 10
109.9369423443
 20
255.9075715207
 10
109.843214516
 20
255.9063566133
 10
109.7458641778
 20
255.9056347988
 10
109.6448875264
 20
255.9054411765
  0
LINE
  5
525
100
AcDbEntity
  8
0
100
AcDbLine
 62
7
  6
CONTINUOUS
 10
109.4858875264
 20
254.9
 11
109.6049665962
 21
255.653
  0
LINE
  5
526
100
AcDbEntity
  8
0
100
AcDbLine
 62
7
  6
CONTINUOUS
 10
109.6448875264
 20
255.9054411765
 11
109.7258875264
 21
256.4176470588
  0
LINE
  5
527
100
AcDbEntity
  8
0
100
AcDbLine
 62
7
  6
CONTINUOUS
 10
112.3898875264
 20
254.9
 11
110.9318875264
 21
255.7415
  0
LWPOLYLINE
  5
528
100
AcDbEntity
  8
0
100
AcDbPolyline
 62
7
  6
CONTINUOUS
 90
17
 70
0
 10
112.3388875264
 20
256.232
 10
112.3300289149
 20
256.1461420637
 10
112.3063629032
 20
256.0712030798
 10
112.2677020176
 20
256.0079353278
 10
112.2146086793
 20
255.9540819691
 10
112.1463776396
 20
255.9075115079
 10
112.0666244354
 20
255.8686001956
 10
111.9785421733
 20
255.8375569696
 10
111.882692896
 20
255.8127522753
 10
111.7801957456
 20
255.7927871831
 10
111.6725725303
 20
255.7771787557
 10
111.5624476127
 20
255.7651622575
 10
111.447632471
 20
255.7561841536
 10
111.3265090622
 20
255.7494524194
 10
111.1999903126
 20
255.7449177872
 10
111.068496498
 20
255.7422278212
 10
110.9318875264
 20
255.7415
  0
LINE
  5
529
100
AcDbEntity
  8
0
100
AcDbLine
 62
7
  6
CONTINUOUS
 10
113.1968875264
 20
256.835
 11
112.8428875264
 21
254.9
  0
LINE
  5
52A
100
AcDbEntity
  8
0
100
AcDbLine
 62
7
  6
CONTINUOUS
 10
114.3158875264
 20
254.9
 11
114.6698875264
 21
256.835
  0
LINE
  5
52B
100
AcDbEntity
  8
0
100
AcDbLine
 62
7
  6
CONTINUOUS
 10
115.4168875264
 20
256.835
 11
115.0088875264
 21
254.9
  0
LINE
  5
52C
100
AcDbEntity
  8
0
100
AcDbLine
 62
7
  6
CONTINUOUS
 10
116.3798875264
 20
254.9
 11
116.5628875264
 21
255.7679044118
  0
LINE
  5
52D
100
AcDbEntity
  8
0
100
AcDbLine
 62
7
  6
CONTINUOUS
 10
116.6018875264
 20
255.9528676471
 11
116.7878875264
 21
256.835
  0
LINE
  5
52E
100
AcDbEntity
  8
0
100
AcDbLine
 62
7
  6
CONTINUOUS
 10
119.7728875264
 20
254.9
 11
117.9398875264
 21
255.89
  0
LINE
  5
52F
100
AcDbEntity
  8
0
100
AcDbLine
 62
7
  6
CONTINUOUS
 10
116.5628875264
 20
255.7679044118
 11
118.0418875264
 21
254.9
  0
LINE
  5
530
100
AcDbEntity
  8
0
100
AcDbLine
 62
7
  6
CONTINUOUS
 10
109.6049665962
 20
255.653
 11
110.7218875264
 21
254.9
  0
LINE
  5
531
100
AcDbEntity
  8
FASEN
100
AcDbLine
 62
9
  6
CONTINUOUS
 10
124.2158875264
 20
248.6
 11
124.2158875264
 21
248.4
  0
LINE
  5
532
100
AcDbEntity
  8
FASEN
100
AcDbLine
 62
9
  6
CONTINUOUS
 10
124.2158875264
 20
220.2
 11
124.2158875264
 21
220.0
  0
LINE
  5
533
100
AcDbEntity
  8
FASEN
100
AcDbLine
 62
9
  6
CONTINUOUS
 10
124.2158875264
 20
231.4
 11
124.2158875264
 21
231.6
  0
LINE
  5
534
100
AcDbEntity
  8
FASEN
100
AcDbLine
 62
9
  6
CONTINUOUS
 10
124.2158875264
 20
259.8
 11
124.2158875264
 21
260.0
  0
LINE
  5
535
100
AcDbEntity
  8
FASEN
100
AcDbLine
 62
7
  6
CONTINUOUS
 10
156.2
 20
220.0
 11
163.8
 21
220.0
  0
LINE
  5
536
100
AcDbEntity
  8
FASEN
100
AcDbLine
 62
7
  6
CONTINUOUS
 10
156.0
 20
259.8
 11
156.2
 21
260.0
  0
LINE
  5
537
100
AcDbEntity
  8
FASEN
100
AcDbLine
 62
7
  6
CONTINUOUS
 10
156.0
 20
220.2
 11
156.2
 21
220.0
  0
LINE
  5
538
100
AcDbEntity
  8
FASEN
100
AcDbLine
 62
7
  6
CONTINUOUS
 10
156.0
 20
220.2
 11
156.0
 21
259.8
  0
LINE
  5
539
100
AcDbEntity
  8
FASEN
100
AcDbLine
 62
7
  6
CONTINUOUS
 10
156.2
 20
220.0
 11
156.2
 21
260.0
  0
LINE
  5
53A
100
AcDbEntity
  8
DEFAULT_1
100
AcDbLine
 62
7
  6
CENTER
 10
166.5
 20
240.0
 11
153.5
 21
240.0
  0
LINE
  5
53B
100
AcDbEntity
  8
FASEN
100
AcDbLine
 62
7
  6
CONTINUOUS
 10
163.8
 20
260.0
 11
163.8
 21
220.0
  0
LINE
  5
53C
100
AcDbEntity
  8
FASEN
100
AcDbLine
 62
7
  6
CONTINUOUS
 10
164.0
 20
259.8
 11
164.0
 21
220.2
  0
LINE
  5
53D
100
AcDbEntity
  8
FASEN
100
AcDbLine
 62
7
  6
CONTINUOUS
 10
164.0
 20
220.2
 11
163.8
 21
220.0
  0
LINE
  5
53E
100
AcDbEntity
  8
FASEN
100
AcDbLine
 62
7
  6
CONTINUOUS
 10
164.0
 20
259.8
 11
163.8
 21
260.0
  0
LINE
  5
53F
100
AcDbEntity
  8
FASEN
100
AcDbLine
 62
7
  6
CONTINUOUS
 10
156.2
 20
260.0
 11
163.8
 21
260.0
  0
ARC
  5
540
100
AcDbEntity
  8
FASEN
100
AcDbCircle
 62
7
  6
CONTINUOUS
 10
50.0158875264
 20
240.0
 40
20.0
100
AcDbArc
 50
90.0
 51
270.0
  0
ARC
  5
541
100
AcDbEntity
  8
FASEN
100
AcDbCircle
 62
7
  6
CONTINUOUS
 10
50.0158875264
 20
240.0
 40
19.8
100
AcDbArc
 50
90.0
 51
270.0
  0
ARC
  5
542
100
AcDbEntity
  8
FASEN
100
AcDbCircle
 62
7
  6
CONTINUOUS
 10
49.8158875264
 20
240.0
 40
11.537
100
AcDbArc
 50
146.594643963
 51
213.405356037
  0
ARC
  5
543
100
AcDbEntity
  8
FASEN
100
AcDbCircle
 62
7
  6
CONTINUOUS
 10
49.8158875264
 20
240.0
 40
11.337
100
AcDbArc
 50
146.6968229951
 51
213.3031770049
  0
ARC
  5
544
100
AcDbEntity
  8
FASEN
100
AcDbCircle
 62
7
  6
CONTINUOUS
 10
124.2158875264
 20
225.8
 40
5.8
100
AcDbArc
 50
270.0
 51
90.0
  0
ARC
  5
545
100
AcDbEntity
  8
FASEN
100
AcDbCircle
 62
7
  6
CONTINUOUS
 10
124.2158875264
 20
254.2
 40
5.8
100
AcDbArc
 50
270.0
 51
90.0
  0
ARC
  5
546
100
AcDbEntity
  8
FASEN
100
AcDbCircle
 62
7
  6
CONTINUOUS
 10
124.2158875264
 20
254.2
 40
5.6
100
AcDbArc
 50
270.0
 51
90.0
  0
ARC
  5
547
100
AcDbEntity
  8
FASEN
100
AcDbCircle
 62
7
  6
CONTINUOUS
 10
124.2158875264
 20
225.8
 40
5.6
100
AcDbArc
 50
270.0
 51
90.0
  0
ARC
  5
548
100
AcDbEntity
  8
FASEN
100
AcDbCircle
 62
7
  6
CONTINUOUS
 10
80.5151488404
 20
247.525
 40
2.0
100
AcDbArc
 50
25.9444797724
 51
90.0
  0
ARC
  5
549
100
AcDbEntity
  8
FASEN
100
AcDbCircle
 62
7
  6
CONTINUOUS
 10
80.5151488404
 20
232.475
 40
2.0
100
AcDbArc
 50
270.0
 51
334.0555202276
  0
ARC
  5
54A
100
AcDbEntity
  8
FASEN
100
AcDbCircle
 62
7
  6
CONTINUOUS
 10
69.5166262124
 20
232.475
 40
2.0
100
AcDbArc
 50
205.9444797724
 51
270.0
  0
ARC
  5
54B
100
AcDbEntity
  8
FASEN
100
AcDbCircle
 62
7
  6
CONTINUOUS
 10
69.5166262124
 20
247.525
 40
2.0
100
AcDbArc
 50
90.0
 51
154.0555202276
  0
ARC
  5
54C
100
AcDbEntity
  8
FASEN
100
AcDbCircle
 62
7
  6
CONTINUOUS
 10
45.3158875264
 20
251.2
 40
1.0
100
AcDbArc
 50
0.0
 51
225.0
  0
ARC
  5
54D
100
AcDbEntity
  8
FASEN
100
AcDbCircle
 62
7
  6
CONTINUOUS
 10
54.7158875264
 20
251.2
 40
1.0
100
AcDbArc
 50
315.0
 51
180.0
  0
ARC
  5
54E
100
AcDbEntity
  8
FASEN
100
AcDbCircle
 62
7
  6
CONTINUOUS
 10
45.3158875264
 20
228.8
 40
1.0
100
AcDbArc
 50
135.0
 51
360.0
  0
ARC
  5
54F
100
AcDbEntity
  8
FASEN
100
AcDbCircle
 62
7
  6
CONTINUOUS
 10
54.7158875264
 20
228.8
 40
1.0
100
AcDbArc
 50
180.0
 51
45.0
  0
ELLIPSE
  5
550
100
AcDbEntity
  8
FASEN
100
AcDbEllipse
 62
7
  6
CONTINUOUS
 10
40.5621458606
 20
145.4681284571
 30
0.0
 11
2.4598007941
 21
-0.6133408611
 31
0.0
 40
0.1206308617
 41
-1.2571513376
 42
-1.0557934168
  0
ELLIPSE
  5
551
100
AcDbEntity
  8
FASEN
100
AcDbEllipse
 62
7
  6
CONTINUOUS
 10
84.6050765314
 20
165.9576792853
 30
0.0
 11
1.1461725554
 21
2.2922743574
 31
0.0
 40
0.1441293037
 41
-2.0529591825
 42
-1.8516012618
  0
ELLIPSE
  5
552
100
AcDbEntity
  8
FASEN
100
AcDbEllipse
 62
7
  6
CONTINUOUS
 10
73.821839528
 20
171.2248094777
 30
0.0
 11
0.6802927055
 21
2.7283108684
 31
0.0
 40
0.4460663526
 41
-1.6655900899
 42
-1.4642321691
  0
ELLIPSE
  5
553
100
AcDbEntity
  8
FASEN
100
AcDbEllipse
 62
7
  6
CONTINUOUS
 10
51.345382864
 20
140.2009982648
 30
0.0
 11
2.4598007941
 21
-0.6133408611
 31
0.0
 40
0.1206308617
 41
2.0857992368
 42
2.2871571576
  0
ELLIPSE
  5
554
100
AcDbEntity
  8
FASEN
100
AcDbEllipse
 62
7
  6
CONTINUOUS
 10
40.5621458606
 20
145.4681284571
 30
0.0
 11
2.5081402387
 21
-1.2541088275
 31
0.0
 40
0.4267039195
 41
1.6877701661
 42
1.8891280869
  0
ELLIPSE
  5
555
100
AcDbEntity
  8
FASEN
100
AcDbEllipse
 62
7
  6
CONTINUOUS
 10
84.6050765314
 20
165.9576792853
 30
0.0
 11
0.6802927055
 21
2.7283108684
 31
0.0
 40
0.4460663526
 41
1.2746446429
 42
1.4760025637
  0
ELLIPSE
  5
556
100
AcDbEntity
  8
FASEN
100
AcDbEllipse
 62
7
  6
CONTINUOUS
 10
79.0839064465
 20
159.5399047657
 30
0.0
 11
2.080305522
 21
0.2383962412
 31
0.0
 40
0.2278386919
 41
-2.7037922319
 42
-2.5024343111
  0
ELLIPSE
  5
557
100
AcDbEntity
  8
FASEN
100
AcDbEllipse
 62
7
  6
CONTINUOUS
 10
73.821839528
 20
171.2248094777
 30
0.0
 11
-0.3174071473
 21
2.7697745486
 31
0.0
 40
0.6820346316
 41
1.4420498112
 42
1.643407732
  0
ENDSEC
  0
SECTION
  2
OBJECTS
  0
DICTIONARY
  5
C
100
AcDbDictionary
280
0
281
1
  3
ACAD_GROUP
350
D
  3
ACAD_MLINESTYLE
350
17
  3
ACAD_LAYOUT
350
1A
  3
ACAD_PLOTSETTINGS
350
19
  3
ACAD_PLOTSTYLENAME
350
E
  3
ACAD_TABLESTYLE
350
       558
  0
DICTIONARY
  5
D
102
{ACAD_REACTORS
330
C
102
}
100
AcDbDictionary
280
0
281
1
  0
ACDBDICTIONARYWDFLT
  5
E
102
{ACAD_REACTORS
330
C
102
}
100
AcDbDictionary
281
1
  3
Normal
350
F
100
AcDbDictionaryWithDefault
340
F
  0
DICTIONARY
  5
17
102
{ACAD_REACTORS
330
C
102
}
100
AcDbDictionary
280
0
281
1
  3
Standard
350
18
  0
DICTIONARY
  5
558
330
C
100
AcDbDictionary
281
1
  3
Standard
350
       55B
  3
Standard1
350
       55C
  0
DICTIONARY
  5
19
102
{ACAD_REACTORS
330
C
102
}
100
AcDbDictionary
281
1
  0
DICTIONARY
  5
1A
102
{ACAD_REACTORS
330
C
102
}
100
AcDbDictionary
281
1
  3
Model
350
559
  3
Layout1
350
55A
  0
ACDBPLACEHOLDER
  5
F
102
{ACAD_REACTORS
330
E
102
}
  0
MLINESTYLE
  5
18
102
{ACAD_REACTORS
330
17
102
}
100
AcDbMlineStyle
  2
STANDARD
 70
0
  3

 62
256
 51
90.0
 52
90.0
 71
2
 49
0.5
 62
256
  6
BYLAYER
 49
-0.5
 62
256
  6
BYLAYER
  0
LAYOUT
  5
559
102
{ACAD_REACTORS
330
1A
102
}
100
AcDbPlotSettings
  1

  2
none_device
  4

  6

 40
0.0
 41
0.0
 42
0.0
 43
0.0
 44
210.0
 45
297.0
 46
0.0
 47
0.0
 48
0.0
 49
0.0
140
0.0
141
0.0
142
1.0
143
1.0
 70
1024
 72
1
 73
0
 74
0
  7

 75
0
147
1.0
148
0.0
149
0.0
100
AcDbLayout
  1
Model
 70
0
 71
0
 10
0.0
 20
0.0
 11
210.0
 21
297.0
 12
0.0
 22
0.0
 32
0.0
 14
0.0
 24
0.0
 34
0.0
 15
0.0
 25
0.0
 35
0.0
146
0.0
 13
0.0
 23
0.0
 33
0.0
 16
1.0
 26
0.0
 36
0.0
 17
0.0
 27
1.0
 37
0.0
 76
0
330
20D
345
0
346
0
  0
LAYOUT
  5
55A
102
{ACAD_REACTORS
330
1A
102
}
100
AcDbPlotSettings
  1

  2
none_device
  4

  6

 40
0.0
 41
0.0
 42
0.0
 43
0.0
 44
210.0
 45
297.0
 46
0.0
 47
0.0
 48
0.0
 49
0.0
140
0.0
141
0.0
142
1.0
143
1.0
 70
0
 72
1
 73
0
 74
0
  7

 75
0
147
1.0
148
0.0
149
0.0
100
AcDbLayout
  1
Layout1
 70
0
 71
1
 10
0.0
 20
0.0
 11
210.0
 21
297.0
 12
0.0
 22
0.0
 32
0.0
 14
0.0
 24
0.0
 34
0.0
 15
0.0
 25
0.0
 35
0.0
146
0.0
 13
0.0
 23
0.0
 33
0.0
 16
1.0
 26
0.0
 36
0.0
 17
0.0
 27
1.0
 37
0.0
 76
0
330
20E
345
0
346
0
  0
TABLESTYLE
  5
55B
102
{ACAD_REACTORS
330
558
330
2D2
102
}
330
558
100
AcDbTableStyle
  3
Standard
 70
0
 71
0
 40
0.06
 41
0.06
280
1
281
1
  7
Standard
140
0.18
170
1
 62
0
 63
7
283
0
  7
Standard
140
0.18
170
1
 62
0
 63
7
283
0
  7
Standard
140
0.18
170
1
 62
0
 63
7
283
0
  0
TABLESTYLE
  5
55C
102
{ACAD_REACTORS
330
558
102
}
330
558
100
AcDbTableStyle
  3
Standard1
 70
1
 71
0
 40
0.06
 41
0.06
280
1
281
1
  7
Standard
140
0.18
170
1
 62
0
 63
7
283
0
  7
Standard
140
0.18
170
1
 62
0
 63
7
283
0
  7
Standard
140
0.18
170
1
 62
0
 63
7
283
0
  0
ENDSEC
  0
EOF
